(Rap | Hip-Hop) Kanye West - Дискография - 2000-2010, FLAC (tracks), lossless

Ответить на тему
 

llewellys ®

Стаж: 4 года 11 месяцев

Сообщений: 41

Симпатии: 4

Kanye West- -Жанр: Rap | Hip-Hop
Годы выпуска дисков: 2000-2010
Страна:: США
Аудио кодек: FLAC
Тип рипа: tracks+.cue
Битрейт аудио: lossless
-Albums-

Albums

2004 - The College Dropout (Deluxe Edition)

Продолжительность: 01:20:21
Трэклист:
01 - Intro
02 - We Don't Care
03 - Graduation Day
04 - All Falls Down
05 - I'll Fly Away
06 - Spaceship
07 - Jesus Walks
08 - Never Let Me Down
09 - Get Em High
10 - Workout Plan
11 - The New Workout Plan
12 - Slow Jamz
13 - Breathe In Breathe Out
14 - School Spirit
15 - School Spirit
16 - School Spirit
17 - Lil' Jimmy
18 - Two Words
19 - Through Еhe Wire
20 - Family Business
21 - Last Call
22 - Heavy Hitters

EAC Log

Exact Audio Copy V0.99 prebeta 4 from 23. January 2008
EAC extraction logfile from 10. April 2009, 22:22
Kanye West / The College Dropout
Used drive : PLEXTOR DVDR PX-760A Adapter: 2 ID: 1
Read mode : SecureUtilize accurate stream : YesDefeat audio cache : YesMake use of C2 pointers : No
Read offset correction : 30Overread into Lead-In and Lead-Out : YesFill up missing offset samples with silence : YesDelete leading and trailing silent blocks : NoNull samples used in CRC calculations : YesUsed interface : Installed external ASPI interfaceGap handling : Appended to previous track
Used output format : User Defined EncoderSelected bitrate : 128 kBit/sQuality : HighAdd ID3 tag : NoCommand line compressor : C:\Program Files\Exact Audio Copy\Mareo\mareo.exeAdditional command line options : fon soff mareoprofile2.ini %s %d "%a" "%g" "%t" "%n" %y "%m" %x "(Japan Release)"
Track 1
Filename I:\01 - Intro.wav
Pre-gap length 0:00:02.00
Peak level 88.9 % Track quality 100.0 % Test CRC E912A7FD Copy CRC E912A7FD Accurately ripped (confidence 4) [4530E12B] Copy OK
Track 2
Filename I:\02 - We Don't Care.wav
Peak level 99.8 % Track quality 100.0 % Test CRC 782D2364 Copy CRC 782D2364 Accurately ripped (confidence 4) [8CE6A621] Copy OK
Track 3
Filename I:\03 - Graduation Day.wav
Peak level 99.8 % Track quality 100.0 % Test CRC DD3EF7D0 Copy CRC DD3EF7D0 Accurately ripped (confidence 4) [7A3D1364] Copy OK
Track 4
Filename I:\04 - All Falls Down (feat. Syleena Jonson).wav
Peak level 99.8 % Track quality 99.9 % Test CRC E54B3EAA Copy CRC E54B3EAA Accurately ripped (confidence 4) [4A553EA8] Copy OK
Track 5
Filename I:\05 - I'll Fly Away.wav
Peak level 99.8 % Track quality 99.8 % Test CRC DBC962AC Copy CRC DBC962AC Accurately ripped (confidence 4) [161E0B8D] Copy OK
Track 6
Filename I:\06 - Spaceship (feat. GLC & Consequence).wav
Peak level 99.8 % Track quality 100.0 % Test CRC 7929262D Copy CRC 7929262D Accurately ripped (confidence 4) [ACBE96A2] Copy OK
Track 7
Filename I:\07 - Jesus Walks.wav
Peak level 99.8 % Track quality 100.0 % Test CRC 7E2E6252 Copy CRC 7E2E6252 Accurately ripped (confidence 4) [1CEBB2C9] Copy OK
Track 8
Filename I:\08 - Never Let Me Down (feat. Jay-Z & J. Ivy).wav
Peak level 99.8 % Track quality 99.9 % Test CRC 38AEEC1B Copy CRC 38AEEC1B Accurately ripped (confidence 4) [297A4540] Copy OK
Track 9
Filename I:\09 - Get Em High (feat. Talib Kweli & Common).wav
Peak level 99.8 % Track quality 100.0 % Test CRC 245F7040 Copy CRC 245F7040 Accurately ripped (confidence 4) [87EE739F] Copy OK
Track 10
Filename I:\10 - Workout Plan.wav
Peak level 74.7 % Track quality 99.7 % Test CRC F19DCFBF Copy CRC F19DCFBF Accurately ripped (confidence 4) [A9770E92] Copy OK
Track 11
Filename I:\11 - The New Workout Plan.wav
Peak level 99.7 % Track quality 100.0 % Test CRC 2D8FDE0B Copy CRC 2D8FDE0B Accurately ripped (confidence 4) [194371F8] Copy OK
Track 12
Filename I:\12 - Slow Jamz (with Twista, Kanye West & Jamie Foxx).wav
Peak level 99.8 % Track quality 100.0 % Test CRC 71C5A187 Copy CRC 71C5A187 Accurately ripped (confidence 4) [65B7A52C] Copy OK
Track 13
Filename I:\13 - Breathe In Breathe Out (feat. Ludacris).wav
Peak level 99.8 % Track quality 100.0 % Test CRC 152D4245 Copy CRC 152D4245 Accurately ripped (confidence 4) [59BF46E2] Copy OK
Track 14
Filename I:\14 - School Spirit (Skit 1).wav
Peak level 79.2 % Track quality 99.8 % Test CRC 4DE3E9A2 Copy CRC 4DE3E9A2 Accurately ripped (confidence 4) [1E6C1164] Copy OK
Track 15
Filename I:\15 - School Spirit.wav
Peak level 99.8 % Track quality 100.0 % Test CRC 7648E6D0 Copy CRC 7648E6D0 Accurately ripped (confidence 4) [DD531C9C] Copy OK
Track 16
Filename I:\16 - School Spirit (Skit 2).wav
Peak level 92.0 % Track quality 100.0 % Test CRC 4B04ECAB Copy CRC 4B04ECAB Accurately ripped (confidence 4) [86C75ECF] Copy OK
Track 17
Filename I:\17 - Lil Jimmy (Skit).wav
Peak level 99.8 % Track quality 100.0 % Test CRC 5C828BDB Copy CRC 5C828BDB Accurately ripped (confidence 4) [FD2F7A61] Copy OK
Track 18
Filename I:\18 - Two Words (feat. Mos Def, Freeway & The Harlem Boys Choir).wav
Peak level 95.8 % Track quality 100.0 % Test CRC 895BEC05 Copy CRC 895BEC05 Accurately ripped (confidence 4) [F05CE6C5] Copy OK
Track 19
Filename I:\19 - Through The Wire.wav
Peak level 99.8 % Track quality 100.0 % Test CRC E5F0F6C3 Copy CRC E5F0F6C3 Accurately ripped (confidence 4) [D0BAC8EA] Copy OK
Track 20
Filename I:\20 - Family Business.wav
Peak level 99.8 % Track quality 100.0 % Test CRC 354585FD Copy CRC 354585FD Accurately ripped (confidence 4) [E7DEC037] Copy OK
Track 21
Filename I:\21 - Last Call.wav
Peak level 99.8 % Track quality 100.0 % Test CRC 2E5FA940 Copy CRC 2E5FA940 Accurately ripped (confidence 4) [3D62A3AB] Copy OK
Track 22
Filename I:\22 - Heavy Hitters (feat.GLC).wav
Peak level 99.7 % Track quality 99.9 % Test CRC 06ED07A6 Copy CRC 06ED07A6 Accurately ripped (confidence 4) [9B1C1ED3] Copy OK
All tracks accurately ripped
No errors occurred
End of status report

2005 - Late Registration (Deluxe Edition)

Продолжительность: 01:16:06
Трэклист:
01 - Wake Up Mr. West
02 - Heard 'Em Say
03 - Touch The Sky
04 - Gold Digger
05 - Skit
06 - Drive Slow
07 - My Way Home
08 - Crack Music
09 - Roses
10 - Bring Me Down
11 - Addiction
12 - Skit
13 - Diamonds From Sierra Leone Remix
14 - We Major
15 - Skit
16 - Hey Mama
17 - Celebration
18 - Skit
19 - Gone
20 - Diamonds From Sierra Leone
21 - Back To The Basics
22 - We Can Make It Better
23 - Late

EAC Log

Exact Audio Copy V0.99 prebeta 4 from 23. January 2008
EAC extraction logfile from 16. November 2009, 16:52
Kanye West / Late Registration
Used drive : TSSTcorpCD/DVDW TS-H552U Adapter: 0 ID: 0
Read mode : SecureUtilize accurate stream : YesDefeat audio cache : YesMake use of C2 pointers : No
Read offset correction : 12Overread into Lead-In and Lead-Out : NoFill up missing offset samples with silence : YesDelete leading and trailing silent blocks : NoNull samples used in CRC calculations : YesUsed interface : Native Win32 interface for Win NT & 2000Gap handling : Appended to previous track
Used output format : User Defined EncoderSelected bitrate : 128 kBit/sQuality : HighAdd ID3 tag : NoCommand line compressor : C:\Program Files\Exact Audio Copy\mareo5\mareo.exeAdditional command line options : fon soff "FLAC Special.ini" %s %d "%a" "%g" "%t" "%n" %y "%m" %x "(Australian Tour Edition)"
Track 1
Filename C:\01 - Wake Up Mr. West.wav
Pre-gap length 0:00:02.00
Peak level 96.6 % Track quality 99.7 % Test CRC A4D0F309 Copy CRC A4D0F309 Accurately ripped (confidence 8) [320B843E] Copy OK
Track 2
Filename C:\02 - Heard 'Em Say (feat. Adam Levine of Maroon 5).wav
Peak level 98.8 % Track quality 100.0 % Test CRC 42777D4F Copy CRC 42777D4F Accurately ripped (confidence 8) [31DAB198] Copy OK
Track 3
Filename C:\03 - Touch The Sky (feat. Lupe Fiasco).wav
Peak level 97.7 % Track quality 99.9 % Test CRC 06C3F9AB Copy CRC 06C3F9AB Accurately ripped (confidence 8) [C8FD05FB] Copy OK
Track 4
Filename C:\04 - Gold Digger (feat. Jamie Foxx).wav
Peak level 98.8 % Track quality 100.0 % Test CRC 3A7C6437 Copy CRC 3A7C6437 Accurately ripped (confidence 8) [351597B5] Copy OK
Track 5
Filename C:\05 - Skit #1.wav
Peak level 82.2 % Track quality 100.0 % Test CRC 4B7044A9 Copy CRC 4B7044A9 Accurately ripped (confidence 8) [637BF97E] Copy OK
Track 6
Filename C:\06 - Drive Slow (feat. Paul Wall & GLC).wav
Peak level 97.7 % Track quality 100.0 % Test CRC CE7050B7 Copy CRC CE7050B7 Accurately ripped (confidence 8) [C7AFD6F4] Copy OK
Track 7
Filename C:\07 - My Way Home (feat.Common).wav
Peak level 62.3 % Track quality 100.0 % Test CRC 002CBC3F Copy CRC 002CBC3F Accurately ripped (confidence 8) [D2F9E784] Copy OK
Track 8
Filename C:\08 - Crack Music (feat. Game).wav
Peak level 98.8 % Track quality 100.0 % Test CRC 36E30B98 Copy CRC 36E30B98 Accurately ripped (confidence 8) [31A57107] Copy OK
Track 9
Filename C:\09 - Roses.wav
Peak level 98.8 % Track quality 100.0 % Test CRC 484BC8BB Copy CRC 484BC8BB Accurately ripped (confidence 8) [229740E1] Copy OK
Track 10
Filename C:\10 - Bring Me Down (feat. Brandy).wav
Peak level 98.6 % Track quality 100.0 % Test CRC CF18ADF1 Copy CRC CF18ADF1 Accurately ripped (confidence 8) [66E58199] Copy OK
Track 11
Filename C:\11 - Addiction.wav
Peak level 97.7 % Track quality 99.9 % Test CRC 9C1B8D03 Copy CRC 9C1B8D03 Accurately ripped (confidence 8) [F43AF6B2] Copy OK
Track 12
Filename C:\12 - Skit #2.wav
Peak level 98.8 % Track quality 100.0 % Test CRC 366BDAB6 Copy CRC 366BDAB6 Accurately ripped (confidence 8) [9C99EEB6] Copy OK
Track 13
Filename C:\13 - Diamonds From Sierra Leone (Remix)(feat. Jay-Z).wav
Peak level 98.8 % Track quality 100.0 % Test CRC 60A13394 Copy CRC 60A13394 Accurately ripped (confidence 8) [C4F15584] Copy OK
Track 14
Filename C:\14 - We Major (feat. Nas & Really Doe).wav
Peak level 98.8 % Track quality 100.0 % Test CRC CEC3BEC8 Copy CRC CEC3BEC8 Accurately ripped (confidence 8) [02467443] Copy OK
Track 15
Filename C:\15 - Skit #3.wav
Peak level 84.5 % Track quality 100.0 % Test CRC 3E8BADBC Copy CRC 3E8BADBC Accurately ripped (confidence 8) [55C5E215] Copy OK
Track 16
Filename C:\16 - Hey Mama.wav
Peak level 98.8 % Track quality 100.0 % Test CRC 21AFA36B Copy CRC 21AFA36B Accurately ripped (confidence 8) [1BC50480] Copy OK
Track 17
Filename C:\17 - Celebration.wav
Peak level 98.8 % Track quality 100.0 % Test CRC DEACFA01 Copy CRC DEACFA01 Accurately ripped (confidence 8) [292FF75E] Copy OK
Track 18
Filename C:\18 - Skit #4.wav
Peak level 98.8 % Track quality 99.8 % Test CRC 15CE7F9D Copy CRC 15CE7F9D Accurately ripped (confidence 8) [229C9F25] Copy OK
Track 19
Filename C:\19 - Gone (feat. Consequence & Cam'Ron).wav
Peak level 98.8 % Track quality 99.9 % Test CRC DF1046A6 Copy CRC DF1046A6 Accurately ripped (confidence 8) [6967EC17] Copy OK
Track 20
Filename C:\20 - Diamonds From Sierra Leone.wav
Peak level 86.9 % Track quality 100.0 % Test CRC BE93CF57 Copy CRC BE93CF57 Accurately ripped (confidence 8) [E594D22A] Copy OK
Track 21
Filename C:\21 - Back To Basics (with Common).wav
Peak level 98.8 % Track quality 100.0 % Test CRC 532FD139 Copy CRC 532FD139 Accurately ripped (confidence 8) [E2582DDA] Copy OK
Track 22
Filename C:\22 - We Can Make It Better (with Talib Kweli, Q-Tip, Common, Rhymefest).wav
Peak level 98.8 % Track quality 100.0 % Test CRC E6EAC084 Copy CRC E6EAC084 Accurately ripped (confidence 8) [B9D876C6] Copy OK
Track 23
Filename C:\23 - Late.wav
Peak level 98.8 % Track quality 100.0 % Test CRC 476AF213 Copy CRC 476AF213 Accurately ripped (confidence 8) [07508CA2] Copy OK
All tracks accurately ripped
No errors occurred
End of status report

2006 - Late Orchestration

Продолжительность: 00:47:26
Трэклист:
01 - Diamonds From Sierra Leone
02 - Touch The Sky
03 - Crack Music
04 - Drive Slow
05 - Through The Wire
06 - Workout Plan
07 - Heard Em Say
08 - All Falls Down
09 - Bring me Down
10 - Gone
11 - Late
12 - Jesus Walks
13 - Gold Digger AOL Sessions

EAC Log

EAC extraction logfile from 26. September 2007, 18:57 for CDKanye West / Late Orchestration
Used drive : HL-DT-STDVD-ROM GDR8164B Adapter: 4 ID: 1Read mode : Secure with NO C2, accurate stream, disable cacheRead offset correction : 102Overread into Lead-In and Lead-Out : No
Used output format : C:\Programme\FLAC\flac.exe (User Defined Encoder) 128 kBit/s Additional command line options : -V -8 -T "artist=%a" -T "title=%t" -T "album=%g" -T "date=%y" -T "tracknumber=%n" -T "genre=%m" %s
Other options : Fill up missing offset samples with silence : Yes Delete leading and trailing silent blocks : No Native Win32 interface for Win NT & 2000
Track 5 Filename D:\05 - Through The Wire.wav
Missing samples Peak level 0.0 % Track quality 100.0 % Copy finished
There were errors
End of status report
------------------------------------------------------------
EAC extraction logfile from 26. September 2007, 19:15 for CDKanye West / Late Orchestration
Used drive : HL-DT-STDVD-ROM GDR8164B Adapter: 4 ID: 1Read mode : Secure with NO C2, accurate stream, disable cacheRead offset correction : 102Overread into Lead-In and Lead-Out : No
Used output format : C:\Programme\FLAC\flac.exe (User Defined Encoder) 128 kBit/s Additional command line options : -V -8 -T "artist=%a" -T "title=%t" -T "album=%g" -T "date=%y" -T "tracknumber=%n" -T "genre=%m" %s
Other options : Fill up missing offset samples with silence : Yes Delete leading and trailing silent blocks : No Native Win32 interface for Win NT & 2000
Track 1 Filename D:\01 - Diamonds From Sierra Leone.wav
Pre-gap length 0:00:02.00
Peak level 98.8 % Track quality 100.0 % Test CRC 8EEC406F Copy CRC 8EEC406F Copy OK
Track 2 Filename D:\02 - Touch The Sky feat. Lupe Fiasco.wav
Pre-gap length 0:00:00.25
Peak level 98.8 % Track quality 100.0 % Test CRC 11C4BF2E Copy CRC 11C4BF2E Copy OK
Track 3 Filename D:\03 - Crack Music.wav
Pre-gap length 0:00:00.05
Peak level 98.8 % Track quality 100.0 % Test CRC A9612CDE Copy CRC A9612CDE Copy OK
Track 4 Filename D:\04 - Drive Slow feat. GLC.wav
Peak level 98.8 % Track quality 100.0 % Test CRC 7850DD08 Copy CRC 7850DD08 Copy OK
Track 5 Filename D:\05 - Through The Wire.wav
Peak level 98.3 % Track quality 100.0 % Test CRC 38C7D22B Copy CRC 38C7D22B Copy OK
Track 6 Filename D:\06 - Workout Plan.wav
Peak level 98.4 % Track quality 100.0 % Test CRC 71BE0885 Copy CRC 71BE0885 Copy OK
Track 7 Filename D:\07 - Heard 'Em Say feat. John Legend.wav
Pre-gap length 0:00:01.17
Peak level 98.7 % Track quality 100.0 % Test CRC 5BEE0B67 Copy CRC 5BEE0B67 Copy OK
Track 8 Filename D:\08 - All Falls Down.wav
Pre-gap length 0:00:00.06
Peak level 97.6 % Track quality 100.0 % Test CRC 490F53F2 Copy CRC 490F53F2 Copy OK
Track 9 Filename D:\09 - Bring Me Down.wav
Pre-gap length 0:00:00.24
Peak level 98.8 % Track quality 100.0 % Test CRC DAB07DC7 Copy CRC DAB07DC7 Copy OK
Track 10 Filename D:\10 - Gone feat. Consequence.wav
Pre-gap length 0:00:00.20
Peak level 98.8 % Track quality 100.0 % Test CRC 4ADB0332 Copy CRC 4ADB0332 Copy OK
Track 11 Filename D:\11 - Late.wav
Pre-gap length 0:00:00.81
Peak level 98.8 % Track quality 100.0 % Test CRC 4FBCC086 Copy CRC 4FBCC086 Copy OK
Track 12 Filename D:\12 - Jesus Walks.wav
Peak level 98.8 % Track quality 100.0 % Test CRC D1225AE2 Copy CRC D1225AE2 Copy OK
Track 13 Filename D:\13 - Gold Digger (AOL Sessions).wav
Peak level 98.8 % Track quality 100.0 % Test CRC AFD67F72 Copy CRC AFD67F72 Copy OK
No errors occured
End of status report

2007 - Graduation (Deluxe Edition)

Продолжительность: 01:03:32
Трэклист:
01 - Good Morning
02 - Champion
03 - Stronger
04 - I Wonder
05 - Good Life
06 - Cant Tell Me Nothing
07 - Barry Bonds
08 - Drunk And Hot Girls
09 - Flashing Lights
10 - Everything I Am
11 - The Glory
12 - Homecoming
13 - Big Brother
14 - Goodnight
15 - Bittersweet Poetry

EAC Log

EAC Log

Exact Audio Copy V0.99 prebeta 4 from 23. January 2008
EAC extraction logfile from 15. November 2009, 15:32
Kanye West / Graduation
Used drive : TSSTcorpCD/DVDW TS-H552U Adapter: 0 ID: 0
Read mode : SecureUtilize accurate stream : YesDefeat audio cache : YesMake use of C2 pointers : No
Read offset correction : 12Overread into Lead-In and Lead-Out : NoFill up missing offset samples with silence : YesDelete leading and trailing silent blocks : NoNull samples used in CRC calculations : YesUsed interface : Native Win32 interface for Win NT & 2000Gap handling : Appended to previous track
Used output format : User Defined EncoderSelected bitrate : 128 kBit/sQuality : HighAdd ID3 tag : NoCommand line compressor : C:\Program Files\Exact Audio Copy\mareo5\mareo.exeAdditional command line options : fon soff "All Active Special.ini" %s %d "%a" "%g" "%t" "%n" %y "%m" %x "(UICD-9040) (Japan Release)"
Track 1
Filename C:\01 - Good Morning.wav
Pre-gap length 0:00:02.00
Peak level 100.0 % Track quality 100.0 % Test CRC 691C4452 Copy CRC 691C4452 Accurately ripped (confidence 3) [AF05274A] Copy OK
Track 2
Filename C:\02 - Champion.wav
Pre-gap length 0:00:00.20
Peak level 100.0 % Track quality 100.0 % Test CRC CE4CAA96 Copy CRC CE4CAA96 Accurately ripped (confidence 3) [1C92DEDB] Copy OK
Track 3
Filename C:\03 - Stronger.wav
Peak level 98.8 % Track quality 100.0 % Test CRC C32D420C Copy CRC C32D420C Accurately ripped (confidence 3) [961561EB] Copy OK
Track 4
Filename C:\04 - I Wonder.wav
Peak level 98.8 % Track quality 99.9 % Test CRC 47D9CE59 Copy CRC 47D9CE59 Accurately ripped (confidence 3) [9C3BF13F] Copy OK
Track 5
Filename C:\05 - Good Life feat. T-Pain.wav
Peak level 98.8 % Track quality 100.0 % Test CRC DEA03F37 Copy CRC DEA03F37 Accurately ripped (confidence 3) [BF87E11B] Copy OK
Track 6
Filename C:\06 - Can't Tell Me Nothing.wav
Peak level 98.8 % Track quality 100.0 % Test CRC F069B79B Copy CRC F069B79B Accurately ripped (confidence 2) [0C8FDDB0] Copy OK
Track 7
Filename C:\07 - Barry Bonds feat. Lil Wayne.wav
Peak level 96.8 % Track quality 100.0 % Test CRC CD2CF2E8 Copy CRC CD2CF2E8 Accurately ripped (confidence 3) [99F9F07E] Copy OK
Track 8
Filename C:\08 - Drunk & Hot Girls feat. Mos Def.wav
Peak level 98.0 % Track quality 100.0 % Test CRC 2D6360CC Copy CRC 2D6360CC Accurately ripped (confidence 3) [7EA9E132] Copy OK
Track 9
Filename C:\09 - Flashing Lights feat. Dwele.wav
Peak level 100.0 % Track quality 100.0 % Test CRC 946DBD1E Copy CRC 946DBD1E Accurately ripped (confidence 3) [5C979FE2] Copy OK
Track 10
Filename C:\10 - Everything I Am feat. DJ Premier.wav
Peak level 90.7 % Track quality 99.9 % Test CRC 8FBB8059 Copy CRC 8FBB8059 Accurately ripped (confidence 3) [E6D3E204] Copy OK
Track 11
Filename C:\11 - The Glory.wav
Peak level 100.0 % Track quality 99.9 % Test CRC 28A6A438 Copy CRC 28A6A438 Accurately ripped (confidence 3) [DB4D03CC] Copy OK
Track 12
Filename C:\12 - Homecoming.wav
Peak level 100.0 % Track quality 100.0 % Test CRC D67C6E6F Copy CRC D67C6E6F Accurately ripped (confidence 2) [391B32B4] Copy OK
Track 13
Filename C:\13 - Big Brother.wav
Peak level 98.8 % Track quality 100.0 % Test CRC 60814224 Copy CRC 60814224 Accurately ripped (confidence 3) [52564284] Copy OK
Track 14
Filename C:\14 - Good Night feat. Mos Def & Al Be.wav
Pre-gap length 0:04:59.97
Peak level 91.6 % Track quality 100.0 % Test CRC 2ADCA186 Copy CRC 2ADCA186 Accurately ripped (confidence 3) [3AF5D987] Copy OK
Track 15
Filename C:\15 - Bittersweet Poetry feat. John Mayer.wav
Peak level 72.4 % Track quality 100.0 % Test CRC 328499CB Copy CRC 328499CB Accurately ripped (confidence 3) [A9272B4C] Copy OK
All tracks accurately ripped
No errors occurred
End of status report

2008 - 808's And Heartbreak

Продолжительность: 00:52:07
Трэклист:
01 - Say You Will
02 - Welcome To Hearbreak
03 - Heartless
04 - Amazing
05 - Love Lockdown
06 - Paranoid
07 - RoboCop
08 - Street Lights
09 - Bad News
10 - See You In My Nightmares
11 - Coldest Winter
12 - Pinocchio Story Live

EAC Log

Exact Audio Copy V0.99 prebeta 4 from 23. January 2008
Отчёт EAC об извлечении, выполненном 28. ноября 2008, 0:51
Unknown Artist / Unknown Title
Дисковод: HL-DT-STDVDRAM GSA-T40N Adapter: 0 ID: 0
Режим чтения : ДостоверностьИспользование точного потока : ДаОтключение кэша аудио : ДаИспользование указателей C2 : Нет
Коррекция смещения при чтении : 667Способность читать области Lead-in и Lead-out : НетЗаполнение пропущенных сэмплов тишиной : ДаУдаление блоков с тишиной в начале и конце : НетПри вычислениях CRC использовались нулевые сэмплы : ДаИнтерфейс : Установленный внешний ASPI-интерфейс
Выходной формат : Внутренние WAV-операцииФормат сэмплов : 44.100 Гц; 16 бит; стерео
Характеристики диапазона извлечения и сообщения об ошибках
Выбранный диапазон
Имя файла D:\Documents and Settings\Admin\Мои документы\Раздачи\Kanye Loss\KanyeWestOff808.wav
Пиковый уровень 100.0 % Качество диапазона 100.0 % CRC копии E25CE878 Копирование... OK
Ошибок не произошло
Конец отчёта

2010 - VH1's Storytellers

Продолжительность: 01:04:37
Трэклист:
01 - See You In My Nightmares Live
02 - Robocop Live
03 - Flashing Lights Live
04 - Amazing Live
05 - Touch The Sky Live
06 - Say You Will Live
07 - Good Life Live
08 - Heartless Live
09 - Stronger

EAC Log

Exact Audio Copy V0.99 prebeta 5 from 4. May 2009
EAC extraction logfile from 5. January 2010, 13:40
Kanye West / VH1 Storytellers
Used drive : Optiarc DVD RW AD-7203A Adapter: 0 ID: 0
Read mode : SecureUtilize accurate stream : YesDefeat audio cache : YesMake use of C2 pointers : No
Read offset correction : 48Overread into Lead-In and Lead-Out : NoFill up missing offset samples with silence : YesDelete leading and trailing silent blocks : NoNull samples used in CRC calculations : YesUsed interface : Native Win32 interface for Win NT & 2000Gap handling : Appended to previous track
Used output format : User Defined EncoderSelected bitrate : 320 kBit/sQuality : HighAdd ID3 tag : NoCommand line compressor : C:\Program Files\Exact Audio Copy\Flac\flac.exeAdditional command line options : -V -8 -T "artist=%a" -T "title=%t" -T "album=%g" -T "date=%y" -T "tracknumber=%n" -T "genre=%m" %s
Track 1
Filename C:\01 - See You In My Nightmares.wav
Pre-gap length 0:00:02.00
Peak level 100.0 % Track quality 100.0 % Test CRC ED3DDBBB Copy CRC ED3DDBBB Track not present in AccurateRip database Copy OK
Track 2
Filename C:\02 - Robocop.wav
Peak level 100.0 % Track quality 100.0 % Test CRC 668E71D4 Copy CRC 668E71D4 Track not present in AccurateRip database Copy OK
Track 3
Filename C:\03 - Flashing Lights.wav
Peak level 100.0 % Track quality 100.0 % Test CRC AC8A4FA2 Copy CRC AC8A4FA2 Track not present in AccurateRip database Copy OK
Track 4
Filename C:\04 - Amazing.wav
Peak level 100.0 % Track quality 100.0 % Test CRC 23B83214 Copy CRC 23B83214 Track not present in AccurateRip database Copy OK
Track 5
Filename C:\05 - Touch The Sky.wav
Peak level 100.0 % Track quality 100.0 % Test CRC 502743D4 Copy CRC 502743D4 Track not present in AccurateRip database Copy OK
Track 6
Filename C:\06 - Say You Will.wav
Peak level 97.7 % Track quality 100.0 % Test CRC DBA6DA7D Copy CRC DBA6DA7D Track not present in AccurateRip database Copy OK
Track 7
Filename C:\07 - Good Life.wav
Peak level 100.0 % Track quality 100.0 % Test CRC EC530B68 Copy CRC EC530B68 Track not present in AccurateRip database Copy OK
Track 8
Filename C:\08 - Heartless,Pinocchio Story.wav
Peak level 100.0 % Track quality 99.9 % Test CRC 43AFDAEB Copy CRC 43AFDAEB Track not present in AccurateRip database Copy OK
Track 9
Filename C:\09 - Stronger.wav
Peak level 100.0 % Track quality 100.0 % Test CRC 45564D94 Copy CRC 45564D94 Track not present in AccurateRip database Copy OK
No errors occurred
End of status report
-Vinyl-

Vinyl

2008 - 808's And Heartbreak

Продолжительность: 00:52:47
Трэклист:
01 - Say You Will
02 - Welcome To Hearbreak
03 - Heartless
04 - Amazing
05 - Love Lockdown
06 - Paranoid
07 - RoboCop
08 - Street Lights
09 - Bad News
10 - See You In My Nightmares
11 - Coldest Winter
12 - Pinocchio Story Live
-Mixtapes-

Mixtapes

2000 - Kon The Louis Vuitton Don

Продолжительность: 01:13:45
Трэклист:
01 - Intro
02 - Better Than Yours
03 - Chase The Devil
04 - Chase You Outta Here
05 - Lucifer
06 - Encore
07 - You Don't Know My Name
08 - Slow Jams
09 - Knock Knock Remix
10 - Wouldn't You Like 2 Ryde
11 - Me Against The Music
12 - No More For Me
13 - Keep The Receipt
14 - Jay-Z Freestyle
15 - Stand Up Remix
16 - Dog's Out
17 - Doin' My Job
18 - Turn Yaself In
19 - Til...
20 - Defence
21 - Through The Wire Remix
22 - You
23 - Certified Gangstas

XLD Log

X Lossless Decoder version 20091230 (115.2)
XLD extraction logfile from 2010-01-05 19:02:21 -0800
Kanye West / Kon The Louis Vuitton Don
Used drive : MATSHITA DVD-R UJ-868 (revision KB19)
Use cdparanoia mode : YES (CDParanoia III 10.2 engine)Disable audio cache : OK for the drive with cache less than 2750KBMake use of C2 pointers : NORead offset correction : 102Max retry count : 100
Track 01 Filename : /01 - Intro.flac
Pre-gap length : 00:02:00
CRC32 hash (test run) : 712FB670 CRC32 hash : 712FB670 CRC32 hash (skip zero) : CFAEAA41 AccurateRip signature : 3F48FAA1
Track 02 Filename : /02 - Better Than Yours ft. Common.flac
CRC32 hash (test run) : 35378137 CRC32 hash : 35378137 CRC32 hash (skip zero) : E4906A7C AccurateRip signature : 3C568E98
Track 03 Filename : /03 - Chase than Devil.flac
CRC32 hash (test run) : 1522ADA5 CRC32 hash : 1522ADA5 CRC32 hash (skip zero) : 6792D288 AccurateRip signature : 19C5CC63
Track 04 Filename : /04 - Chase You Outta Here - 50 cent.flac
CRC32 hash (test run) : D7800BC0 CRC32 hash : D7800BC0 CRC32 hash (skip zero) : C6DE2642 AccurateRip signature : 24287529
Track 05 Filename : /05 - Lucifer.flac
CRC32 hash (test run) : 974EC195 CRC32 hash : 974EC195 CRC32 hash (skip zero) : 82312940 AccurateRip signature : 590F644E
Track 06 Filename : /06 - Encore.flac
CRC32 hash (test run) : BB3A5664 CRC32 hash : BB3A5664 CRC32 hash (skip zero) : 732AA48C AccurateRip signature : 6213344C
Track 07 Filename : /07 - You Don't Know My Name.flac
CRC32 hash (test run) : 3E611589 CRC32 hash : 3E611589 CRC32 hash (skip zero) : 85D3852B AccurateRip signature : ABBCC4E4
Track 08 Filename : /08 - Slow Jamz.flac
CRC32 hash (test run) : 2D356579 CRC32 hash : 2D356579 CRC32 hash (skip zero) : B5DD1D74 AccurateRip signature : 3EC755D7
Track 09 Filename : /09 - Knock Knock Remix ft. Monica.flac
CRC32 hash (test run) : 8BFF295E CRC32 hash : 8BFF295E CRC32 hash (skip zero) : B289D866 AccurateRip signature : A59A6B85
Track 10 Filename : /10 - Wouldn't You Like 2 Ryde ft. Common, Malik Yusef.flac
CRC32 hash (test run) : 20C16B4D CRC32 hash : 20C16B4D CRC32 hash (skip zero) : B351AAC7 AccurateRip signature : 41369DC1
Track 11 Filename : /11 - Me Against the Music Remix.flac
CRC32 hash (test run) : 641359A1 CRC32 hash : 641359A1 CRC32 hash (skip zero) : C6C0049F AccurateRip signature : 1736C494
Track 12 Filename : /12 - No More For Me ft. Mark Spitz.flac
CRC32 hash (test run) : 61533D2F CRC32 hash : 61533D2F CRC32 hash (skip zero) : 0A69D3EB AccurateRip signature : EF1BB1DE
Track 13 Filename : /13 - Keep the Reciept.flac
CRC32 hash (test run) : DF4481D9 CRC32 hash : DF4481D9 CRC32 hash (skip zero) : 82EB670A AccurateRip signature : DBEABE4C
Track 14 Filename : /14 - Jay-Z freestyle.flac
CRC32 hash (test run) : D86C95C2 CRC32 hash : D86C95C2 CRC32 hash (skip zero) : 8358ED4B AccurateRip signature : 272EE73B
Track 15 Filename : /15 - Stand Up Remix.flac
CRC32 hash (test run) : DEE1645C CRC32 hash : DEE1645C CRC32 hash (skip zero) : AAA68C44 AccurateRip signature : 20654DA6
Track 16 Filename : /16 - Dawgs Out.flac
CRC32 hash (test run) : F374D2BF CRC32 hash : F374D2BF CRC32 hash (skip zero) : 7FDD3F60 AccurateRip signature : 07EEB448
Track 17 Filename : /17 - Doin My Job - T.I..flac
CRC32 hash (test run) : 9E1B83B5 CRC32 hash : 9E1B83B5 CRC32 hash (skip zero) : 8D2391CE AccurateRip signature : 783BE8A7
Track 18 Filename : /18 - Turn Yourself In - Consequence.flac
CRC32 hash (test run) : D0984BFC CRC32 hash : D0984BFC CRC32 hash (skip zero) : 5FC73C8F AccurateRip signature : AE05241C
Track 19 Filename : /19 - 03 til - Consequence.flac
CRC32 hash (test run) : 26EFD80E CRC32 hash : 26EFD80E CRC32 hash (skip zero) : 667CD2F7 AccurateRip signature : 9E81DF0F
Track 20 Filename : /20 - Defence - GLC, Meka.flac
CRC32 hash (test run) : 5695A01E CRC32 hash : 5695A01E CRC32 hash (skip zero) : 7B80E1DB AccurateRip signature : 85AD5A29
Track 21 Filename : /21 - Through The Wire remix.flac
CRC32 hash (test run) : F1ADAB47 CRC32 hash : F1ADAB47 CRC32 hash (skip zero) : 8E006311 AccurateRip signature : C635E2EE
Track 22 Filename : /22 - You ft. Mela.flac
CRC32 hash (test run) : 779C9B65 CRC32 hash : 779C9B65 CRC32 hash (skip zero) : C9E4F684 AccurateRip signature : A3C0A85F
Track 23 Filename : /23 - Certified Gangstas.flac
CRC32 hash (test run) : F7547B95 CRC32 hash : F7547B95 CRC32 hash (skip zero) : 219F6C54 AccurateRip signature : 34B78C14
No errors occurred
End of status report

2003 - Get Well Soon

Продолжительность: 01:18:52
Трэклист:
01 - Intro
02 - Live From Irving Plaza
03 - Guess Who's Back
04 - Jesus Walks
05 - Through The Wire
06 - 2 Words
07 - Show Must Go On
08 - Champions
09 - Live From Tweeter Center
10 - The Bounce
11 - Poppin' Tags
12 - A Million Freestyle
13 - Bonnie And Clyde
14 - B R Right
15 - Brown Sugar
16 - Good To You
17 - The Good, The Bad, The Ugly
18 - Dead Or Alive
19 - Takeover Freestyle
20 - Nowhere To Run
21 - Poppa Was a Player
22 - Homecoming
23 - Reebok Commercial
24 - Heaven
25 - In Cold Blood
26 - My Way
27 - You Made Me
28 - My Life
29 - Ghetto
30 - The Truth
31 - This Cant Be Life
32 - Nothing Like It
33 - Izzo
34 - Heart Of The City
35 - Never Change
36 - My Life, My Love

XLD Log

X Lossless Decoder version 20091230 (115.2)
XLD extraction logfile from 2010-01-05 18:18:57 -0800
Kanye West / Get Well Soon...
Used drive : MATSHITA DVD-R UJ-868 (revision KB19)
Use cdparanoia mode : YES (CDParanoia III 10.2 engine)Disable audio cache : OK for the drive with cache less than 2750KBMake use of C2 pointers : NORead offset correction : 102Max retry count : 100
Track 01 Filename : /01 Kanye West - Intro (Free of 106 and Park).flac
Pre-gap length : 00:02:00
CRC32 hash (test run) : F7BF60EF CRC32 hash : F7BF60EF CRC32 hash (skip zero) : 7EBEC95A AccurateRip signature : EF384405
Track 02 Filename : /02 Kanye West - Live from Irving Plaza, New York (with Talib Kweli, Mos Def).flac
CRC32 hash (test run) : EA463A22 CRC32 hash : EA463A22 CRC32 hash (skip zero) : 2C3216D2 AccurateRip signature : 6A4EF7D5
Track 03 Filename : /03 Kanye West - Guess Who's Back Freestyle (50 Cent).flac
CRC32 hash (test run) : EC547443 CRC32 hash : EC547443 CRC32 hash (skip zero) : 9096CA76 AccurateRip signature : 25441219
Track 04 Filename : /04 Kanye West - Jesus Walks (snippet).flac
CRC32 hash (test run) : E1ACE542 CRC32 hash : E1ACE542 CRC32 hash (skip zero) : D868BAE7 AccurateRip signature : 685DF9DE
Track 05 Filename : /05 Kanye West - Through The Wire (Still Standing) (feat. Chaka Khan, Elton John).flac
CRC32 hash (test run) : 3507E303 CRC32 hash : 3507E303 CRC32 hash (skip zero) : 3A2A575E AccurateRip signature : 62F95E8D
Track 06 Filename : /06 Kanye West - 2 Words (feat. Mos Def, Freeway, Harlem Boys Choir).flac
CRC32 hash (test run) : 59982973 CRC32 hash : 59982973 CRC32 hash (skip zero) : E4058BC9 AccurateRip signature : 4320FC77
Track 07 Filename : /07 Kanye West - Show Go On (Freeway and Twista).flac
CRC32 hash (test run) : B113CC38 CRC32 hash : B113CC38 CRC32 hash (skip zero) : A2355EEE AccurateRip signature : 403E9259
Track 08 Filename : /08 Kanye West - Champions (Young Chris, Beanie Sigel, Cam'ron, Twista).flac
CRC32 hash (test run) : 1ACF434B CRC32 hash : 1ACF434B CRC32 hash (skip zero) : 74A5A67E AccurateRip signature : 38727CB8
Track 09 Filename : /09 Kanye West - Live From Tweeter Center, LA (feat. Jay-Z).flac
CRC32 hash (test run) : 4620886E CRC32 hash : 4620886E CRC32 hash (skip zero) : AE61E158 AccurateRip signature : B876A587
Track 10 Filename : /10 Kanye West - The Bounce (feat. Jay-Z).flac
CRC32 hash (test run) : D7DBB039 CRC32 hash : D7DBB039 CRC32 hash (skip zero) : 12C834C0 AccurateRip signature : 0CF92FF4
Track 11 Filename : /11 Kanye West - Poppin' Tags (Jay-Z feat. Twista, Outkast).flac
CRC32 hash (test run) : 5D81DD3F CRC32 hash : 5D81DD3F CRC32 hash (skip zero) : 2E550AE5 AccurateRip signature : B4B42F5B
Track 12 Filename : /12 Kanye West - A Million Freestyle.flac
CRC32 hash (test run) : ED9B7A9B CRC32 hash : ED9B7A9B CRC32 hash (skip zero) : 82680984 AccurateRip signature : AF3EB5EF
Track 13 Filename : /13 Kanye West - '03 Bonnie and Clyde (Jay-Z and Beyonce' Knowles).flac
CRC32 hash (test run) : AAD003C5 CRC32 hash : AAD003C5 CRC32 hash (skip zero) : 28AFB7E0 AccurateRip signature : A49E1B8A
Track 14 Filename : /14 Kanye West - B R Right (Trina feat. Ludacris).flac
CRC32 hash (test run) : 2EA5AAD5 CRC32 hash : 2EA5AAD5 CRC32 hash (skip zero) : 6B68B9A3 AccurateRip signature : 8BE9EC6A
Track 15 Filename : /15 Kanye West - Brown Sugar (Mos Def).flac
CRC32 hash (test run) : 38EB1348 CRC32 hash : 38EB1348 CRC32 hash (skip zero) : DAA18256 AccurateRip signature : C4CF5F35
Track 16 Filename : /16 Kanye West - Good To You (Talib Kweli).flac
CRC32 hash (test run) : 8001A8F4 CRC32 hash : 8001A8F4 CRC32 hash (skip zero) : A0BC1E2B AccurateRip signature : C9DC4116
Track 17 Filename : /17 Kanye West - The Good, The Bad, The Ugly (feat. Consequence).flac
CRC32 hash (test run) : 3E57D6B8 CRC32 hash : 3E57D6B8 CRC32 hash (skip zero) : 901366B7 AccurateRip signature : 489BE1F8
Track 18 Filename : /18 Kanye West - Dead or Alive (Cam'ron).flac
CRC32 hash (test run) : 88455BDA CRC32 hash : 88455BDA CRC32 hash (skip zero) : 755C3763 AccurateRip signature : 95A0D1FB
Track 19 Filename : /19 Kanye West - Takeover Freestyle (Cam'ron).flac
CRC32 hash (test run) : F73D6BFC CRC32 hash : F73D6BFC CRC32 hash (skip zero) : FBC284E1 AccurateRip signature : F101F93B
Track 20 Filename : /20 Kanye West - Got Nowhere (State Property).flac
CRC32 hash (test run) : 4B33D3C4 CRC32 hash : 4B33D3C4 CRC32 hash (skip zero) : 2B12021B AccurateRip signature : B5E030CB
Track 21 Filename : /21 Kanye West - Poppa Was a Player - Nas.flac
CRC32 hash (test run) : D878BDA6 CRC32 hash : D878BDA6 CRC32 hash (skip zero) : 8B4A4285 AccurateRip signature : 8FB24AEB
Track 22 Filename : /22 Kanye West - Home.flac
CRC32 hash (test run) : 42D0422F CRC32 hash : 42D0422F CRC32 hash (skip zero) : 1D1C4893 AccurateRip signature : 47EB2E4C
Track 23 Filename : /23 Kanye West - Reebok Commercial (Scarface).flac
CRC32 hash (test run) : B13699AB CRC32 hash : B13699AB CRC32 hash (skip zero) : 33EDE843 AccurateRip signature : A98BF19E
Track 24 Filename : /24 Kanye West - Heaven (Scarface feat. Kelly Price).flac
CRC32 hash (test run) : CD83C828 CRC32 hash : CD83C828 CRC32 hash (skip zero) : 8E92BA76 AccurateRip signature : 098B5622
Track 25 Filename : /25 Kanye West - In Cold Blood (Scarface).flac
CRC32 hash (test run) : 73A61ADD CRC32 hash : 73A61ADD CRC32 hash (skip zero) : 6DBB18F7 AccurateRip signature : DA5920B6
Track 26 Filename : /26 Kanye West - My Way (Kanye West).flac
CRC32 hash (test run) : E75FA065 CRC32 hash : E75FA065 CRC32 hash (skip zero) : D70F3065 AccurateRip signature : 75F262CA
Track 27 Filename : /27 Kanye West - You Made Me (Harlem World feat. Carl Thomas, Nas).flac
CRC32 hash (test run) : 6244FDE1 CRC32 hash : 6244FDE1 CRC32 hash (skip zero) : 4EAAC714 AccurateRip signature : 43A730AE
Track 28 Filename : /28 Kanye West - My Life (Foxy Brown).flac
CRC32 hash (test run) : 16900116 CRC32 hash : 16900116 CRC32 hash (skip zero) : BB1603AA AccurateRip signature : BC337EB3
Track 29 Filename : /29 Kanye West - Ghetto (Madd Rapper feat. Raekwon, Carl Thomas).flac
CRC32 hash (test run) : 16BEFB83 CRC32 hash : 16BEFB83 CRC32 hash (skip zero) : 050919A4 AccurateRip signature : 3A3BCBD8
Track 30 Filename : /30 Kanye West - The Truth (Beanie Sigel).flac
CRC32 hash (test run) : 57FA7294 CRC32 hash : 57FA7294 CRC32 hash (skip zero) : A45CA9FF AccurateRip signature : F3CB4225
Track 31 Filename : /31 Kanye West - This Can't Be Life (Jay-Z).flac
CRC32 hash (test run) : D23D17EF CRC32 hash : D23D17EF CRC32 hash (skip zero) : 5F59774C AccurateRip signature : 27BABA7B
Track 32 Filename : /32 Kanye West - Nothing Like It (Beanie Sigel feat. Harlem Boys' Choir).flac
CRC32 hash (test run) : 1848B380 CRC32 hash : 1848B380 CRC32 hash (skip zero) : 056BADDB AccurateRip signature : 6A31305F
Track 33 Filename : /33 Kanye West - Izzo (H.O.V.A.) Unplugged Version (Jay-Z).flac
CRC32 hash (test run) : 069C33D7 CRC32 hash : 069C33D7 CRC32 hash (skip zero) : 1A15494C AccurateRip signature : 35035313
Track 34 Filename : /34 Kanye West - Heart of the City (Ain't No Love) Unplugged Version (Jay-Z).flac
CRC32 hash (test run) : 3A2F4D8C CRC32 hash : 3A2F4D8C CRC32 hash (skip zero) : 3C559274 AccurateRip signature : 435F8A12
Track 35 Filename : /35 Kanye West - Never Change (Jay-Z feat. Kanye West).flac
CRC32 hash (test run) : 9CE37C4C CRC32 hash : 9CE37C4C CRC32 hash (skip zero) : 4CA814FD AccurateRip signature : F803C763
Track 36 Filename : /36 Kanye West - My Life, My Love (GLC of the GoGetters).flac
CRC32 hash (test run) : 0D414211 CRC32 hash : 0D414211 CRC32 hash (skip zero) : 5F328509 AccurateRip signature : 006D567C
No errors occurred
End of status report

2003 - I'm Good

Продолжительность: 01:19:46
Трэклист:
01 - Intro
02 - Heavyhitters
03 - Excuse Me Miss Remix
04 - Jesus Walks
05 - Two Words
06 - Used To Love You
07 - Get By Remix
08 - In Cold Blood Remix
09 - Philly Niggas
10 - Ya'll Not Ready Ready
11 - Drop Dead Gorgeous
12 - When I Die
13 - Digital Thugz
14 - Poppin' Tags Remix
15 - Badonkadonk
16 - Half Price
17 - Heartbreaker
18 - 03' Electric Relaxation
19 - Out The Game
20 - GLC The Knockout King
21 - Muzik
22 - Freewest
23 - Hear The Song
24 - Blueprint Compilation
25 - Girls Girls Girls Remix
26 - Bonnie And Clyde
27 - Stir Crazy
28 - Deja Vu Remix
29 - Olskoolicegre
30 - Get By Remix
31 - Through The Wire

XLD Log

X Lossless Decoder version 20091230 (115.2)
XLD extraction logfile from 2010-01-05 20:03:51 -0800
Kanye West / I'm Good
Used drive : MATSHITA DVD-R UJ-868 (revision KB19)
Use cdparanoia mode : YES (CDParanoia III 10.2 engine)Disable audio cache : OK for the drive with cache less than 2750KBMake use of C2 pointers : NORead offset correction : 102Max retry count : 100
Track 01 Filename : /01 - Intro.flac
Pre-gap length : 00:02:00
CRC32 hash (test run) : F25FD17D CRC32 hash : F25FD17D CRC32 hash (skip zero) : C603246C AccurateRip signature : 1CB6AC90
Track 02 Filename : /02 - Heavyhitters featuring GLC.flac
CRC32 hash (test run) : 7D6FDD11 CRC32 hash : 7D6FDD11 CRC32 hash (skip zero) : 8B57D6A0 AccurateRip signature : AE5CCC26
Track 03 Filename : /03 - Excuse Me Miss (Remix) (Jay Z featuring Kanye West).flac
CRC32 hash (test run) : BA1F603D CRC32 hash : BA1F603D CRC32 hash (skip zero) : DF0B54F5 AccurateRip signature : DA9B7A50
Track 04 Filename : /04 - Jesus Walks.flac
CRC32 hash (test run) : D1008A24 CRC32 hash : D1008A24 CRC32 hash (skip zero) : 764E0FF4 AccurateRip signature : 6D452D2E
Track 05 Filename : /05 - Two Words featuring Mos Def, Freeway & Harlem Boys Choir.flac
CRC32 hash (test run) : C3E4C7C9 CRC32 hash : C3E4C7C9 CRC32 hash (skip zero) : D3587063 AccurateRip signature : 0D0E6988
Track 06 Filename : /06 - Used To Love You (John Legend).flac
CRC32 hash (test run) : 9131E341 CRC32 hash : 9131E341 CRC32 hash (skip zero) : CF671115 AccurateRip signature : CACE09E0
Track 07 Filename : /07 - Get By (Remix) (Talib Kweli featuring Mos Def, Jay Z, Kanye West & Busta Rhymes.flac
CRC32 hash (test run) : 018341ED CRC32 hash : 018341ED CRC32 hash (skip zero) : D9CF0A0D AccurateRip signature : 262404E8
Track 08 Filename : /08 - In Cold Blood (Remix) (Scarface featuring 50 Cent & Lloyd Banks).flac
CRC32 hash (test run) : 02DD89ED CRC32 hash : 02DD89ED CRC32 hash (skip zero) : DDCF1641 AccurateRip signature : 216A533F
Track 09 Filename : /09 - Philly Niggas (Beanie Sigel featuring Freeway).flac
CRC32 hash (test run) : 6B7BAE72 CRC32 hash : 6B7BAE72 CRC32 hash (skip zero) : 882A971D AccurateRip signature : 112FB5AD
Track 10 Filename : /10 - Ya'll Not Ready Ready (50 Cent).flac
CRC32 hash (test run) : 7C436222 CRC32 hash : 7C436222 CRC32 hash (skip zero) : 207B8741 AccurateRip signature : E8880EB6
Track 11 Filename : /11 - Drop Dead Gorgeous featuring Murphy Lee.flac
CRC32 hash (test run) : FD8BD735 CRC32 hash : FD8BD735 CRC32 hash (skip zero) : F404C8DE AccurateRip signature : F6F83BCA
Track 12 Filename : /12 - When I Die (Shyne).flac
CRC32 hash (test run) : 4EBB8E38 CRC32 hash : 4EBB8E38 CRC32 hash (skip zero) : 1EA99F7E AccurateRip signature : E8533C8F
Track 13 Filename : /13 - Digital Thugz featuring Mikkey Of Cash Money.flac
CRC32 hash (test run) : 8BDFC903 CRC32 hash : 8BDFC903 CRC32 hash (skip zero) : 864DBD6A AccurateRip signature : 9481E682
Track 14 Filename : /14 - Poppin' Tags (Remix) (Jay-Z featuring Ludacris & Twista).flac
CRC32 hash (test run) : 9C42349F CRC32 hash : 9C42349F CRC32 hash (skip zero) : 6DD194C9 AccurateRip signature : 6BBC00C0
Track 15 Filename : /15 - Badonkadonk (Twista).flac
CRC32 hash (test run) : 94602595 CRC32 hash : 94602595 CRC32 hash (skip zero) : DD3D28B2 AccurateRip signature : D6A9646D
Track 16 Filename : /16 - Half Price.flac
CRC32 hash (test run) : 439BB1E8 CRC32 hash : 439BB1E8 CRC32 hash (skip zero) : 4A80A179 AccurateRip signature : 99BAEC44
Track 17 Filename : /17 - Heartbreaker (Lil Kim).flac
CRC32 hash (test run) : F1DCD1F1 CRC32 hash : F1DCD1F1 CRC32 hash (skip zero) : 1E904AE8 AccurateRip signature : B96E5F45
Track 18 Filename : /18 - 03' Electric Relaxation featuring Consequence.flac
CRC32 hash (test run) : FB04CEFF CRC32 hash : FB04CEFF CRC32 hash (skip zero) : 46706AC1 AccurateRip signature : 21B7A7CA
Track 19 Filename : /19 - Out The Game featuring Consequence & John Legend.flac
CRC32 hash (test run) : B0046CDD CRC32 hash : B0046CDD CRC32 hash (skip zero) : 30026E21 AccurateRip signature : 788012C2
Track 20 Filename : /20 - GLC The Knockout King (Keezokane).flac
CRC32 hash (test run) : 4538AEB9 CRC32 hash : 4538AEB9 CRC32 hash (skip zero) : 43F17B8E AccurateRip signature : C0DCF739
Track 21 Filename : /21 - Muzik (Knocturn'l).flac
CRC32 hash (test run) : 041D45A5 CRC32 hash : 041D45A5 CRC32 hash (skip zero) : BFA36C56 AccurateRip signature : 0B80DB3B
Track 22 Filename : /22 - Freewest (Freeway).flac
CRC32 hash (test run) : DC25127C CRC32 hash : DC25127C CRC32 hash (skip zero) : 2212C964 AccurateRip signature : 1A7CF208
Track 23 Filename : /23 - Hear The Song (Freeway & Tarrey Torae).flac
CRC32 hash (test run) : 8D0ABE8E CRC32 hash : 8D0ABE8E CRC32 hash (skip zero) : D4FAE392 AccurateRip signature : 544D0B43
Track 24 Filename : /24 - Blueprint Compilation.flac
CRC32 hash (test run) : 9562D39D CRC32 hash : 9562D39D CRC32 hash (skip zero) : 3FDA1560 AccurateRip signature : 7029B3D1
Track 25 Filename : /25 - Girls Girls Girls (Remix) (Jay-Z).flac
CRC32 hash (test run) : D963CFBE CRC32 hash : D963CFBE CRC32 hash (skip zero) : D57C63E3 AccurateRip signature : 4837701E
Track 26 Filename : /26 - Bonnie & Clyde (Freestyle).flac
CRC32 hash (test run) : 90E62233 CRC32 hash : 90E62233 CRC32 hash (skip zero) : 52C02572 AccurateRip signature : F26AB80D
Track 27 Filename : /27 - Stir Crazy (Madd Rapper featuring Eminem).flac
CRC32 hash (test run) : 9145109D CRC32 hash : 9145109D CRC32 hash (skip zero) : 6EC0D4C6 AccurateRip signature : F7A2C649
Track 28 Filename : /28 - Deja Vu (Remix) (Made Men featuring Mase & Big Pun).flac
CRC32 hash (test run) : 211A0CCF CRC32 hash : 211A0CCF CRC32 hash (skip zero) : 844C4B0E AccurateRip signature : F0923A54
Track 29 Filename : /29 - Olskoolicegre.flac
CRC32 hash (test run) : 410088A9 CRC32 hash : 410088A9 CRC32 hash (skip zero) : C9CA69A1 AccurateRip signature : 516B1A49
Track 30 Filename : /30 - Get By (Remix) (Snoop Dog featuring Mr Cheeks).flac
CRC32 hash (test run) : 00E7BBF7 CRC32 hash : 00E7BBF7 CRC32 hash (skip zero) : 1CFC9EA1 AccurateRip signature : C7CD1355
Track 31 Filename : /31 - Through The Wire.flac
CRC32 hash (test run) : 837EE787 CRC32 hash : 837EE787 CRC32 hash (skip zero) : 68B2FCCF AccurateRip signature : 516DEA2A
No errors occurred
End of status report

2004 - Freshmen Adjustment 2

Продолжительность: 00:57:15
Трэклист:
01 - Intro
02 - We Can't Tell
03 - Half Price
04 - A Million
05 - Excuse Me Miss
06 - Would You Like To Ride
07 - On 10 In a Benz
08 - The Roc In Here
09 - Overreact
10 - Changing Lanes
11 - I Met Oprah
12 - My Girlfriend
13 - Last Night
14 - Wack Niggaz
15 - Neva Gonna Stop Me
16 - Together They're Tens
17 - Girls Girls Girls Remix
18 - Self Conscious
19 - Til Infinity
20 - Better Than Yours
21 - Blueprint Medley

EAC Log

Exact Audio Copy V0.99 prebeta 4 from 23. January 2008
EAC extraction logfile from 23. March 2009, 0:29
Kanye West / Freshmen Adjustment Vol.2
Used drive : TSSTcorpDVD+-RW TS-L532B Adapter: 1 ID: 0
Read mode : SecureUtilize accurate stream : YesDefeat audio cache : YesMake use of C2 pointers : No
Read offset correction : 704Overread into Lead-In and Lead-Out : NoFill up missing offset samples with silence : YesDelete leading and trailing silent blocks : NoNull samples used in CRC calculations : YesUsed interface : Native Win32 interface for Win NT & 2000Gap handling : Appended to previous track
Used output format : User Defined EncoderSelected bitrate : 256 kBit/sQuality : HighAdd ID3 tag : NoCommand line compressor : C:\Program Files\Exact Audio Copy\Flac\flac.exeAdditional command line options : -V -8 -T "artist=%a" -T "title=%t" -T "album=%g" -T "date=%y" -T "tracknumber=%n" -T "genre=%m" %s
Track 1
Filename C:\01 - Intro feat. John Legend.wav
Pre-gap length 0:00:02.00
Peak level 100.0 % Track quality 100.0 % Test CRC 80FCAA5D Copy CRC 80FCAA5D Accurately ripped (confidence 1) [AD51AA92] Copy OK
Track 2
Filename C:\02 - We Can't Tell.wav
Pre-gap length 0:00:02.00
Peak level 100.0 % Track quality 99.9 % Test CRC C2970DDE Copy CRC C2970DDE Accurately ripped (confidence 1) [98C1A4D0] Copy OK
Track 3
Filename C:\03 - Half Prince.wav
Pre-gap length 0:00:02.00
Peak level 100.0 % Track quality 100.0 % Test CRC 1955200F Copy CRC 1955200F Accurately ripped (confidence 1) [CE302C2E] Copy OK
Track 4
Filename C:\04 - A Million.wav
Pre-gap length 0:00:02.00
Peak level 96.9 % Track quality 100.0 % Test CRC B689E696 Copy CRC B689E696 Accurately ripped (confidence 1) [69A91A05] Copy OK
Track 5
Filename C:\05 - Excuse Me miss (remix) feat. Jay-Z.wav
Pre-gap length 0:00:02.00
Peak level 100.0 % Track quality 100.0 % Test CRC 457070B3 Copy CRC 457070B3 Cannot be verified as accurate (confidence 1) [DF77A152], AccurateRip returned [49852BCC] Copy OK
Track 6
Filename C:\06 - Would You like To Ride feat. Malik Yusef & Common.wav
Pre-gap length 0:00:02.00
Peak level 88.7 % Track quality 100.0 % Test CRC 0E74EABB Copy CRC 0E74EABB Accurately ripped (confidence 1) [0C126CA5] Copy OK
Track 7
Filename C:\07 - On 10 In A Benz feat. Rhymefest.wav
Pre-gap length 0:00:02.00
Peak level 91.1 % Track quality 99.9 % Test CRC 3E07C3A0 Copy CRC 3E07C3A0 Accurately ripped (confidence 1) [65A25D02] Copy OK
Track 8
Filename C:\08 - The Roc In Here.wav
Pre-gap length 0:00:02.00
Peak level 100.0 % Track quality 100.0 % Test CRC FFE7A7F4 Copy CRC FFE7A7F4 Accurately ripped (confidence 1) [4431C846] Copy OK
Track 9
Filename C:\09 - Overreact feat. Consequence.wav
Pre-gap length 0:00:02.00
Peak level 90.2 % Track quality 100.0 % Test CRC F362C5FE Copy CRC F362C5FE Accurately ripped (confidence 1) [9EF8ACB7] Copy OK
Track 10
Filename C:\10 - Changing Lanes feat. Chops.wav
Pre-gap length 0:00:02.00
Peak level 100.0 % Track quality 100.0 % Test CRC D16E64DC Copy CRC D16E64DC Accurately ripped (confidence 1) [86B7A356] Copy OK
Track 11
Filename C:\11 - I Met Poerah.wav
Pre-gap length 0:00:02.00
Peak level 100.0 % Track quality 100.0 % Test CRC 24B8546E Copy CRC 24B8546E Accurately ripped (confidence 1) [43096D2C] Copy OK
Track 12
Filename C:\12 - My Girlfriend.wav
Pre-gap length 0:00:02.00
Peak level 100.0 % Track quality 100.0 % Test CRC 71C9A0BF Copy CRC 71C9A0BF Accurately ripped (confidence 1) [0FEB86DC] Copy OK
Track 13
Filename C:\13 - Last Night.wav
Pre-gap length 0:00:02.00
Peak level 100.0 % Track quality 99.9 % Test CRC DFBF3342 Copy CRC DFBF3342 Accurately ripped (confidence 1) [4F0D019F] Copy OK
Track 14
Filename C:\14 - Wack Niggaz Pt.2 feat. Common, Cons & Talib Kewli.wav
Pre-gap length 0:00:02.00
Peak level 98.8 % Track quality 100.0 % Test CRC 3BD4AA66 Copy CRC 3BD4AA66 Accurately ripped (confidence 1) [D238625B] Copy OK
Track 15
Filename C:\15 - Neva Gonna Stop Me feat. The Go Getters.wav
Pre-gap length 0:00:02.00
Peak level 78.8 % Track quality 100.0 % Test CRC 2EB451C6 Copy CRC 2EB451C6 Accurately ripped (confidence 1) [A8696AEF] Copy OK
Track 16
Filename C:\16 - Toghethre They're Tens.wav
Pre-gap length 0:00:02.00
Peak level 100.0 % Track quality 100.0 % Test CRC 3D5FF478 Copy CRC 3D5FF478 Accurately ripped (confidence 1) [6EA5FAA6] Copy OK
Track 17
Filename C:\17 - Girls Girls Girls (remix).wav
Pre-gap length 0:00:02.00
Peak level 100.0 % Track quality 100.0 % Test CRC 7050A05D Copy CRC 7050A05D Accurately ripped (confidence 1) [F27EAD82] Copy OK
Track 18
Filename C:\18 - Self Consciou (Poetry Style).wav
Pre-gap length 0:00:02.00
Peak level 100.0 % Track quality 100.0 % Test CRC 20F21C94 Copy CRC 20F21C94 Accurately ripped (confidence 1) [983B818B] Copy OK
Track 19
Filename C:\19 - 03 Til Infinity feat. Consequence.wav
Pre-gap length 0:00:02.00
Peak level 96.2 % Track quality 100.0 % Test CRC 0F8594A7 Copy CRC 0F8594A7 Accurately ripped (confidence 1) [9C166C5F] Copy OK
Track 20
Filename C:\20 - Better Than Yours feat. Common.wav
Pre-gap length 0:00:02.00
Peak level 100.0 % Track quality 100.0 % Test CRC AFB6649A Copy CRC AFB6649A Accurately ripped (confidence 1) [603343DA] Copy OK
Track 21
Filename C:\21 - Blueprint Medley.wav
Pre-gap length 0:00:08.00
Peak level 100.0 % Track quality 99.9 % Test CRC F0786BFD Copy CRC F0786BFD Accurately ripped (confidence 1) [C636B49B] Copy OK
20 track(s) accurately ripped 1 track(s) could not be verified as accurate
Some tracks could not be verified as accurate
No errors occurred
End of status report

2007 - Can't Tell Me Nothing

Продолжительность: 01:04:35
Трэклист:
01 - Friday Morning, May 25th, 2007
02 - Stronger
03 - Us Placers
04 - I Ain't Even On Yet
05 - Can't Tell Me Nothing
06 - Southside
07 - The Game
08 - Porno
09 - Stay Up
10 - In The Mood
11 - C.O.L.O.U.R.S.
12 - Pro Nails
13 - Young Folks
14 - Interviews
15 - The People
16 - Get'cha Some
17 - Don't Forget 'Em
18 - White!
19 - Because Of You Remix
20 - Buy You a Drank Remix
21 - Throw Some D's
22 - Throw Some D's Remix
23 - Dreaming Of Your Love
24 - Magnetic Power
25 - Hater Family

XLD Log

X Lossless Decoder version 20080926 (93.3)
XLD extraction logfile from 2008-12-08 13:00:29 -0600
Kanye West / Can't Tell Me Nothing: The Official Mixtape
Used drive : HL-DT-ST DVDRW GSA-S10N (revision AP12)
Use cdparanoia mode : YES (CDParanoia III 10.2 engine)Disable audio cache : OK for the drive with cache less than 2750KBMake use of C2 pointers : NORead offset correction : 667Max retry count : 100
All Tracks Album gain : -5.71 dB Peak : 1.000000Track 01 Filename : /01 - Friday Morning, May 25th, 2007 (intro).flac
Track gain : -2.81 dB Peak : 0.479462 CRC32 hash (test run) : 6E2A62FF CRC32 hash : 6E2A62FF CRC32 hash (skip zero) : 360D8C2E AccurateRip signature : 742FA098
Track 02 Filename : /02 - Stronger.flac
Track gain : -6.66 dB Peak : 0.949249 CRC32 hash (test run) : 3F441F8A CRC32 hash : 3F441F8A CRC32 hash (skip zero) : 80F4F78B AccurateRip signature : 5DE46918
Track 03 Filename : /03 - Us Placers.flac
Track gain : -5.83 dB Peak : 0.923737 CRC32 hash (test run) : C153299B CRC32 hash : C153299B CRC32 hash (skip zero) : 6120D4FA AccurateRip signature : 395D393A
Track 04 Filename : /04 - I Ain't Even On Yet.flac
Track gain : -5.71 dB Peak : 1.000000 CRC32 hash (test run) : 42F140C7 CRC32 hash : 42F140C7 CRC32 hash (skip zero) : 37099F04 AccurateRip signature : 4421BA92
Track 05 Filename : /05 - Can't Tell Me Nothing.flac
Track gain : -6.45 dB Peak : 1.000000 CRC32 hash (test run) : F6394DC5 CRC32 hash : F6394DC5 CRC32 hash (skip zero) : C9DD1D2F AccurateRip signature : 1227FE1B
Track 06 Filename : /06 - Southside (feat. Kanye West).flac
Track gain : -5.42 dB Peak : 1.000000 CRC32 hash (test run) : 838E3834 CRC32 hash : 838E3834 CRC32 hash (skip zero) : 0EE7932C AccurateRip signature : 0AA658AB
Track 07 Filename : /07 - The Game.flac
Track gain : -7.51 dB Peak : 1.000000 CRC32 hash (test run) : C7215CC4 CRC32 hash : C7215CC4 CRC32 hash (skip zero) : 1470505F AccurateRip signature : CAC0C840
Track 08 Filename : /08 - Porno (Interlude).flac
Track gain : -6.62 dB Peak : 1.000000 CRC32 hash (test run) : A027FB16 CRC32 hash : A027FB16 CRC32 hash (skip zero) : 13A2B456 AccurateRip signature : AB614DFD
Track 09 Filename : /09 - Stay Up (feat. Kanye West & Malik Yusef).flac
Track gain : -4.91 dB Peak : 1.000000 CRC32 hash (test run) : 90D77452 CRC32 hash : 90D77452 CRC32 hash (skip zero) : 87C7B67F AccurateRip signature : 5DD8BF7F
Track 10 Filename : /10 - In The Mood (feat. Kanye West).flac
Track gain : -4.90 dB Peak : 1.000000 CRC32 hash (test run) : 8C542176 CRC32 hash : 8C542176 CRC32 hash (skip zero) : 588E2E9D AccurateRip signature : 6BE0B4EC
Track 11 Filename : /11 - C.O.L.O.U.R.S. (feat. Pimp C & Lil' Wayne).flac
Track gain : -4.22 dB Peak : 0.926239 CRC32 hash (test run) : ABF2B0EB CRC32 hash : ABF2B0EB CRC32 hash (skip zero) : 1B458A4F AccurateRip signature : A8D62582
Track 12 Filename : /12 - Pro Nails (feat. Kanye West).flac
Track gain : -4.38 dB Peak : 1.000000 CRC32 hash (test run) : A9A8D5E5 CRC32 hash : A9A8D5E5 CRC32 hash (skip zero) : 1457D37D AccurateRip signature : 15448462
Track 13 Filename : /13 - Young Folks.flac
Track gain : -6.01 dB Peak : 1.000000 CRC32 hash (test run) : 9335F793 CRC32 hash : 9335F793 CRC32 hash (skip zero) : C65A93DC AccurateRip signature : 129C3606
Track 14 Filename : /14 - Interviews (Interlude).flac
Track gain : -3.66 dB Peak : 0.999969 CRC32 hash (test run) : 457CA640 CRC32 hash : 457CA640 CRC32 hash (skip zero) : 77A4C36D AccurateRip signature : BB8CE7E1
Track 15 Filename : /15 - The People.flac
Track gain : -3.80 dB Peak : 0.738892 CRC32 hash (test run) : 7DF5D4BC CRC32 hash : 7DF5D4BC CRC32 hash (skip zero) : AB12BE8A AccurateRip signature : 39E36684
Track 16 Filename : /16 - Get'cha Some.flac
Track gain : -8.24 dB Peak : 0.900665 CRC32 hash (test run) : F632E3CF CRC32 hash : F632E3CF CRC32 hash (skip zero) : DCDD96FE AccurateRip signature : 64C80FB0
Track 17Filename : /17 - Don't Forget Em'.flac
Track gain : -3.54 dB Peak : 0.848236 CRC32 hash (test run) : D6AC879A CRC32 hash : D6AC879A CRC32 hash (skip zero) : B2ECDCFB AccurateRip signature : 8F068382
Track 18 Filename : /18 - White! (On The Floor).flac
Track gain : -5.35 dB Peak : 0.912506 CRC32 hash (test run) : F2E12087 CRC32 hash : F2E12087 CRC32 hash (skip zero) : 6195E94D AccurateRip signature : 123BBA8C
Track 19 Filename : /19 - Because Of You (Remix) (feat. Kanye West).flac
Track gain : -6.22 dB Peak : 0.800995 CRC32 hash (test run) : 2025DF70 CRC32 hash : 2025DF70 CRC32 hash (skip zero) : 6FF921CC AccurateRip signature : D5D7062D
Track 20 Filename : /20 - Buy You A Drank (Remix) (feat. Kanye West).flac
Track gain : -3.88 dB Peak : 0.999390 CRC32 hash (test run) : 131BA9F4 CRC32 hash : 131BA9F4 CRC32 hash (skip zero) : E67DB930 AccurateRip signature : 96FED64A
Track 21 Filename : /21 - Throw Some D's (Interlude).flac
Track gain : -5.73 dB Peak : 1.000000 CRC32 hash (test run) : 6440E2B3 CRC32 hash : 6440E2B3 CRC32 hash (skip zero) : BEA3730B AccurateRip signature : 459FC17F
Track 22 Filename : /22 - Throw Some D's (Remix).flac
Track gain : -5.82 dB Peak : 0.992249 CRC32 hash (test run) : A9FFBEA1 CRC32 hash : A9FFBEA1 CRC32 hash (skip zero) : EFDE6A6B AccurateRip signature : D5C20294
Track 23 Filename : /23 - Dreaming Of Your Love.flac
Track gain : -0.45 dB Peak : 0.684387 CRC32 hash (test run) : 640C35C3 CRC32 hash : 640C35C3 CRC32 hash (skip zero) : 4BFFB192 AccurateRip signature : 76280C44
Track 24 Filename : /24 - Magnetic Power (feat. Jennifer Hudson).flac
Track gain : -7.01 dB Peak : 1.000000 CRC32 hash (test run) : 7825C39C CRC32 hash : 7825C39C CRC32 hash (skip zero) : B0E2D6B4 AccurateRip signature : 68E5C13A
Track 25 Filename : /25 - Hater Family.flac
Track gain : -6.06 dB Peak : 1.000000 CRC32 hash (test run) : AAF978D0 CRC32 hash : AAF978D0 CRC32 hash (skip zero) : 0B7AA2D9 AccurateRip signature : 92A5E43E
No errors occurred
End of status report
-Singles-

Singles

2005 - Addiction House Remix

Продолжительность: 00:10:11
Трэклист:
01 - Addiction Terry Hunter And Kenny Dope Remix
02 - Addiction Violator Dub

Audiochecker Log

Started at: âòîðíèê, 12. 01. 2010. - 19:49.452 files found
1 -===- C:\01 - Addiction Terry Hunter And Kenny Dope Remix.flac Extracted successfully Conclusion: this track is CDDA with probability 100% Tempfile successfully deleted.
2 -===- C:\02 - Addiction Violator Dub.flac Extracted successfully Conclusion: this track is CDDA with probability 100% Tempfile successfully deleted.
Finished at: âòîðíèê, 12. 01. 2010. - 19:50.04 (operation time: 0:00.19)

2005 - Diamonds From Sierra Leone

Продолжительность: 00:08:04
Трэклист:
01 - Diamonds From Sierra Leone Album Version
02 - Diamonds From Sierra Leone Instrumental

EAC Log

Exact Audio Copy V0.99 prebeta 5 from 4. May 2009
EAC extraction logfile from 27. May 2009, 17:16
Kanye West / Diamonds from Sierra Leone
Used drive : HP DVD Writer 1060d Adapter: 2 ID: 0
Read mode : SecureUtilize accurate stream : YesDefeat audio cache : YesMake use of C2 pointers : No
Read offset correction : 6Overread into Lead-In and Lead-Out : NoFill up missing offset samples with silence : YesDelete leading and trailing silent blocks : NoNull samples used in CRC calculations : YesUsed interface : Native Win32 interface for Win NT & 2000Gap handling : Appended to previous track
Used output format : User Defined EncoderSelected bitrate : 768 kBit/sQuality : HighAdd ID3 tag : NoCommand line compressor : C:\Program Files (x86)\Exact Audio Copy\FLAC\FLAC.EXEAdditional command line options : -V -8 -T "artist=%a" -T "title=%t" -T "album=%g" -T "date=%y" -T "tracknumber=%n" -T "genre=%m" %s
Track 1
Filename M:\01-Kanye West-Diamonds Album Version.wav
Pre-gap length 0:00:02.00
Peak level 98.7 % Track quality 100.0 % Test CRC F4BA7667 Copy CRC F4BA7667 Copy OK
Track 2
Filename M:\02-Kanye West-Diamonds Instrumental.wav
Pre-gap length 0:00:01.77
Peak level 98.7 % Track quality 100.0 % Test CRC 4C676B42 Copy CRC 4C676B42 Copy OK
No errors occurred
End of status report

2005 - Heard 'Em Say

Продолжительность: 00:07:08
Трэклист:
01 - Heard 'Em Say
02 - Heard 'Em Say Instrumental
03 - Heard 'Em Say Call Out

Audiochecker Log

AUDIOCHECKER v2.0 beta (build 457) - by Dester - [email protected]~~~~~~~~~~~~~~~~~~~~~~~~~~~~~~~~~~
Started at: âòîðíèê, 12. 01. 2010. - 19:45.373 files found
1 -===- C:\01 - Heard 'Em Say.flac Extracted successfully Conclusion: this track is CDDA with probability 99% Tempfile successfully deleted.
2 -===- C:\02 - Heard 'Em Say Instrumental.flac Extracted successfully Conclusion: this track is CDDA with probability 100% Tempfile successfully deleted.
3 -===- C:\03 - Heard 'Em Say Call Out.flac Extracted successfully Conclusion: this track is CDDA with probability 100% Tempfile successfully deleted.
Finished at: âòîðíèê, 12. 01. 2010. - 19:46.03 (operation time: 0:00.25)

2006 - Touch The Sky

Продолжительность: 00:11:25
Трэклист:
01 - Touch The Sky
02 - Jesus Walks
03 - Diamonds From Sierra Leone AOL Sessions

EAC Log

Exact Audio Copy V0.99 prebeta 3 from 28. July 2007
EAC extraction logfile from 3. December 2007, 5:05
Kanye West / Touch The Sky
Used drive : ASUS DRW-1814BLT Adapter: 1 ID: 0
Read mode : SecureUtilize accurate stream : YesDefeat audio cache : NoMake use of C2 pointers : No
Read offset correction : 6Overread into Lead-In and Lead-Out : NoFill up missing offset samples with silence : YesDelete leading and trailing silent blocks : NoNull samples used in CRC calculations : YesUsed interface : Native Win32 interface for Win NT & 2000Gap handling : Appended to previous track
Used output format : User Defined EncoderSelected bitrate : 192 kBit/sQuality : HighAdd ID3 tag : NoCommand line compressor : C:\Program Files\FLAC\bin\flac.exeAdditional command line options : -8 -A tukey(0.25) -A gauss(0.1875) -b 4096 -V -T "artist=%a" -T "title=%t" -T "album=%g" -T "date=%y" -T "tracknumber=%n" -T "genre=%m" %s --sector-align
Track 1
Filename C:\Kanye West - Touch The Sky.wav
Pre-gap length 0:00:02.00
Peak level 97.7 % Track quality 100.0 % Test CRC 4CB73ED6 Copy CRC 4CB73ED6 Accurately ripped (confidence 1) [CE76906D] Copy OK
Track 2
Filename C:\Kanye West - Jesus Walks.wav
Peak level 99.8 % Track quality 99.9 % Test CRC 4C6CC025 Copy CRC 4C6CC025 Accurately ripped (confidence 1) [417BCE1B] Copy OK
Track 3
Filename C:\Kanye West - Diamonds From Sierra Leone (AOL Sessions).wav
Peak level 95.9 % Track quality 100.0 % Test CRC 39EE5845 Copy CRC 39EE5845 Accurately ripped (confidence 1) [F0387FA8] Copy OK
All tracks accurately ripped
No errors occurred
End of status report

Audiochecker Log

Started at: âòîðíèê, 12. 01. 2010. - 19:52.093 files found
1 -===- C:\Kanye West - Diamonds From Sierra Leone (AOL Sessions).flac Extracted successfully Conclusion: this track is CDDA with probability 100% Tempfile successfully deleted.
2 -===- C:\Kanye West - Jesus Walks.flac Extracted successfully Conclusion: this track is CDDA with probability 99% Tempfile successfully deleted.
3 -===- C:\Kanye West - Touch The Sky.flac Extracted successfully Conclusion: this track is CDDA with probability 99% Tempfile successfully deleted.
Finished at: âòîðíèê, 12. 01. 2010. - 19:52.49 (operation time: 0:00.40)

2007 - Stronger

Продолжительность: 00:19:47
Трэклист:
01 - Stronger Radio Edit
02 - Stronger Clean
03 - Stronger
04 - Stronger Instrumental

EAC Log

EAC extraction logfile from 11. July 2007, 15:51 for CDKanye West / Stronger (Promo CDS)
Used drive : SONY CD-RW CRX216E Adapter: 1 ID: 0Read mode : Secure with NO C2, accurate stream, disable cacheRead offset correction : 6Overread into Lead-In and Lead-Out : No
Used output format : C:\eac-0.95b4\flac.exe (User Defined Encoder) 320 kBit/s Additional command line options : -V -8 -T "artist=%a" -T "title=%t" -T "album=%g" -T "date=%y" -T "tracknumber=%n" -T "genre=%m" %s
Other options : Fill up missing offset samples with silence : Yes Delete leading and trailing silent blocks : No Installed external ASPI interface
Track 1 Filename C:\01 - Stronger (Radio Edit).wav
Pre-gap length 0:00:02.00
Peak level 98.8 % Track quality 100.0 % Test CRC C5766F74 Copy CRC C5766F74 Copy OK
Track 2 Filename C:\02 - Stronger (LP Clean).wav
Pre-gap length 0:00:00.17
Peak level 98.8 % Track quality 100.0 % Test CRC 84AA7197 Copy CRC 84AA7197 Copy OK
Track 3 Filename C:\03 - Stronger (LP Dirty).wav
Pre-gap length 0:00:00.24
Peak level 97.7 % Track quality 100.0 % Test CRC 2A3A4EF1 Copy CRC 2A3A4EF1 Copy OK
Track 4 Filename C:\04 - Stronger (Instrumental).wav
Pre-gap length 0:00:00.19
Peak level 97.7 % Track quality 100.0 % Test CRC 04BDA4AF Copy CRC 04BDA4AF Copy OK
No errors occured
End of status report
-Extras-

Extras

2005 - Indie Translations Of The College Dropout

Продолжительность: 00:48:08
Трэклист:
01 - We Don't Care
02 - Graduation Day
03 - All Falls Down
04 - Spaceship
05 - Jesus Walks
06 - Never Let Me Down
07 - New Workout Plan
08 - Breathe In Breathe Out
09 - School Spirit
10 - Two Words
11 - Through The Wire
12 - Family Business
13 - Last Call

EAC Log

Exact Audio Copy V0.99 prebeta 5 from 4. May 2009
EAC extraction logfile from 26. July 2009, 15:21
Various Artists / Indie Translations of the College Dropout
Used drive : HL-DT-STDVDRAM GSA-T40L Adapter: 0 ID: 0
Read mode : SecureUtilize accurate stream : YesDefeat audio cache : YesMake use of C2 pointers : No
Read offset correction : 667Overread into Lead-In and Lead-Out : NoFill up missing offset samples with silence : YesDelete leading and trailing silent blocks : NoNull samples used in CRC calculations : YesUsed interface : Native Win32 interface for Win NT & 2000Gap handling : Appended to previous track
Used output format : User Defined EncoderSelected bitrate : 1024 kBit/sQuality : HighAdd ID3 tag : NoCommand line compressor : C:\Program Files\Exact Audio Copy\FLAC\FLAC.EXEAdditional command line options : -V -8 -T "artist=%a" -T "title=%t" -T "album=%g" -T "date=%y" -T "tracknumber=%n" -T "genre=%m" %s
Track 1
Filename C:\Indie Translations of the College Dropout - 01 We Don't Care.wav
Pre-gap length 0:00:02.00
Peak level 100.0 % Track quality 100.0 % Test CRC 7E6E49E0 Copy CRC 7E6E49E0 Track not present in AccurateRip database Copy OK
Track 2
Filename C:\Indie Translations of the College Dropout - 02 Graduation Day.wav
Peak level 100.0 % Track quality 100.0 % Test CRC C12531EF Copy CRC C12531EF Track not present in AccurateRip database Copy OK
Track 3
Filename C:\Indie Translations of the College Dropout - 03 All Falls Down.wav
Peak level 100.0 % Track quality 99.9 % Test CRC A79F09CF Copy CRC A79F09CF Track not present in AccurateRip database Copy OK
Track 4
Filename C:\Indie Translations of the College Dropout - 04 Spaceship.wav
Peak level 100.0 % Track quality 99.9 % Test CRC 7E3B1025 Copy CRC 7E3B1025 Track not present in AccurateRip database Copy OK
Track 5
Filename C:\Indie Translations of the College Dropout - 05 Jesus Walks.wav
Peak level 100.0 % Track quality 100.0 % Test CRC A2BF07F5 Copy CRC A2BF07F5 Track not present in AccurateRip database Copy OK
Track 6
Filename C:\Indie Translations of the College Dropout - 06 Never Let Me Down.wav
Peak level 100.0 % Track quality 99.8 % Test CRC 20BDE73E Copy CRC 43F864C0 Track not present in AccurateRip database Copy OK
Track 7
Filename C:\Indie Translations of the College Dropout - 07 New Workout Plan.wav
Peak level 100.0 % Track quality 99.9 % Test CRC FDB8B564 Copy CRC FDB8B564 Track not present in AccurateRip database Copy OK
Track 8
Filename C:\Indie Translations of the College Dropout - 08 Breathe In Breathe Out.wav
Peak level 100.0 % Track quality 100.0 % Test CRC C8D7A143 Copy CRC C8D7A143 Track not present in AccurateRip database Copy OK
Track 9
Filename C:\Indie Translations of the College Dropout - 09 School Spirit.wav
Peak level 100.0 % Track quality 100.0 % Test CRC 2247C9F8 Copy CRC 2247C9F8 Track not present in AccurateRip database Copy OK
Track 10
Filename C:\Indie Translations of the College Dropout - 10 Two Words.wav
Peak level 100.0 % Track quality 100.0 % Test CRC 2A675311 Copy CRC 2A675311 Track not present in AccurateRip database Copy OK
Track 11
Filename C:\Indie Translations of the College Dropout - 11 Through the Wire.wav
Peak level 100.0 % Track quality 100.0 % Test CRC 5046A20D Copy CRC 5046A20D Track not present in AccurateRip database Copy OK
Track 12
Filename C:\Indie Translations of the College Dropout - 12 Family Business.wav
Peak level 100.0 % Track quality 100.0 % Test CRC 0C4A5593 Copy CRC 0C4A5593 Track not present in AccurateRip database Copy OK
Track 13
Filename C:\Indie Translations of the College Dropout - 13 Last Call.wav
Peak level 100.0 % Track quality 100.0 % Test CRC 09BAA7ED Copy CRC 09BAA7ED Track not present in AccurateRip database Copy OK
No errors occurred
End of status report

2005 - The College Dropout Video Anthology Bonus CD

Продолжительность: 00:29:06
Трэклист:
01 - We Don't Care
02 - Jesus Walks Remix
03 - It's Alright
04 - The New Workout Plan Remix
05 - Heavy Hitters
06 - Two Words
07 - Never Let Me Down

EAC Log

Отчёт EAC об извлечении, выполненном 29. февраля 2008, 4:16 для диска:Kanye West / The College Dropout Bonus CD
Дисковод: Optiarc DVD RW AD-5170A Adapter: 5 ID: 0Режим чтения: Достоверный (C2: нет, Точный поток: да, Отключение кэша: да)Коррекция смещения при чтении: 48Способность читать области Lead-in и Lead-out : Нет
Выходной формат: Внутренние WAV-операции44.100 Гц; 16 бит; стерео
Другие параметры:Заполнение пропущенных сэмплов тишиной : ДаУдаление блоков с тишиной в начале и конце : НетВстроенный Win32-интерфейс для Win NT/2000
Характеристики диапазона извлечения и сообщения об ошибкахВыбранный диапазонИмя файла D:\My Music\EAC\Kanye West - The College Dropout Bonus CD.wav
Пиковый уровень 99.8 %Качество диапазона 100.0 %CRC 11D7CE75Копирование... OK
Ошибок не произошло
Конец отчёта

2009 - G.O.O.D. Morning, G.O.O.D. Night - Dawn

Продолжительность: 01:07:09
Трэклист:
01 - G.O.O.D. Morning Luv
02 - My People
03 - Leader
04 - VERSE
05 - By Your Side
06 - U N I Verses Mine
07 - Promised Land
08 - Not Love
09 - Thug Angel
10 - GEM
11 - Freshcooldopefly
12 - Just Like Forever
13 - Elevated
14 - Breathtaking
15 - Sexuality

EAC Log

Exact Audio Copy V0.99 prebeta 3 from 28. July 2007
EAC extraction logfile from 27. August 2009, 22:01
Kanye West & Malik Yusef / G.O.O.D. Morning, G.O.O.D. Night: Dawn
Used drive : HL-DT-STDVDRAM GH15F Adapter: 3 ID: 3
Read mode : SecureUtilize accurate stream : YesDefeat audio cache : YesMake use of C2 pointers : No
Read offset correction : 667Overread into Lead-In and Lead-Out : NoFill up missing offset samples with silence : YesDelete leading and trailing silent blocks : NoNull samples used in CRC calculations : YesUsed interface : Native Win32 interface for Win NT & 2000Gap handling : Appended to previous track
Used output format : User Defined EncoderSelected bitrate : 192 kBit/sQuality : HighAdd ID3 tag : NoCommand line compressor : C:\Program Files\Exact Audio Copy\Flac\flac.exeAdditional command line options : -8 -A tukey(0.25) -A gauss(0.1875) -b 4096 -V -T "artist=%a" -T "title=%t" -T "album=%g" -T "date=%y" -T "tracknumber=%n" -T "genre=%m" %s --sector-align
Track 1
Filename D:\01 - G.O.O.D. Morning Luv.wav
Pre-gap length 0:00:02.00
Peak level 97.8 % Track quality 100.0 % Test CRC A0B02C0C Copy CRC A0B02C0C Copy OK
Track 2
Filename D:\02 - My People.wav
Peak level 100.0 % Track quality 99.9 % Test CRC 4EA6054F Copy CRC 4EA6054F Copy OK
Track 3
Filename D:\03 - Leader (The Jesus Peace).wav
Peak level 100.0 % Track quality 99.9 % Test CRC BE157D53 Copy CRC BE157D53 Copy OK
Track 4
Filename D:\04 - V.E.R.S.E. (Very Entertainning Recitals Spit Effortlessly).wav
Peak level 100.0 % Track quality 100.0 % Test CRC F21364E4 Copy CRC F21364E4 Copy OK
Track 5
Filename D:\05 - By Your Side.wav
Peak level 100.0 % Track quality 100.0 % Test CRC 3D2F3F0D Copy CRC 3D2F3F0D Copy OK
Track 6
Filename D:\06 - U-N-I Versus Mine.wav
Peak level 100.0 % Track quality 100.0 % Test CRC 213FA48D Copy CRC 213FA48D Copy OK
Track 7
Filename D:\07 - Promise Land.wav
Peak level 100.0 % Track quality 100.0 % Test CRC 33B85226 Copy CRC 33B85226 Copy OK
Track 8
Filename D:\08 - Not Love.wav
Peak level 100.0 % Track quality 100.0 % Test CRC 5F1C56CF Copy CRC 5F1C56CF Copy OK
Track 9
Filename D:\09 - Thug Angel.wav
Peak level 100.0 % Track quality 99.9 % Test CRC B45341D3 Copy CRC B45341D3 Copy OK
Track 10
Filename D:\10 - G.E.M..wav
Peak level 100.0 % Track quality 99.9 % Test CRC 9C67390F Copy CRC 9C67390F Copy OK
Track 11
Filename D:\11 - Freshcooldopefly.wav
Peak level 100.0 % Track quality 100.0 % Test CRC F0726950 Copy CRC F0726950 Copy OK
Track 12
Filename D:\12 - Just Like Forever.wav
Peak level 100.0 % Track quality 100.0 % Test CRC C0E88DFC Copy CRC C0E88DFC Copy OK
Track 13
Filename D:\13 - Elevated.wav
Peak level 100.0 % Track quality 99.9 % Test CRC 2C36D333 Copy CRC 2C36D333 Copy OK
Track 14
Filename D:\14 - Breathtaking.wav
Peak level 100.0 % Track quality 100.0 % Test CRC BAEF5B4B Copy CRC BAEF5B4B Copy OK
Track 15
Filename D:\15 - Sexuality.wav
Peak level 100.0 % Track quality 99.9 % Test CRC 5AEDEBED Copy CRC 5AEDEBED Copy OK
No errors occurred
End of status report

2009 - G.O.O.D. Morning, G.O.O.D. Night - Dusk

Продолжительность: 01:11:28
Трэклист:
01 - Too Knight
02 - Chicago
03 - Hit It Again
04 - Know God
05 - Magic Man
06 - YUGO
07 - My My
08 - Waited
09 - The Return
10 - Da Slumz
11 - Mean To Say
12 - Addicted
13 - Warpath
14 - So Pop U Layer
15 - Stop

EAC Log

Exact Audio Copy V0.99 prebeta 3 from 28. July 2007
EAC extraction logfile from 27. August 2009, 22:30
Kanye West & Malik Yusef / G.O.O.D. Morning, G.O.O.D. Night: Dusk
Used drive : HL-DT-STDVDRAM GH15F Adapter: 3 ID: 3
Read mode : SecureUtilize accurate stream : YesDefeat audio cache : YesMake use of C2 pointers : No
Read offset correction : 667Overread into Lead-In and Lead-Out : NoFill up missing offset samples with silence : YesDelete leading and trailing silent blocks : NoNull samples used in CRC calculations : YesUsed interface : Native Win32 interface for Win NT & 2000Gap handling : Appended to previous track
Used output format : User Defined EncoderSelected bitrate : 192 kBit/sQuality : HighAdd ID3 tag : NoCommand line compressor : C:\Program Files\Exact Audio Copy\Flac\flac.exeAdditional command line options : -8 -A tukey(0.25) -A gauss(0.1875) -b 4096 -V -T "artist=%a" -T "title=%t" -T "album=%g" -T "date=%y" -T "tracknumber=%n" -T "genre=%m" %s --sector-align
Track 1
Filename D:\01 - Too Knight (The Underworld) (Featuring Jennifer Hudson, Zzaje).wav
Pre-gap length 0:00:02.00
Peak level 100.0 % Track quality 100.0 % Test CRC FCB66669 Copy CRC FCB66669 Copy OK
Track 2
Filename D:\02 - Chicago (Featuring Maxamillion, J.V., Really Doe, GLC).wav
Peak level 100.0 % Track quality 100.0 % Test CRC 5234E095 Copy CRC 5234E095 Copy OK
Track 3
Filename D:\03 - Hit It Again (Featuring Siren).wav
Peak level 100.0 % Track quality 100.0 % Test CRC 75B66C10 Copy CRC 75B66C10 Copy OK
Track 4
Filename D:\04 - Know God (Featuring J. Ivy, Red Storm & Fatin Dantzler Of Kindred & Family Soul).wav
Peak level 100.0 % Track quality 100.0 % Test CRC 71126D53 Copy CRC 71126D53 Copy OK
Track 5
Filename D:\05 - Magic Man (Featuring Kanye West, Common, John Legend).wav
Peak level 100.0 % Track quality 100.0 % Test CRC 4C237038 Copy CRC 4C237038 Copy OK
Track 6
Filename D:\06 - YUGO (Featuring Brando, Big Nastee & K-Love).wav
Peak level 100.0 % Track quality 99.9 % Test CRC 81293D47 Copy CRC 81293D47 Copy OK
Track 7
Filename D:\07 - My My (Featuring Paul Wall, J.V.).wav
Peak level 100.0 % Track quality 99.9 % Test CRC 053B711C Copy CRC 053B711C Copy OK
Track 8
Filename D:\08 - Waited (Featuring Chairman Fred Hampton, Jr., J.V., Nia).wav
Peak level 100.0 % Track quality 100.0 % Test CRC 0BBDCC06 Copy CRC 0BBDCC06 Copy OK
Track 9
Filename D:\09 - The Return (Here She Comes Again) (Featuring Yaw, Mr. Hudson).wav
Peak level 100.0 % Track quality 100.0 % Test CRC 703BD0C4 Copy CRC 703BD0C4 Copy OK
Track 10
Filename D:\10 - Da Slumz (Featuring Raheem DeVaughn, Kumasi, Bun B).wav
Peak level 100.0 % Track quality 99.9 % Test CRC 3EF60DCE Copy CRC 3EF60DCE Copy OK
Track 11
Filename D:\11 - Mean To Say (Featuring Vaughn Anthony).wav
Peak level 100.0 % Track quality 100.0 % Test CRC 26409D64 Copy CRC 26409D64 Copy OK
Track 12
Filename D:\12 - Addicted (Featuring J.V.).wav
Peak level 100.0 % Track quality 100.0 % Test CRC D03F7BC9 Copy CRC D03F7BC9 Copy OK
Track 13
Filename D:\13 - Warpath (Featuring Trixie Fender, Queen YoNasDa).wav
Peak level 100.0 % Track quality 100.0 % Test CRC F8DCE4AD Copy CRC F8DCE4AD Copy OK
Track 14
Filename D:\14 - So Pop U Layer (Featuring Violet Nine).wav
Peak level 100.0 % Track quality 100.0 % Test CRC BD499389 Copy CRC BD499389 Copy OK
Track 15
Filename D:\15 - Stop (Featuring Spike Rebel, J.V., Slique, Brando Gordon).wav
Peak level 100.0 % Track quality 100.0 % Test CRC 13F44E45 Copy CRC 13F44E45 Copy OK
No errors occurred
End of status report

2009 - Glow In The Dark

Продолжительность: 00:13:12
Трэклист:
01 - I Wonder
02 - Jesus Walks
03 - Hey Mama
04 - Touch The Sky
05 - Interview Clip

EAC Log

EAC extraction logfile from 17. October 2009, 17:51 for CDKanye West / Glow In The Dark EP
Used drive : TSSTcorpDVD+-RW TS-H653F Adapter: 1 ID: 0Read mode : Secure with NO C2, accurate stream, disable cacheRead offset correction : 6Overread into Lead-In and Lead-Out : No
Used output format : C:\Program Files (x86)\Exact Audio Copy\flac.exe (User Defined Encoder) 128 kBit/s Additional command line options : -8 -A tukey(0.25) -A gauss(0.1875) -b 4096 -V -T "artist=%a" -T "title=%t" -T "album=%g" -T "date=%y" -T "tracknumber=%n" -T "genre=%m" %s --sector-align
Other options : Fill up missing offset samples with silence : Yes Delete leading and trailing silent blocks : No Installed external ASPI interface
Track 1 Filename C:\(01) I Wonder (Intro) - Kanye West.wav
Pre-gap length 0:00:02.00
Peak level 100.0 % Track quality 100.0 % Test CRC 4FD02893 Copy CRC 4FD02893 Copy OK
Track 2 Filename C:\(02) Jesus Walks - Kanye West.wav
Peak level 100.0 % Track quality 100.0 % Test CRC 336F27D7 Copy CRC 336F27D7 Copy OK
Track 3 Filename C:\(03) Hey Mama - Kanye West.wav
Peak level 100.0 % Track quality 100.0 % Test CRC 7DE17D6D Copy CRC 7DE17D6D Copy OK
Track 4 Filename C:\(04) Touch The Sky - Kanye West.wav
Peak level 100.0 % Track quality 100.0 % Test CRC 2DB06975 Copy CRC 2DB06975 Copy OK
Track 5 Filename C:\(05) Interview Clip - Kanye West.wav
Peak level 100.0 % Track quality 100.0 % Test CRC E50E78B2 Copy CRC E50E78B2 Copy OK
No errors occured
End of status report

Создавать темы 25-Июн-2014 02:42

[Профиль]  [ЛС] 

Sizzle3

Стаж: 6 лет 6 месяцев

Сообщений: 31

Симпатии: 11

крутяк) неужто и тут ценители появились MP3

Создавать темы 25-Июн-2014 15:12

[Профиль]  [ЛС] 
Показать сообщения:    
Ответить на тему

Текущее время: 23-Окт 15:02

Часовой пояс: UTC + 5



Вы не можете начинать темы
Вы не можете отвечать на сообщения
Вы не можете редактировать свои сообщения
Вы не можете удалять свои сообщения
Вы не можете голосовать в опросах
Вы не можете прикреплять файлы к сообщениям
Вы не можете скачивать файлы