Форс-мажоры / Suits (Сезон 4, Серии: 1-16 из 16) (Кевин Брэй, Майкл Смит, Антон Кроппер) [2014г., Драма, Криминал, Детектив WEBDLRip] DVO [NewStudio.TV] [Обновляемая]

Страницы :  1, 2, 3  След.

Ответить на тему
 

Mercuriy ®

Стаж: 5 лет 10 месяцев

Сообщений: 418

Симпатии: 100

--Форс-мажоры / Suits-«Two Lawyers. One Degree»-(Сезон 4, Серия: 1-16 из 16)--- Год выпуска: 2014
Страна: США [USA] Телеканал USA
Жанр: Драма, Криминал, Детектив
Сезон: 4
Серии: 1-16 из 16
Продолжительность: ~ 00:43:00
Озвузивание:Профессиональный (двухголосый закадровый) NewStudio.TV
Субтитры: Нет--Режиссер:Кевин Брэй, Майкл Смит, Антон Кроппер
Продюсеры: Дэйв Бэртис, Нэйтан Перкинс, Гэвин Барклай
Сценарист:Аарон Корш, Рик Мураки, Эрика Липез--В ролях: Патрик Дж. Адамс, Гэбриел Махт, Меган Маркл, Джина Торрес, Рик Хоффман--Описание: Убегая после неудачной попытки сбыта наркотиков, юрист-самоучка Майк Росс, выдающий себя за выпускника Гарварда, попадает на собеседование к одному из лучших адвокатов по сделкам Нью-Йорка Харви Спектру.
Устав от скучных соискателей, мечтающих «верой и правдой служить букве закона», Харви рискует и нанимает Майка: у парня врожденный талант и фотографическая память. Так рождается один из самых неоднозначных, но, в то же время, и самых блестящих тандемов законников на Манхэттене.
-- --Релиз группы:
По заказу: --Качество: WEBDLRip
Формат: AVI
Видео кодек: XviD
Аудио кодек:MP3
Видео: 720x400 (16:9), 23.976 fps, ~1500 kbps, ~0.190 bit/pixel
Аудио 1: 48 kHz, 2 ch, ~128 kbps |NewStudio|
Аудио 2: 48 kHz, 2 ch, ~128 kbps |Original|
-- --

MI:

General
Complete name : E:\Кино_Видео_и_ТВ\Зарубежные_сериалы\Форс_Мажоры_[Suits_NewStudio.TV]\Suits.s04e01.WEBDLRip.NewStudio.TV.avi
Format : AVI
Format/Info : Audio Video Interleave
File size : 550 MiB
Duration : 43mn 17s
Overall bit rate : 1 776 Kbps
Writing application : VirtualDubMod 1.5.10.2 (build 2540/release)
Writing library : VirtualDubMod build 2540/release
Video
ID : 0
Format : MPEG-4 Visual
Format profile : Advanced [email protected]
Format settings, BVOP : 2
Format settings, QPel : No
Format settings, GMC : No warppoints
Format settings, Matrix : Default (MPEG)
Codec ID : XVID
Codec ID/Hint : XviD
Duration : 43mn 17s
Bit rate : 1 439 Kbps
Width : 720 pixels
Height : 400 pixels
Display aspect ratio : 16:9
Frame rate : 23.976 fps
Color space : YUV
Chroma subsampling : 4:2:0
Bit depth : 8 bits
Scan type : Progressive
Compression mode : Lossy
Bits/(Pixel*Frame) : 0.208
Stream size : 446 MiB (81%)
Writing library : XviD 64
Audio #1
ID : 1
Format : MPEG Audio
Format version : Version 1
Format profile : Layer 3
Mode : Joint stereo
Mode extension : MS Stereo
Codec ID : 55
Codec ID/Hint : MP3
Duration : 43mn 17s
Bit rate mode : Constant
Bit rate : 128 Kbps
Channel(s) : 2 channels
Sampling rate : 48.0 KHz
Compression mode : Lossy
Stream size : 39.6 MiB (7%)
Alignment : Aligned on interleaves
Audio #2
ID : 2
Format : MPEG Audio
Format version : Version 1
Format profile : Layer 3
Mode : Joint stereo
Mode extension : MS Stereo
Codec ID : 55
Codec ID/Hint : MP3
Duration : 43mn 17s
Bit rate mode : Constant
Bit rate : 128 Kbps
Channel(s) : 2 channels
Sampling rate : 48.0 KHz
Compression mode : Lossy
Stream size : 39.6 MiB (7%)
Alignment : Aligned on interleaves
Writing library : LAME3.99r
Encoding settings : -m j -V 4 -q 2 -lowpass 17 -b 128
--

Внимание: Раздача ведётся путём добавления новых серий.

Чтобы начать докачку новой серии, пользователям необходимо сделать следующее
  • Остановить скачивание,
  • Удалить старый торрент у себя из клиента (старые серии удалять не надо),
  • Скачать новый торрент и запустить его у себя в клиенте вместо старого, при этом указать клиенту путь в старую папку куда и должно происходить скачивание новых серий.
    Ваш клиент при этом должен произвести хеширование (проверку) старой папки (если не производит сам - помогите ему сделать это), и будет докачивать только те серии которых у вас ещё нет. Старые серии при этом не удаляются, а продолжают раздаваться!
    Eсли вы уже удалили старые серии, то предотвратить повторную закачку старых серий можно, отжав галочку в соответсвующих местах при запуске нового торрента. По возможности, желательно не удалять старые серии как можно дольше чтобы релизёр не столько продолжал раздавать старые серии, а смог сконцентрироваться на новых.


  • Последний раз редактировалось: Mercuriy (2015-03-08 12:20), всего редактировалось 17 раз(а)

    Создавать темы 25-Июн-2014 02:58

    [Профиль]  [ЛС] 

    WDS

    Стаж: 4 года 4 месяца

    Сообщений: 43

    T· Форс-мажоры / Костюмы в законе / Suits / Сезон: 4 / Серии: 01-02 (16) (Кевин Брэй / Kevin Bray, Майкл Смит / Michael Smith) [2014, драма, WEB-DLRip] MVO (To4ka) + Original + Subs (Rus)
    emilsky
    можно догадаться сколько серий ?релизер в танке

    Создавать темы 25-Июн-2014 14:47

    [Профиль]  [ЛС] 

    Mercuriy ®

    Стаж: 5 лет 10 месяцев

    Сообщений: 418

    Симпатии: 100

    Эпизод №2 Завтрак, обед и ужин (Breakfast, Lunch and Dinner)

    Создавать темы 25-Июн-2014 22:37

    [Профиль]  [ЛС] 

    Mercuriy ®

    Стаж: 5 лет 10 месяцев

    Сообщений: 418

    Симпатии: 100

    Эпизод №3 Два выстрела по коленям (Two in the Knees)

    Создавать темы 28-Июн-2014 15:13

    [Профиль]  [ЛС] 

    Mercuriy ®

    Стаж: 5 лет 10 месяцев

    Сообщений: 418

    Симпатии: 100

    Эпизод №4 В долгу (Leveraged)

    Создавать темы 15-Июл-2014 00:17

    [Профиль]  [ЛС] 

    saidali

    Стаж: 5 лет 7 месяцев

    Сообщений: 868

    Симпатии: 554

    Эпизод №5

    Создавать темы 24-Июл-2014 13:05

    [Профиль]  [ЛС] 

    Mercuriy ®

    Стаж: 5 лет 10 месяцев

    Сообщений: 418

    Симпатии: 100

    Эпизод №5 (Pound of Flesh)

    Создавать темы 25-Июл-2014 00:03

    [Профиль]  [ЛС] 

    Mercuriy ®

    Стаж: 5 лет 10 месяцев

    Сообщений: 418

    Симпатии: 100

    Эпизод №6 В стиле Литта (Litt the Hell Up)

    Создавать темы 30-Июл-2014 22:55

    [Профиль]  [ЛС] 

    Mercuriy ®

    Стаж: 5 лет 10 месяцев

    Сообщений: 418

    Симпатии: 100

    Эпизод №7 Все кончено (We're Done)

    Создавать темы 02-Авг-2014 09:35

    [Профиль]  [ЛС] 

    GRIMM

    Стаж: 6 лет 8 месяцев

    Сообщений: 811

    Симпатии: 172

    Какая музыка играет когда Луис Литт подпись ставить?

    Создавать темы 03-Авг-2014 22:03

    [Профиль]  [ЛС] 

    Mercuriy ®

    Стаж: 5 лет 10 месяцев

    Сообщений: 418

    Симпатии: 100

    Эпизод №8 (Exposure)

    Создавать темы 08-Авг-2014 23:00

    [Профиль]  [ЛС] 

    saidali

    Стаж: 5 лет 7 месяцев

    Сообщений: 868

    Симпатии: 554

    Хорошая новость! Сериал продлён еще на один сезон

    Создавать темы 13-Авг-2014 01:56

    [Профиль]  [ЛС] 

    Mercuriy ®

    Стаж: 5 лет 10 месяцев

    Сообщений: 418

    Симпатии: 100

    saidali, Спасибо обрадовал)

    Создавать темы 13-Авг-2014 08:36

    [Профиль]  [ЛС] 

    Mercuriy ®

    Стаж: 5 лет 10 месяцев

    Сообщений: 418

    Симпатии: 100

    Эпизод №9 (Gone)

    Создавать темы 16-Авг-2014 09:35

    [Профиль]  [ЛС] 

    emilsky

    Стаж: 7 лет 2 месяца

    Сообщений: 2237

    Симпатии: 610

    Пирсон - Спектор - ???
    даешь 10 серию народу=)
    зачетная серия!

    Комментарий от saidali


    Дааа 10 серия класс

    Создавать темы 23-Авг-2014 19:51

    [Профиль]  [ЛС] 
    Показать сообщения:    
    Ответить на тему

    Текущее время: 23-Сен 23:13

    Часовой пояс: UTC + 5



    Вы не можете начинать темы
    Вы не можете отвечать на сообщения
    Вы не можете редактировать свои сообщения
    Вы не можете удалять свои сообщения
    Вы не можете голосовать в опросах
    Вы не можете прикреплять файлы к сообщениям
    Вы не можете скачивать файлы