Крупная ставка / Even Money (Марк Райделл) [2005 г., драма, криминал, ..., DVDRip-AVC]

Ответить на тему
 

igor1968 ®

Стаж: 5 лет 9 месяцев

Сообщений: 366

Симпатии: 197

Крупная ставка / Even Money«Life is a gamble. How much are you willing to risk?» Год выпуска: 2005
Страна:
Жанр: драма, криминал, ...
Продолжительность: 01:48:05
Перевод: Профессиональный (многоголосый, закадровый)
Режиссер: Марк Райделл
сценарий Роберт Таннен
продюсер Томас Бекер, Свен Клемент, Дэнни ДеВито, ...
оператор Робби Гринберг
композитор Дейв Грузин
художник Роберт Пирсон, Венди Чак, Лесли МакКарти-Франкенхаймер
монтаж Хьюз Уинборн-В ролях:Ким Бейсингер, Дэнни ДеВито, Рэй Лиотта, Форест Уитакер, Келси Грэммер, Карла Гуджино, Ник Кэннон, Грант Салливэн, Кассандра Хепберн, Тексас Бэттл, Крис Эйкерс, Шант Бенжамин, Эми Ботрайт, Рита Брэнч, Карсон Браун, Виктория Чалая, Роуз Коласанти, Париза Фитц-Хенли, Джонатан Т. Флойд, Лаура Ли, Роберт Миано, Кира Лин, Филип Перлман, Джейд Рэмси, Никита Рэмси, Кристофер Райделл, Марк Райделл, Робб Скайлер, Мишель Гретхауз, Шанелль Уоркмэн, Сюзанн Ковингтон, Джей Мор, Тим Рот, Ренни Кауэн, Лорианна Джеймисон- В центре фильма — истории нескольких людей, никак не связанных между собой и даже не знакомых друг с другом. Единственное, что объединяет их — это пристрастие к азартным играм. Тяга к азарту разрушает их жизни, но они не могут остановиться, ведь в мире нет ничего важнее, чем их страсть — страсть к игре по-крупному…- -Качество: DVDRip-AVC
Формат: MKV
Видео кодек: Другой MPEG4
Аудио кодек: AC3
Видео: 720x384 , 1 336 Kbps
Аудио: 6 ch ,448 Kbps-

MediaInfo

General
Unique ID : 234384861279475297102055965011115512386 (0xB054E1DD6CA8CB4DB0A859C95BDC1242)
Complete name : Krupnaya.stavka.2006.DVDRip.x264(AVC)Kinomagia.mkv
Format : Matroska
Format version : Version 2
File size : 1.35 GiB
Duration : 1h 48mn
Overall bit rate : 1 786 Kbps
Encoded date : UTC 2012-05-24 13:11:34
Writing application : mkvmerge v5.0.1 ('Es ist Sommer') built on Nov 6 2011 16:23:40
Writing library : libebml v1.2.2 + libmatroska v1.3.0
Video
ID : 1
Format : AVC
Format/Info : Advanced Video Codec
Format profile : [email protected]
Format settings, CABAC : Yes
Format settings, ReFrames : 4 frames
Codec ID : V_MPEG4/ISO/AVC
Duration : 1h 48mn
Bit rate : 1 336 Kbps
Width : 720 pixels
Height : 384 pixels
Display aspect ratio : 1.85:1
Frame rate mode : Constant
Frame rate : 25.000 fps
Color space : YUV
Chroma subsampling : 4:2:0
Bit depth : 8 bits
Scan type : Progressive
Bits/(Pixel*Frame) : 0.193
Stream size : 1 007 MiB (73%)
Writing library : x264 core 119 r2106 07efeb4
Encoding settings : cabac=1 / ref=3 / deblock=1:0:0 / analyse=0x3:0x113 / me=hex / subme=7 / psy=1 / psy_rd=1.00:0.10 / mixed_ref=1 / me_range=16 / chroma_me=1 / trellis=1 / 8x8dct=1 / cqm=0 / deadzone=21,11 / fast_pskip=1 / chroma_qp_offset=-3 / threads=6 / sliced_threads=0 / nr=0 / decimate=1 / interlaced=0 / bluray_compat=0 / constrained_intra=0 / bframes=3 / b_pyramid=2 / b_adapt=1 / b_bias=0 / direct=1 / weightb=1 / open_gop=0 / weightp=2 / keyint=250 / keyint_min=25 / scenecut=40 / intra_refresh=0 / rc_lookahead=40 / rc=abr / mbtree=1 / bitrate=1336 / ratetol=1.0 / qcomp=0.60 / qpmin=0 / qpmax=69 / qpstep=4 / vbv_maxrate=17500 / vbv_bufsize=14000 / nal_hrd=none / ip_ratio=1.40 / aq=1:1.00
Default : Yes
Forced : No
Audio
ID : 2
Format : AC-3
Format/Info : Audio Coding 3
Mode extension : CM (complete main)
Format settings, Endianness : Big
Codec ID : A_AC3
Duration : 1h 48mn
Bit rate mode : Constant
Bit rate : 448 Kbps
Channel(s) : 6 channels
Channel positions : Front: L C R, Side: L R, LFE
Sampling rate : 48.0 KHz
Bit depth : 16 bits
Compression mode : Lossy
Stream size : 346 MiB (25%)
Default : Yes
Forced : No
- - - -

Создавать темы 25-Июн-2014 12:03

[Профиль]  [ЛС] 

FLV

Стаж: 5 лет 11 месяцев

Сообщений: 49

Симпатии: 3

Раздача будет?

Создавать темы 25-Июн-2014 18:04

[Профиль]  [ЛС] 
Показать сообщения:    
Ответить на тему

Текущее время: 15-Дек 21:10

Часовой пояс: UTC + 5



Вы не можете начинать темы
Вы не можете отвечать на сообщения
Вы не можете редактировать свои сообщения
Вы не можете удалять свои сообщения
Вы не можете голосовать в опросах
Вы не можете прикреплять файлы к сообщениям
Вы не можете скачивать файлы