(Hip-Hop) Jay-Z & Kanye West / Watch The Throne (Deluxe Edition) - 2011, FLAC (tracks), lossless

Ответить на тему
 

llewellys ®

Стаж: 4 года 9 месяцев

Сообщений: 41

Симпатии: 4

Jay-Z & Kanye West / Watch The Throne (Deluxe Edition)- Страна: США
Жанр: Hip-Hop
Год выпуска: 2011
Формат: FLAC (tracks)
Битрейт аудио: lossless
Продолжительность: 67:46
Трэклист:
01. No Church In The Wild (ft. Frank Ocean) (4:33)
02. Lift Off (ft. Beyoncé) (4:26)
03. Niggas In Paris (3:39)
04. Otis (ft. Otis Redding) (2:58)
05. Gotta Have It (2:21)
06. New Day (4:33)
07. That's My Bitch (3:23)
08. Welcome To The Jungle (2:54)
09. Who Gon Stop Me (4:17)
10. Murder To Excellence (5:01)
11. Made In America (ft. Frank Ocean) (4:52)
12. Why I Love You (ft. Mr Hudson) (3:21)
13. Illest Motherfucker Alive (8:23)
14. H•A•M (4:36)
15. Primetime (3:19)
16. The Joy (ft. Curtis Mayfield) (5:18)

Лог создания рипа

Exact Audio Copy V1.0 beta 2 from 29. April 2011
EAC extraction logfile from 10. August 2011, 15:42
Jay-Z & Kanye West / Watch The Throne
Used drive : HL-DT-STDVDRAM GSA-U20N Adapter: 1 ID: 0
Read mode : Secure
Utilize accurate stream : Yes
Defeat audio cache : Yes
Make use of C2 pointers : No
Read offset correction : 667
Overread into Lead-In and Lead-Out : No
Fill up missing offset samples with silence : Yes
Delete leading and trailing silent blocks : No
Null samples used in CRC calculations : Yes
Used interface : Native Win32 interface for Win NT & 2000
Gap handling : Appended to previous track
Used output format : User Defined Encoder
Selected bitrate : 128 kBit/s
Quality : High
Add ID3 tag : No
Command line compressor : C:\Program Files (x86)\Exact Audio Copy\Flac\flac.exe
Additional command line options : -8 -V -T "ARTIST=%artist%" -T "TITLE=%title%" -T "ALBUM=%albumtitle%" -T "DATE=%year%" -T "TRACKNUMBER=%tracknr%" -T "GENRE=%genre%" -T "PERFORMER=%albuminterpret%" -T "COMPOSER=%composer%" %haslyrics%--tag-from-file=LYRICS
TOC of the extracted CD
Track | Start | Length | Start sector | End sector
---------------------------------------------------------
1 | 0:00.00 | 4:32.38 | 0 | 20437
2 | 4:32.38 | 4:26.19 | 20438 | 40406
3 | 8:58.57 | 3:39.25 | 40407 | 56856
4 | 12:38.07 | 2:58.16 | 56857 | 70222
5 | 15:36.23 | 2:20.56 | 70223 | 80778
6 | 17:57.04 | 4:32.64 | 80779 | 101242
7 | 22:29.68 | 3:22.42 | 101243 | 116434
8 | 25:52.35 | 2:54.10 | 116435 | 129494
9 | 28:46.45 | 4:16.53 | 129495 | 148747
10 | 33:03.23 | 5:00.72 | 148748 | 171319
11 | 38:04.20 | 4:52.05 | 171320 | 193224
12 | 42:56.25 | 3:21.28 | 193225 | 208327
13 | 46:17.53 | 8:23.24 | 208328 | 246076
14 | 54:41.02 | 4:35.55 | 246077 | 266756
15 | 59:16.57 | 3:19.18 | 266757 | 281699
16 | 62:36.00 | 5:17.69 | 281700 | 305543
Track 1
Filename C:\Jay-Z & Kanye West - Watch The Throne\01 - No Church In The Wild (Feat. Frank Ocean).wav
Pre-gap length 0:00:02.00
Peak level 100.0 %
Extraction speed 2.5 X
Track quality 100.0 %
Test CRC BCF9A3F0
Copy CRC BCF9A3F0
Track not present in AccurateRip database
Copy OK
Track 2
Filename C:\Jay-Z & Kanye West - Watch The Throne\02 - Lift Off (Feat. Beyoncé).wav
Peak level 98.8 %
Extraction speed 2.4 X
Track quality 99.9 %
Test CRC 4A4945BB
Copy CRC 4A4945BB
Track not present in AccurateRip database
Copy OK
Track 3
Filename C:\Jay-Z & Kanye West - Watch The Throne\03 - Niggas In Paris.wav
Peak level 88.2 %
Extraction speed 2.8 X
Track quality 100.0 %
Test CRC 3BC48A5F
Copy CRC 3BC48A5F
Track not present in AccurateRip database
Copy OK
Track 4
Filename C:\Jay-Z & Kanye West - Watch The Throne\04 - Otis (Feat. Otis Redding).wav
Peak level 100.0 %
Extraction speed 2.9 X
Track quality 100.0 %
Test CRC AD41281C
Copy CRC AD41281C
Track not present in AccurateRip database
Copy OK
Track 5
Filename C:\Jay-Z & Kanye West - Watch The Throne\05 - Gotta Have It.wav
Peak level 98.8 %
Extraction speed 2.4 X
Track quality 99.9 %
Test CRC 32E0336D
Copy CRC 32E0336D
Track not present in AccurateRip database
Copy OK
Track 6
Filename C:\Jay-Z & Kanye West - Watch The Throne\06 - New Day.wav
Peak level 100.0 %
Extraction speed 3.0 X
Track quality 99.9 %
Test CRC A5F91C26
Copy CRC A5F91C26
Track not present in AccurateRip database
Copy OK
Track 7
Filename C:\Jay-Z & Kanye West - Watch The Throne\07 - That's My Bitch.wav
Peak level 98.8 %
Extraction speed 3.4 X
Track quality 100.0 %
Test CRC F5F7AF96
Copy CRC F5F7AF96
Track not present in AccurateRip database
Copy OK
Track 8
Filename C:\Jay-Z & Kanye West - Watch The Throne\08 - Who Gon Stop Me.wav
Peak level 98.8 %
Extraction speed 3.3 X
Track quality 100.0 %
Test CRC 6E36315E
Copy CRC 6E36315E
Track not present in AccurateRip database
Copy OK
Track 9
Filename C:\Jay-Z & Kanye West - Watch The Throne\09 - Murder To Excellence.wav
Peak level 98.8 %
Extraction speed 3.8 X
Track quality 100.0 %
Test CRC 81C61441
Copy CRC 81C61441
Track not present in AccurateRip database
Copy OK
Track 10
Filename C:\Jay-Z & Kanye West - Watch The Throne\10 - Welcome To The Jungle.wav
Peak level 100.0 %
Extraction speed 4.0 X
Track quality 100.0 %
Test CRC 0414A344
Copy CRC 0414A344
Track not present in AccurateRip database
Copy OK
Track 11
Filename C:\Jay-Z & Kanye West - Watch The Throne\11 - Made In America (Feat. Frank Ocean).wav
Peak level 98.8 %
Extraction speed 4.1 X
Track quality 100.0 %
Test CRC E79CE84E
Copy CRC E79CE84E
Track not present in AccurateRip database
Copy OK
Track 12
Filename C:\Jay-Z & Kanye West - Watch The Throne\12 - Why I Love You (Feat. Mr Hudson).wav
Peak level 98.8 %
Extraction speed 4.0 X
Track quality 100.0 %
Test CRC F0245A35
Copy CRC F0245A35
Track not present in AccurateRip database
Copy OK
Track 13
Filename C:\Jay-Z & Kanye West - Watch The Throne\13 - Illest Motherfucker Alive.wav
Peak level 100.0 %
Extraction speed 4.4 X
Track quality 99.9 %
Test CRC CCF6D758
Copy CRC CCF6D758
Track not present in AccurateRip database
Copy OK
Track 14
Filename C:\Jay-Z & Kanye West - Watch The Throne\14 - H•A•M.wav
Peak level 99.4 %
Extraction speed 4.6 X
Track quality 100.0 %
Test CRC 3B167482
Copy CRC 3B167482
Track not present in AccurateRip database
Copy OK
Track 15
Filename C:\Jay-Z & Kanye West - Watch The Throne\15 - Primetime.wav
Peak level 99.0 %
Extraction speed 4.6 X
Track quality 100.0 %
Test CRC 4F768633
Copy CRC 4F768633
Track not present in AccurateRip database
Copy OK
Track 16
Filename C:\Jay-Z & Kanye West - Watch The Throne\16 - The Joy (Feat. Curtis Mayfield).wav
Peak level 98.8 %
Extraction speed 5.0 X
Track quality 100.0 %
Test CRC 0D324A33
Copy CRC 0D324A33
Track not present in AccurateRip database
Copy OK
None of the tracks are present in the AccurateRip database
No errors occurred
End of status report
==== Log checksum AE1BA61F789C946802D7EE57748C46DD34231DA2E40C669ABCA8025BA778D9CE ====

Содержание индексной карты (.CUE)

REM DISCID 0A0FE910REM COMMENT "ExactAudioCopy v1.0b2"PERFORMER "Jay-Z & Kanye West"TITLE "Watch The Throne"FILE "01 - No Church In The Wild (Feat. Frank Ocean).wav" WAVE TRACK 01 AUDIO TITLE "No Church In The Wild (Feat. Frank Ocean)" PERFORMER "Jay-Z & Kanye West" INDEX 01 00:00:00FILE "02 - Lift Off (Feat. Beyoncй).wav" WAVE TRACK 02 AUDIO TITLE "Lift Off (Feat. Beyoncй)" PERFORMER "Jay-Z & Kanye West" INDEX 01 00:00:00FILE "03 - Niggas In Paris.wav" WAVE TRACK 03 AUDIO TITLE "Niggas In Paris" PERFORMER "Jay-Z & Kanye West" INDEX 01 00:00:00FILE "04 - Otis (Feat. Otis Redding).wav" WAVE TRACK 04 AUDIO TITLE "Otis (Feat. Otis Redding)" PERFORMER "Jay-Z & Kanye West" INDEX 01 00:00:00FILE "05 - Gotta Have It.wav" WAVE TRACK 05 AUDIO TITLE "Gotta Have It" PERFORMER "Jay-Z & Kanye West" INDEX 01 00:00:00FILE "06 - New Day.wav" WAVE TRACK 06 AUDIO TITLE "New Day" PERFORMER "Jay-Z & Kanye West" INDEX 01 00:00:00FILE "07 - That's My Bitch.wav" WAVE TRACK 07 AUDIO TITLE "That's My Bitch" PERFORMER "Jay-Z & Kanye West" INDEX 01 00:00:00FILE "08 - Welcome To The Jungle.wav" WAVE TRACK 08 AUDIO TITLE "Welcome To The Jungle" PERFORMER "Jay-Z & Kanye West" INDEX 01 00:00:00FILE "09 - Who Gon Stop Me.wav" WAVE TRACK 09 AUDIO TITLE "Who Gon Stop Me" PERFORMER "Jay-Z & Kanye West" INDEX 01 00:00:00FILE "10 - Murder To Excellence.wav" WAVE TRACK 10 AUDIO TITLE "Murder To Excellence" PERFORMER "Jay-Z & Kanye West" INDEX 01 00:00:00FILE "11 - Made In America (Feat. Frank Ocean).wav" WAVE TRACK 11 AUDIO TITLE "Made In America (Feat. Frank Ocean)" PERFORMER "Jay-Z & Kanye West" INDEX 01 00:00:00FILE "12 - Why I Love You (Feat. Mr Hudson).wav" WAVE TRACK 12 AUDIO TITLE "Why I Love You (Feat. Mr Hudson)" PERFORMER "Jay-Z & Kanye West" INDEX 01 00:00:00FILE "13 - Illest Motherfucker Alive.wav" WAVE TRACK 13 AUDIO TITLE "Illest Motherfucker Alive" PERFORMER "Jay-Z & Kanye West" INDEX 01 00:00:00FILE "14 - H•A•M.wav" WAVE TRACK 14 AUDIO TITLE "H•A•M" PERFORMER "Jay-Z & Kanye West" INDEX 01 00:00:00FILE "15 - Primetime.wav" WAVE TRACK 15 AUDIO TITLE "Primetime" PERFORMER "Jay-Z & Kanye West" INDEX 01 00:00:00FILE "16 - The Joy (Feat. Curtis Mayfield).wav" WAVE TRACK 16 AUDIO TITLE "The Joy (Feat. Curtis Mayfield)" PERFORMER "Jay-Z & Kanye West" INDEX 01 00:00:00

Создавать темы 25-Июн-2014 13:55

[Профиль]  [ЛС] 

Sizzle3

Стаж: 6 лет 4 месяца

Сообщений: 31

Симпатии: 11

походу дружбе конец. не увидим мы продолжение WTT.

Создавать темы 25-Июн-2014 15:14

[Профиль]  [ЛС] 

llewellys ®

Стаж: 4 года 9 месяцев

Сообщений: 41

Симпатии: 4

847937походу дружбе конец. не увидим мы продолжение WTT.
Кто знает... Время покажет bw

Создавать темы 25-Июн-2014 15:44

[Профиль]  [ЛС] 
Показать сообщения:    
Ответить на тему

Текущее время: 18-Авг 15:53

Часовой пояс: UTC + 5



Вы не можете начинать темы
Вы не можете отвечать на сообщения
Вы не можете редактировать свои сообщения
Вы не можете удалять свои сообщения
Вы не можете голосовать в опросах
Вы не можете прикреплять файлы к сообщениям
Вы не можете скачивать файлы