(Moombahton) Diplo - Express Yourself EP - 2012, FLAC (tracks), lossless

Ответить на тему
 

llewellys ®

Стаж: 4 года 10 месяцев

Сообщений: 41

Симпатии: 4

Diplo - Express Yourself EP
Страна: США
Жанр: Moombahton
Год выпуска: 2012
Формат: FLAC (tracks)
Битрейт аудио: lossless
Продолжительность: 00:24:49
Трэклист:
01. Express Yourself feat. Nicky Da B [04:39]
02 .Barely Standing feat. Datsik & Sabi [04:44]
03. No Problem feat. Flinch & My Name Is Kay [03:40]
04. Move Around feat. Elephant Man & GTA [03:16]
05. Butters Theme feat. Billy The Gent & Long Jawns [04:28]
06. Set It Off feat. Lazerdisk Party Sex [04:00]

Лог создания рипа

X Lossless Decoder version 20120120 (139.0)
XLD extraction logfile from 2012-05-21 23:07:18 -0600
Diplo / Express Yourself
Used drive : MATSHITA DVD-R UJ-846 (revision FAAG)
Ripper mode : CDParanoia III 10.2
Disable audio cache : OK for the drive with a cache less than 2750KiB
Make use of C2 pointers : NO
Read offset correction : 102
Max retry count : 100
Gap status : Analyzed, Appended
TOC of the extracted CD
Track | Start | Length | Start sector | End sector
---------------------------------------------------------
1 | 00:00:00 | 04:39:40 | 0 | 20964
2 | 04:39:40 | 04:44:40 | 20965 | 42304
3 | 09:24:05 | 03:40:65 | 42305 | 58869
4 | 13:04:70 | 03:16:14 | 58870 | 73583
5 | 16:21:09 | 04:28:50 | 73584 | 93733
6 | 20:49:59 | 04:00:00 | 93734 | 111733
AccurateRip Summary
Disc not found in AccurateRip DB.
All Tracks
Album gain : -11.82 dB
Peak : 1.000000
Statistics
Read error : 3
Skipped (treated as error) : 0
Edge jitter error (maybe fixed) : 5
Atom jitter error (maybe fixed) : 8
Drift error (maybe fixed) : 0
Dropped bytes error (maybe fixed) : 0
Duplicated bytes error (maybe fixed) : 0
Track 01
Filename : /Users/home/Desktop/Diplo/Diplo - Express Yourself (Unknown Year) [FLAC]/01 Express Yourself feat. Nicky Da B.flac
/Users/home/Desktop/Diplo/Diplo - Express Yourself (Unknown Year) [VBR]/01 Express Yourself feat. Nicky Da B.mp3
Pre-gap length : 00:02:00
Track gain : -11.95 dB
Peak : 0.999939
CRC32 hash (test run) : 26CECE6D
CRC32 hash : 26CECE6D
CRC32 hash (skip zero) : 07767871
AccurateRip signature : 27AA2283
->Track not present in AccurateRip database.
Statistics
Read error : 2
Skipped (treated as error) : 0
Edge jitter error (maybe fixed) : 0
Atom jitter error (maybe fixed) : 2
Drift error (maybe fixed) : 0
Dropped bytes error (maybe fixed) : 0
Duplicated bytes error (maybe fixed) : 0
Inconsistency in error sectors : 0
Track 02
Filename : /Users/home/Desktop/Diplo/Diplo - Express Yourself (Unknown Year) [FLAC]/02 Barely Standing feat. Datsik & Sabi.flac
/Users/home/Desktop/Diplo/Diplo - Express Yourself (Unknown Year) [VBR]/02 Barely Standing feat. Datsik & Sabi.mp3
Pre-gap length : 00:02:00
Track gain : -9.93 dB
Peak : 1.000000
CRC32 hash (test run) : F5C6C78D
CRC32 hash : F5C6C78D
CRC32 hash (skip zero) : E0B947EA
AccurateRip signature : B090D53E
->Track not present in AccurateRip database.
Statistics
Read error : 1
Skipped (treated as error) : 0
Edge jitter error (maybe fixed) : 1
Atom jitter error (maybe fixed) : 1
Drift error (maybe fixed) : 0
Dropped bytes error (maybe fixed) : 0
Duplicated bytes error (maybe fixed) : 0
Inconsistency in error sectors : 0
Track 03
Filename : /Users/home/Desktop/Diplo/Diplo - Express Yourself (Unknown Year) [FLAC]/03 No Problem feat. Flinch & My Name Is Kay.flac
/Users/home/Desktop/Diplo/Diplo - Express Yourself (Unknown Year) [VBR]/03 No Problem feat. Flinch & My Name Is Kay.mp3
Pre-gap length : 00:02:00
Track gain : -13.04 dB
Peak : 1.000000
CRC32 hash (test run) : E6CBA3E0
CRC32 hash : A932FE51
->Rip may not be accurate.
CRC32 hash (skip zero) : A42B06D6
AccurateRip signature : 8B6B68B7
->Track not present in AccurateRip database.
Statistics
Read error : 0
Skipped (treated as error) : 0
Edge jitter error (maybe fixed) : 4
Atom jitter error (maybe fixed) : 5
Drift error (maybe fixed) : 0
Dropped bytes error (maybe fixed) : 0
Duplicated bytes error (maybe fixed) : 0
Inconsistency in error sectors : 1
List of suspicious positions :
(1) 02:57:04
Track 04
Filename : /Users/home/Desktop/Diplo/Diplo - Express Yourself (Unknown Year) [FLAC]/04 Move Around feat. Elephant Man & GTA.flac
/Users/home/Desktop/Diplo/Diplo - Express Yourself (Unknown Year) [VBR]/04 Move Around feat. Elephant Man & GTA.mp3
Pre-gap length : 00:02:00
Track gain : -10.79 dB
Peak : 0.995667
CRC32 hash (test run) : 2755EB20
CRC32 hash : 2755EB20
CRC32 hash (skip zero) : 61C8D487
AccurateRip signature : B1266E3E
->Track not present in AccurateRip database.
Statistics
Read error : 0
Skipped (treated as error) : 0
Edge jitter error (maybe fixed) : 0
Atom jitter error (maybe fixed) : 0
Drift error (maybe fixed) : 0
Dropped bytes error (maybe fixed) : 0
Duplicated bytes error (maybe fixed) : 0
Inconsistency in error sectors : 0
Track 05
Filename : /Users/home/Desktop/Diplo/Diplo - Express Yourself (Unknown Year) [FLAC]/05 Butters Theme feat. Billy The Gent & Long Jawns.flac
/Users/home/Desktop/Diplo/Diplo - Express Yourself (Unknown Year) [VBR]/05 Butters Theme feat. Billy The Gent & Long Jawns.mp3
Pre-gap length : 00:02:00
Track gain : -10.57 dB
Peak : 0.999451
CRC32 hash (test run) : 60791819
CRC32 hash : 60791819
CRC32 hash (skip zero) : EC7BDD24
AccurateRip signature : FDB6B4C0
->Track not present in AccurateRip database.
Statistics
Read error : 0
Skipped (treated as error) : 0
Edge jitter error (maybe fixed) : 0
Atom jitter error (maybe fixed) : 0
Drift error (maybe fixed) : 0
Dropped bytes error (maybe fixed) : 0
Duplicated bytes error (maybe fixed) : 0
Inconsistency in error sectors : 0
Track 06
Filename : /Users/home/Desktop/Diplo/Diplo - Express Yourself (Unknown Year) [FLAC]/06 Set It Off feat. Lazerdisk Party Sex.flac
/Users/home/Desktop/Diplo/Diplo - Express Yourself (Unknown Year) [VBR]/06 Set It Off feat. Lazerdisk Party Sex.mp3
Pre-gap length : 00:02:00
Track gain : -10.97 dB
Peak : 0.999237
CRC32 hash (test run) : 06A99EB9
CRC32 hash : 06A99EB9
CRC32 hash (skip zero) : 56ED3642
AccurateRip signature : 9E6777C6
->Track not present in AccurateRip database.
Statistics
Read error : 0
Skipped (treated as error) : 0
Edge jitter error (maybe fixed) : 0
Atom jitter error (maybe fixed) : 0
Drift error (maybe fixed) : 0
Dropped bytes error (maybe fixed) : 0
Duplicated bytes error (maybe fixed) : 0
Inconsistency in error sectors : 0
Some errors occurred
End of status report

Лог проверки качества

-----------------------
DON'T MODIFY THIS FILE
-----------------------
PERFORMER: auCDtect Task Manager, ver. 1.5.1RC6 build 1.5.1.7
Copyright (c) 2008-2010 y-soft. All rights reserved
http://y-soft.org
ANALYZER: auCDtect: CD records authenticity detector, version 0.8.2
Copyright (c) 2004 Oleg Berngardt. All rights reserved.
Copyright (c) 2004 Alexander Djourik. All rights reserved.
FILE: 06 Set It Off feat. Lazerdisk Party Sex.flac
Size: 31267142 Hash: D1898D9155C41D42A6E659DAC754661B Accuracy: -m0
Conclusion: CDDA 100%
Signature: C9BD5CFD83B3DC26356A26694F92AD65C35E04FB
FILE: 05 Butters Theme feat. Billy The Gent & Long Jawns.flac
Size: 35895362 Hash: 43EEA91F932CA1F6116C75053B9FDB61 Accuracy: -m0
Conclusion: CDDA 100%
Signature: C7C3D07C390BEE54BC89CC5586970A2D871023F0
FILE: 04 Move Around feat. Elephant Man & GTA.flac
Size: 25032278 Hash: 40DA8011F21C8D7B9A8CD26101B0359E Accuracy: -m0
Conclusion: CDDA 100%
Signature: A8303638CD65AAD35DAF90494F4404BA58DA7A11
FILE: 03 No Problem feat. Flinch & My Name Is Kay.flac
Size: 31567279 Hash: B03250C9716D0A450D1403EE3F8EE7EF Accuracy: -m0
Conclusion: CDDA 100%
Signature: 4BD54CD8775C3AB880B0CD5B511618519A945190
FILE: 02 Barely Standing feat. Datsik & Sabi.flac
Size: 35632165 Hash: ED53E3223523AA788F9893F7ED8E6B29 Accuracy: -m0
Conclusion: CDDA 100%
Signature: ACE5E326DC1353809871746385BD433C3E94EBFA
FILE: 01 Express Yourself feat. Nicky Da B.flac
Size: 35749676 Hash: 1AE2C37CB17CDB550102C6C1B504F0C4 Accuracy: -m0
Conclusion: CDDA 100%
Signature: 976745532B6BDD2C23E7B882912507C30EB399E1

Создавать темы 25-Июн-2014 15:08

[Профиль]  [ЛС] 
Показать сообщения:    
Ответить на тему

Текущее время: 24-Сен 19:11

Часовой пояс: UTC + 5



Вы не можете начинать темы
Вы не можете отвечать на сообщения
Вы не можете редактировать свои сообщения
Вы не можете удалять свои сообщения
Вы не можете голосовать в опросах
Вы не можете прикреплять файлы к сообщениям
Вы не можете скачивать файлы