(Hip-Hop) Consequence - Don't Quit Your Day Job! - 2007, FLAC (tracks), lossless

Ответить на тему
 

llewellys ®

Стаж: 5 лет

Сообщений: 41

Симпатии: 4

Consequence - Don't Quit Your Day Job! Страна: США
Жанр: Hip-Hop
Год выпуска: 2007
Формат: FLAC (tracks)
Битрейт аудио: lossless
Продолжительность: 50:00
Трэклист:
01. Job Song
02. Don't Forget 'Em
03. Uptown
04. The Good, The Bad, The Ugly (feat. Kanye West)
05. Night Night
06. Pretty Little Sexy Mama
07. On Break (Skit)
08. Feel This Way (feat. John Legend)
09. Callin' Me
10. Disperse (feat. GLC & Really Doe)
11. Yo, Dex! (Skit)
12. Uncle Raheim
13. Grammy Family (feat. DJ Khaled, Kanye West & John Legend)
14. Good News, Bad News (Skit)
15. Who Knew My Would Change

EAC

Exact Audio Copy V0.99 prebeta 5 from 4. May 2009
EAC extraction logfile from 1. February 2010, 18:27
Consequence / Don't Quit Your Day Job
Used drive : TSSTcorpCDDVDW SH-S203N Adapter: 3 ID: 1
Read mode : Secure
Utilize accurate stream : Yes
Defeat audio cache : Yes
Make use of C2 pointers : No
Read offset correction : 6
Overread into Lead-In and Lead-Out : No
Fill up missing offset samples with silence : Yes
Delete leading and trailing silent blocks : No
Null samples used in CRC calculations : Yes
Used interface : Native Win32 interface for Win NT & 2000
Gap handling : Appended to previous track
Used output format : User Defined Encoder
Selected bitrate : 320 kBit/s
Quality : High
Add ID3 tag : No
Command line compressor : C:\Program Files\Exact Audio Copy\Flac\flac.exe
Additional command line options : -V -8 -T "artist=%a" -T "title=%t" -T "album=%g" -T "date=%y" -T "tracknumber=%n" -T "genre=%m" %s
TOC of the extracted CD
Track | Start | Length | Start sector | End sector
---------------------------------------------------------
1 | 0:00.00 | 3:18.50 | 0 | 14899
2 | 3:18.50 | 3:59.52 | 14900 | 32876
3 | 7:18.27 | 3:44.30 | 32877 | 49706
4 | 11:02.57 | 4:11.68 | 49707 | 68599
5 | 15:14.50 | 2:57.47 | 68600 | 81921
6 | 18:12.22 | 3:22.18 | 81922 | 97089
7 | 21:34.40 | 0:43.35 | 97090 | 100349
8 | 22:18.00 | 4:11.05 | 100350 | 119179
9 | 26:29.05 | 3:36.30 | 119180 | 135409
10 | 30:05.35 | 4:41.10 | 135410 | 156494
11 | 34:46.45 | 0:46.65 | 156495 | 160009
12 | 35:33.35 | 4:09.27 | 160010 | 178711
13 | 39:42.62 | 3:24.53 | 178712 | 194064
14 | 43:07.40 | 1:17.00 | 194065 | 199839
15 | 44:24.40 | 5:16.00 | 199840 | 223539
Track 1
Filename D:\Rips\Consequence - 2007 - Don't Quit Your Day Job\01 - Job Song [Explicit Album Version].wav
Pre-gap length 0:00:02.00
Peak level 98.8 %
Track quality 100.0 %
Test CRC CBC59CB3
Copy CRC CBC59CB3
Accurately ripped (confidence 2) [D553DC67]
Copy OK
Track 2
Filename D:\Rips\Consequence - 2007 - Don't Quit Your Day Job\02 - Don't Forget Em.wav
Peak level 98.8 %
Track quality 100.0 %
Test CRC A17981A3
Copy CRC A17981A3
Accurately ripped (confidence 2) [155FC7D2]
Copy OK
Track 3
Filename D:\Rips\Consequence - 2007 - Don't Quit Your Day Job\03 - Uptown [Explicit Album Version].wav
Peak level 98.8 %
Track quality 100.0 %
Test CRC 742C1D88
Copy CRC 742C1D88
Accurately ripped (confidence 2) [5D180646]
Copy OK
Track 4
Filename D:\Rips\Consequence - 2007 - Don't Quit Your Day Job\04 - The Good, The Bad, The Ugly [Explicit Album Version].wav
Peak level 98.8 %
Track quality 100.0 %
Test CRC 8F400274
Copy CRC 8F400274
Accurately ripped (confidence 2) [7AFDCFEF]
Copy OK
Track 5
Filename D:\Rips\Consequence - 2007 - Don't Quit Your Day Job\05 - Night Night [Explicit Album Version].wav
Peak level 98.8 %
Track quality 99.9 %
Test CRC 94694ECE
Copy CRC 94694ECE
Accurately ripped (confidence 2) [6B0192C9]
Copy OK
Track 6
Filename D:\Rips\Consequence - 2007 - Don't Quit Your Day Job\06 - Pretty Little Sexy Mama [Explicit Album Version].wav
Peak level 98.8 %
Track quality 99.9 %
Test CRC B0BC547B
Copy CRC B0BC547B
Accurately ripped (confidence 2) [052600F3]
Copy OK
Track 7
Filename D:\Rips\Consequence - 2007 - Don't Quit Your Day Job\07 - On Break [Skit].wav
Peak level 49.7 %
Track quality 99.7 %
Test CRC C54BD81A
Copy CRC C54BD81A
Accurately ripped (confidence 2) [20FE793E]
Copy OK
Track 8
Filename D:\Rips\Consequence - 2007 - Don't Quit Your Day Job\08 - Feel This Way.wav
Peak level 98.8 %
Track quality 100.0 %
Test CRC 49C12E44
Copy CRC 49C12E44
Accurately ripped (confidence 2) [7FAC7087]
Copy OK
Track 9
Filename D:\Rips\Consequence - 2007 - Don't Quit Your Day Job\09 - Callin' Me [Explicit Album Version].wav
Peak level 100.0 %
Track quality 100.0 %
Test CRC D761F0BD
Copy CRC D761F0BD
Accurately ripped (confidence 2) [67D7E1EA]
Copy OK
Track 10
Filename D:\Rips\Consequence - 2007 - Don't Quit Your Day Job\10 - Disperse.wav
Peak level 98.9 %
Track quality 100.0 %
Test CRC 57C1AF50
Copy CRC 57C1AF50
Accurately ripped (confidence 2) [2B27EDBB]
Copy OK
Track 11
Filename D:\Rips\Consequence - 2007 - Don't Quit Your Day Job\11 - Yo, Dex! [Skit].wav
Peak level 98.8 %
Track quality 100.0 %
Test CRC 7E2E2C3E
Copy CRC 7E2E2C3E
Accurately ripped (confidence 2) [542D3410]
Copy OK
Track 12
Filename D:\Rips\Consequence - 2007 - Don't Quit Your Day Job\12 - Uncle Rahiem [Explicit Album Version].wav
Peak level 98.8 %
Track quality 99.9 %
Test CRC 3C1A26B6
Copy CRC 3C1A26B6
Accurately ripped (confidence 2) [D13D6163]
Copy OK
Track 13
Filename D:\Rips\Consequence - 2007 - Don't Quit Your Day Job\13 - Grammy Family [Explicit Album Version].wav
Peak level 100.0 %
Track quality 100.0 %
Test CRC 137308AA
Copy CRC 137308AA
Accurately ripped (confidence 2) [27A3ECF5]
Copy OK
Track 14
Filename D:\Rips\Consequence - 2007 - Don't Quit Your Day Job\14 - Good News, Bad News [Skit].wav
Peak level 98.8 %
Track quality 100.0 %
Test CRC 1476ED22
Copy CRC 1476ED22
Accurately ripped (confidence 2) [828E714D]
Copy OK
Track 15
Filename D:\Rips\Consequence - 2007 - Don't Quit Your Day Job\15 - Who Knew My Luck Would Change.wav
Peak level 98.8 %
Track quality 100.0 %
Test CRC A9FE35AB
Copy CRC A9FE35AB
Accurately ripped (confidence 2) [7C563BAC]
Copy OK
All tracks accurately ripped
No errors occurred
End of status report

CUE

REM GENRE Hip-Hop
REM DATE 2007
REM DISCID CE0BA40F
REM COMMENT "ExactAudioCopy v0.99pb5"
PERFORMER "Consequence"
TITLE "Don't Quit Your Day Job"
FILE "01 - Job Song [Explicit Album Version].wav" WAVE
TRACK 01 AUDIO
TITLE "Job Song [Explicit Album Version]"
PERFORMER "Consequence"
INDEX 01 00:00:00
FILE "02 - Don't Forget Em.wav" WAVE
TRACK 02 AUDIO
TITLE "Don't Forget Em"
PERFORMER "Consequence"
INDEX 01 00:00:00
FILE "03 - Uptown [Explicit Album Version].wav" WAVE
TRACK 03 AUDIO
TITLE "Uptown [Explicit Album Version]"
PERFORMER "Consequence"
INDEX 01 00:00:00
FILE "04 - The Good, The Bad, The Ugly [Explicit Album Version].wav" WAVE
TRACK 04 AUDIO
TITLE "The Good, The Bad, The Ugly [Explicit Album Version]"
PERFORMER "Consequence"
INDEX 01 00:00:00
FILE "05 - Night Night [Explicit Album Version].wav" WAVE
TRACK 05 AUDIO
TITLE "Night Night [Explicit Album Version]"
PERFORMER "Consequence"
INDEX 01 00:00:00
FILE "06 - Pretty Little Sexy Mama [Explicit Album Version].wav" WAVE
TRACK 06 AUDIO
TITLE "Pretty Little Sexy Mama [Explicit Album Version]"
PERFORMER "Consequence"
INDEX 01 00:00:00
FILE "07 - On Break [Skit].wav" WAVE
TRACK 07 AUDIO
TITLE "On Break [Skit]"
PERFORMER "Consequence"
INDEX 01 00:00:00
FILE "08 - Feel This Way.wav" WAVE
TRACK 08 AUDIO
TITLE "Feel This Way"
PERFORMER "Consequence"
INDEX 01 00:00:00
FILE "09 - Callin' Me [Explicit Album Version].wav" WAVE
TRACK 09 AUDIO
TITLE "Callin' Me [Explicit Album Version]"
PERFORMER "Consequence"
INDEX 01 00:00:00
FILE "10 - Disperse.wav" WAVE
TRACK 10 AUDIO
TITLE "Disperse"
PERFORMER "Consequence"
INDEX 01 00:00:00
FILE "11 - Yo, Dex! [Skit].wav" WAVE
TRACK 11 AUDIO
TITLE "Yo, Dex! [Skit]"
PERFORMER "Consequence"
INDEX 01 00:00:00
FILE "12 - Uncle Rahiem [Explicit Album Version].wav" WAVE
TRACK 12 AUDIO
TITLE "Uncle Rahiem [Explicit Album Version]"
PERFORMER "Consequence"
INDEX 01 00:00:00
FILE "13 - Grammy Family [Explicit Album Version].wav" WAVE
TRACK 13 AUDIO
TITLE "Grammy Family [Explicit Album Version]"
PERFORMER "Consequence"
INDEX 01 00:00:00
FILE "14 - Good News, Bad News [Skit].wav" WAVE
TRACK 14 AUDIO
TITLE "Good News, Bad News [Skit]"
PERFORMER "Consequence"
INDEX 01 00:00:00
FILE "15 - Who Knew My Luck Would Change.wav" WAVE
TRACK 15 AUDIO
TITLE "Who Knew My Luck Would Change"
PERFORMER "Consequence"
INDEX 01 00:00:00

Создавать темы 25-Июн-2014 17:31

[Профиль]  [ЛС] 
Показать сообщения:    
Ответить на тему

Текущее время: 18-Ноя 06:06

Часовой пояс: UTC + 5



Вы не можете начинать темы
Вы не можете отвечать на сообщения
Вы не можете редактировать свои сообщения
Вы не можете удалять свои сообщения
Вы не можете голосовать в опросах
Вы не можете прикреплять файлы к сообщениям
Вы не можете скачивать файлы