Все говорят, что я люблю тебя / Everyone Says I Love You (Вуди Аллен) [1996 г., мюзикл, мелодрама, комедия, ..., DVDRip]

Ответить на тему
 

igor1968 ®

Стаж: 5 лет 5 месяцев

Сообщений: 366

Симпатии: 197

Все говорят, что я люблю тебя / Everyone Says I Love You Год выпуска: 1996
Страна:
Жанр: мюзикл, мелодрама, комедия, ...
Продолжительность: 01:36:56.160
Перевод: Профессиональный (многоголосый, закадровый)
Режиссер: Вуди Аллен
В ролях: В главных ролях:
Дрю Бэрримор
Джулия Робертс
Голди Хоун
Вуди Аллен
Алан Алда
Лукас Хаас
Тим Рот
Дэвид Огден Стайерз
Эдвард Нортон
Натали Портман
...
Действие фильма перемещается из Нью-Йорка то в Венецию, то в Париж и обратно, а в сюжете участвуют несколько персонажей, связанных между собой супружескими, родственными и дружескими отношениями.- -Качество: DVDRip
Формат: AVI
Видео кодек: XviD
Аудио кодек: MPEG Audio
Видео: 608x336 (1.81:1), 25 fps, XviD MPEG-4 ~867 kbps avg, 0.17 bit/pixel
Аудио: 48 kHz, MPEG Layer 3, 2 ch, ~128.00 kbps avg-

MediaInfo

General
Complete name : Vse.Govoryat.chto.ya.Tebya.Lyublyu.avi
Format : AVI
Format/Info : Audio Video Interleave
File size : 700 MiB
Duration : 1h 36mn
Overall bit rate : 1 009 Kbps
Movie name : Все говорят, что я люблю тебя / Everyone Says I Love You (1996)
Director : Вуди Аллен / Woody Allen
Subject : Все говорят, что я люблю тебя / Everyone Says I Love You (1996)
Writing application : Nandub v1.0rc2
Writing library : Nandub build 1852/release
Copyright : 2006
Comment : ech(rus)
Video
ID : 0
Format : MPEG-4 Visual
Format profile : Advanced [email protected]
Format settings, BVOP : 2
Format settings, QPel : No
Format settings, GMC : No warppoints
Format settings, Matrix : Default (H.263)
Muxing mode : Packed bitstream
Codec ID : XVID
Codec ID/Hint : XviD
Duration : 1h 36mn
Bit rate : 868 Kbps
Width : 608 pixels
Height : 336 pixels
Display aspect ratio : 16:9
Frame rate : 25.000 fps
Color space : YUV
Chroma subsampling : 4:2:0
Bit depth : 8 bits
Scan type : Progressive
Compression mode : Lossy
Bits/(Pixel*Frame) : 0.170
Stream size : 602 MiB (86%)
Writing library : XviD 1.1.0 (UTC 2005-11-22)
Audio
ID : 1
Format : MPEG Audio
Format version : Version 1
Format profile : Layer 3
Mode : Joint stereo
Mode extension : MS Stereo
Codec ID : 55
Codec ID/Hint : MP3
Duration : 1h 36mn
Bit rate mode : Constant
Bit rate : 128 Kbps
Channel count : 2 channels
Sampling rate : 48.0 KHz
Compression mode : Lossy
Stream size : 88.7 MiB (13%)
Alignment : Aligned on interleaves
Interleave, duration : 24 ms (0.60 video frame)
Interleave, preload duration : 480 ms
Writing library : LAME3.96r
Encoding settings : -m j -V 4 -q 3 -lowpass 17.5 -b 128
- - - -

Создавать темы 26-Июн-2014 22:24

[Профиль]  [ЛС] 

sanjar0049

Стаж: 5 лет 4 месяца

Сообщений: 35

Симпатии: 1

когда разсдача?

Создавать темы 27-Июн-2014 18:50

[Профиль]  [ЛС] 

igor1968 ®

Стаж: 5 лет 5 месяцев

Сообщений: 366

Симпатии: 197

848755когда разсдача?

Скриншоты

Создавать темы 27-Июн-2014 18:57

[Профиль]  [ЛС] 
Показать сообщения:    
Ответить на тему

Текущее время: 18-Авг 21:29

Часовой пояс: UTC + 5



Вы не можете начинать темы
Вы не можете отвечать на сообщения
Вы не можете редактировать свои сообщения
Вы не можете удалять свои сообщения
Вы не можете голосовать в опросах
Вы не можете прикреплять файлы к сообщениям
Вы не можете скачивать файлы