Sade: Bring Me Home - Live 2011 [2012 г., Pop, Soul, Soft Jazz, BDRip-AVC]

Ответить на тему
 

Страх ®

Стаж: 4 года 2 месяца

Сообщений: 1131

Симпатии: 448

--
Жанр: Pop, Soul, Soft Jazz Продолжительность: 02:02:08 Год выпуска: 2012 г.
--Описание:В 2011 году, после 10-летнего молчания, Sade верулась на сцену и дала концерты во многих странах мира по Европе, Северной и Южной Америке и, в том числе России. Группа проехала с турне по одной толькой Северной Америке долгих три месяца и дала 54 концерта в поддержку мультиплатинового альбома "Soldier of Love", который оказался среди самых прибыльных за прошлый год.
Режиссёром фильма о концерте в очередной раз стала широко известная Софи Мюллер, которая снимала многочисленные концерты в ходе американской части тура, и, в итоге выбрала самые интересные моменты различных выступлений для создания фильма. В ходе турне Шадэ Аду и её группа исполнили 22 песни, среди которых как самые свежие, так и её самые знаменитые композиции, которые она представила на "самой креативной сценической постановке", судя по номинации Pollstar. Благодаря столь задушевным вибрациям, захватывающей постановке и ошеломляющим зрительным образам, этот концерт станет непременным подарком любому поклоннику прекрасной музыки "Sade"!
Названный, в частности, "лучшим концертом года" газетой Baltimore Sun, прошлогодний тур будет представлен 22 мая 2012 года в виде DVD/CD и Blu-ray диска под общим названием “Bring Me Home – Live 2011"

Треклист

01. Soldier Of Love
02. Your Love Is King
03. Skin
04. Kiss Of Life
05. Love Is Found
06. In Another Time
07. Smooth Operator
08. Jezebel
09. Bring Me Home
10. Is It A Crime
11. Love Is Stronger Than Pride
12. All About Our Love
13. Paradise
14. Nothing Can Come Between Us
15. Morning Bird
16. King Of Sorrow
17. The Sweetest Taboo
18. The Moon And The Sky
19. Pearls
20. No Ordinary Love
21. By Your Side
22. Cherish the Day
-Источник: Рип AlexSchl Cсылка Оригинальный BluRay 37 Gb
Качество: BDRip Контейнер: MKV Видео кодек: H.264 Аудио кодек: AC3
Видео: 854*480 (16:9), 2012 Kbps, 23.976 fps Аудио: AC3 5.1 448kbps 48.0 kHz

Mediainfo

General
Unique ID                                : 244270464163378914649734294637959429612 (0xB7C4C7B7A8AC2A5A87FB6D04D5CFBDEC)
Complete name                            : D:\Tracker\Sade Bring Me Home Live 2011 Blu-ray 480p x264 AC3.mkv
Format                                   : Matroska
Format version                           : Version 2
File size                                : 2.10 GiB
Duration                                 : 2h 2mn
Overall bit rate                         : 2 456 Kbps
Encoded date                             : UTC 2012-05-26 18:32:09
Writing application                      : mkvmerge v5.5.0 ('Healer') built on Apr  6 2012 21:43:24
Writing library                          : libebml v1.2.3 + libmatroska v1.3.0
Video
ID                                       : 1
Format                                   : AVC
Format/Info                              : Advanced Video Codec
Format profile                           : [email protected]
Format settings, CABAC                   : Yes
Format settings, ReFrames                : 5 frames
Codec ID                                 : V_MPEG4/ISO/AVC
Duration                                 : 2h 2mn
Bit rate                                 : 2 012 Kbps
Width                                    : 854 pixels
Height                                   : 480 pixels
Display aspect ratio                     : 16:9
Frame rate                               : 23.976 fps
Color space                              : YUV
Chroma subsampling                       : 4:2:0
Bit depth                                : 8 bits
Scan type                                : Progressive
Bits/(Pixel*Frame)                       : 0.205
Stream size                              : 1.67 GiB (80%)
Writing library                          : x264 core 120 r2164 da19765
Encoding settings                        : cabac=1 / ref=5 / deblock=1:-1:-1 / analyse=0x3:0x133 / me=umh / subme=9 / psy=1 / psy_rd=1.00:0.15 / mixed_ref=1 / me_range=16 / chroma_me=1 / trellis=2 / 8x8dct=1 / cqm=0 / deadzone=21,11 / fast_pskip=0 / chroma_qp_offset=-3 / threads=12 / sliced_threads=0 / nr=0 / decimate=1 / interlaced=0 / bluray_compat=0 / constrained_intra=0 / bframes=6 / b_pyramid=2 / b_adapt=2 / b_bias=0 / direct=3 / weightb=1 / open_gop=0 / weightp=2 / keyint=240 / keyint_min=23 / scenecut=40 / intra_refresh=0 / rc=2pass / mbtree=0 / bitrate=2012 / ratetol=1.0 / qcomp=0.60 / qpmin=0 / qpmax=69 / qpstep=4 / cplxblur=20.0 / qblur=0.5 / ip_ratio=1.40 / pb_ratio=1.30 / aq=1:1.00
Language                                 : English
Default                                  : Yes
Forced                                   : No
Audio
ID                                       : 2
Format                                   : AC-3
Format/Info                              : Audio Coding 3
Mode extension                           : CM (complete main)
Format settings, Endianness              : Big
Codec ID                                 : A_AC3
Duration                                 : 2h 2mn
Bit rate mode                            : Constant
Bit rate                                 : 448 Kbps
Channel(s)                               : 6 channels
Channel positions                        : Front: L C R, Side: L R, LFE
Sampling rate                            : 48.0 KHz
Bit depth                                : 16 bits
Compression mode                         : Lossy
Stream size                              : 391 MiB (18%)
Default                                  : Yes
Forced                                   : No
Menu
00:00:00.000                             : en:Soldier Of Love
00:07:55.475                             : en:Your Love Is King
00:12:53.606                             : en:Skin
00:16:52.011                             : en:Kiss Of Life
00:21:54.313                             : en:Love Is Found
00:27:14.633                             : en:In Another Time
00:31:42.901                             : en:00:31:42.901
00:34:51.089                             : en:Smooth Operator
00:39:20.858                             : en:Jezebel
00:46:19.777                             : en:Bring Me Home
00:50:30.027                             : en:Is It A Crime
00:58:45.522                             : en:Love Is Stronger Than Pride
01:03:23.800                             : en:All About Our Love
01:06:01.958                             : en:Paradise
01:09:58.027                             : en:Nothing Can Come Between Us
01:12:23.339                             : en:Morning Bird
01:17:00.616                             : en:King Of Sorrow
01:21:05.235                             : en:The Sweetest Taboo
01:26:12.709                             : en:The Moon And The Sky
01:30:48.443                             : en:Pearls
01:35:24.719                             : en:No Ordinary Love
01:41:14.068                             : en:By Your Side
01:51:39.192                             : en:Cherish the Day
01:58:54.127                             : en:Credits

Скриншоты

Создавать темы 26-Июн-2014 23:03

[Профиль]  [ЛС] 

Страх ®

Стаж: 4 года 2 месяца

Сообщений: 1131

Симпатии: 448

что это я в личерах) раздается).. ах да, паралельно не нароком торрент открыл с помощью avc player) не обращайте внимание)

Создавать темы 26-Июн-2014 23:25

[Профиль]  [ЛС] 

demon azazel

Стаж: 5 лет 2 месяца

Сообщений: 19

жду с нетерпением раздачи))) лайк автору)

Создавать темы 27-Июн-2014 00:23

[Профиль]  [ЛС] 

ibragimof

Стаж: 6 лет 8 месяцев

Сообщений: 253

Симпатии: 48

Страх, Большое спасибо!)

Создавать темы 27-Июн-2014 00:40

[Профиль]  [ЛС] 
Показать сообщения:    
Ответить на тему

Текущее время: 16-Дек 08:28

Часовой пояс: UTC + 5



Вы не можете начинать темы
Вы не можете отвечать на сообщения
Вы не можете редактировать свои сообщения
Вы не можете удалять свои сообщения
Вы не можете голосовать в опросах
Вы не можете прикреплять файлы к сообщениям
Вы не можете скачивать файлы