[Андрей Бернацкий]Практика верстки под мобильные устройства (Адаптивная верстка) [2013 г.]

Ответить на тему
 

Jack Smeet ®

Стаж: 4 года 5 месяцев

Сообщений: 67

Симпатии: 17

[Андрей Бернацкий]Практика верстки под мобильные устройства (Адаптивная верстка) Производитель: Webformyself
Год выпуска: 2013
Жанр: Верстка
Продолжительность: 10:51:10
Качество видео: PCRec
Видеокодек: AVC
Битрейт видео: ~409 kb/s, 15 FPS
Размер кадра: 1024х768
Аудиокодек: AAC
Битрейт аудио: 103 kb/s (CBR), 2 Ch, 44100 Hz

Mediainfo

Общее
Формат : MPEG-4
Профиль формата : Base Media / Version 2
Идентификатор кодека : mp42
Размер файла : 15,1 Мбайт
Продолжительность : 4 м. 5 с.
Общий поток : 515 Кбит/сек
Дата кодирования : UTC 2013-10-16 12:59:57
Дата пометки : UTC 2013-10-16 12:59:57
Видео
Идентификатор : 1
Формат : AVC
Формат/Информация : Advanced Video Codec
Профиль формата : [email protected]
Параметр CABAC формата : Да
Параметр ReFrames формата : 4 кадра
Идентификатор кодека : avc1
Идентификатор кодека/Информация : Advanced Video Coding
Продолжительность : 4 м. 5 с.
Продолжительность оригинала : 4 м. 5 с.
Вид битрейта : Переменный
Битрейт : 409 Кбит/сек
Ширина : 1024 пикселя
Высота : 768 пикселей
Соотношение сторон : 4:3
Режим частоты кадров : Постоянный
Частота кадров : 15,000 кадров/сек
Цветовое пространство : YUV
Субдискретизация насыщенности : 4:2:0
Битовая глубина : 8 бит
Тип развёртки : Прогрессивная
Бит/(Пиксели*Кадры) : 0.035
Размер потока : 12,0 Мбайт (80%)
Размер потока оригинала : 12,0 Мбайт (80%)
Язык : English
Дата кодирования : UTC 2013-10-16 12:59:57
Дата пометки : UTC 2013-10-16 12:59:57
mdhd_Duration : 245463
Основные цвета : BT.709
Характеристики трансфера : BT.709
Коэффициенты матрицы : BT.709
Аудио
Идентификатор : 2
Формат : AAC
Формат/Информация : Advanced Audio Codec
Профиль формата : LC
Идентификатор кодека : 40
Продолжительность : 4 м. 5 с.
Продолжительность оригинала : 4 м. 5 с.
Вид битрейта : Постоянный
Битрейт : 103 Кбит/сек
Каналы : 2 канала
Расположение каналов : Front: L R
Частота : 44,1 КГц
Метод сжатия : С потерями
Размер потока : 3,02 Мбайт (20%)
Размер потока оригинала : 3,02 Мбайт (20%)
Язык : English
Дата кодирования : UTC 2013-10-16 12:59:57
Дата пометки : UTC 2013-10-16 12:59:57
mdhd_Duration : 245468
Описание:
КАК создать сайт, который бы одинаково хорошо выглядел и
идеально функционировал на всех типах устройств? Решение есть!
Видеокурс, где есть всё, чтобы в полной мере овладеть необходимыми знаниями и навыками для создания универсальных адаптивных сайтов.
Это новое обучающее руководство от WebForMyself.com, разработанное Андреем Бернацким, поможет вам легко и в кратчайшие сроки постичь самую сложную в реализации верстку.

Чему научитесь

* Любые сайты (в т.ч. на движке WordPress) вы будете с легкостью делать адаптивными ко всем существующим устройствам.
* Будете профессионально делать верстку, которая адаптируется и хорошо смотрится не зависимо от разрешения устройства.
* Вы освоите работу с медиа-запросами, которая подробно будет рассмотрена на примере верстки макетов.
* Сможете виртуозно адаптировать изображения и галереи с сохранением отличного качества.
* Научитесь профессионально устанавливать собственное видео (или с YouTube, Vimeo и др.) без потери элементов управления.
* Освоите работу с 3-мя, 4-мя колонками контента, а также с 2-мя колонками, включающими в себя подколонки.
* Вы будете качественно работать с изображениями и видео-контентом в адаптивной верстке.
* Узнаете, как должны уменьшаться и располагаться блоки при просмотре верстки на различных устройствах: от широких — к узким.
* Вы научитесь правильно работать с широкими фоновыми изображениями в шапке сайта для мобильных устройств.
* Также научитесь делать меню и многоуровневые меню, адаптированные под сенсорные экраны.
* Вы будете правильно использовать инструменты тестирования адаптивной верстки.
Узнаете, как адаптировать верстку под альбомную и портретную ориентацию мобильных устройств.
Вы освоите все инструменты и сервисы для более быстрой и удобной верстки.
И еще многое-многое другое…

Скриншоты

Создавать темы 27-Июн-2014 00:59

[Профиль]  [ЛС] 

doshlid

Стаж: 5 лет 7 месяцев

Сообщений: 23

Симпатии: 1

Кто нить смотрел, как курс? Качественная верстка или нет?

Создавать темы 27-Июн-2014 09:48

[Профиль]  [ЛС] 

Jack Smeet ®

Стаж: 4 года 5 месяцев

Сообщений: 67

Симпатии: 17

doshlid В принципе если хочешь научиться качественно верстать, читай книги. А этот курс всего лишь практика, смотришь как он делает и практикуешь. В любом курсе можно подчеркнуть что-то новое )

Создавать темы 27-Июн-2014 11:21

[Профиль]  [ЛС] 

AntiGov

Стаж: 5 лет 1 месяц

Сообщений: 315

Симпатии: 48

Jack Smeet, полностью согласен! а еще есть какие-нибудь видеокурсы от данного автора?

Создавать темы 27-Июн-2014 18:04

[Профиль]  [ЛС] 

Jack Smeet ®

Стаж: 4 года 5 месяцев

Сообщений: 67

Симпатии: 17

AntiGov, Помоему где-то у меня был видеокурс Практика резиновой верстки от Webformyself.

Создавать темы 28-Июн-2014 01:24

[Профиль]  [ЛС] 
Показать сообщения:    
Ответить на тему

Текущее время: 18-Авг 08:14

Часовой пояс: UTC + 5



Вы не можете начинать темы
Вы не можете отвечать на сообщения
Вы не можете редактировать свои сообщения
Вы не можете удалять свои сообщения
Вы не можете голосовать в опросах
Вы не можете прикреплять файлы к сообщениям
Вы не можете скачивать файлы