Побудь в моей шкуре (Под кожей) / Under the Skin (Джонатан Глейзер / Jonathan Glazer) [2013, Великобритания, США, Швейцария, Фантастика, триллер, драма, WEB-DLRip (AVC)] АП + Original Eng + Sub rus

Ответить на тему
 

yusuf.0088 ®

Стаж: 4 года 2 месяца

Сообщений: 116

Симпатии: 69

Побудь в моей шкуре (Под кожей) / Under the Skin
-- Год выпуска: 2013
Страна: Великобритания, США, Швейцария,
Жанр: Фантастика, триллер, драма
Продолжительность: 01:48:14--Перевод: Профессиональный Авторский [Матвеев]
Оригинальная аудиодорожка: английская
Cубтитры: Русские--Режиссер: Джонатан Глейзер / Jonathan Glazer--В ролях: Скарлетт Йоханссон, Джереми МакУильямс, Линси Тейлор Маккэй, Даги МакКоннелл, Кевин МакАлинден, Д. Мид, Эндрю Горман, Джо Шула, Криштоф Гадек, Рой Армстронг--Описание:
Действие развивается в Шотландии, где каждый день по трассе Эдинбург-Глазго ездит задрипанная машина с роскошным водителем. За рулем пышногрудая брюнетка с огромными зелеными глазами. Она подбирает автостопщиков, в основном здоровых и мощных мужчин, и парализует их. Девица на поверку оказывается представительницей иной цивилизации, чьи сородичи развели бурную деятельность в Шотландии--IMDb 7.4
Кинопоиск 6.86
--Качество: WEB-DLRip (AVC)
Релиз: ExKinoRay
Контейнер: MKV
Аудио кодек: AC3--Видео MPEG-4 AVC / [email protected] / 1024x550 / 23,976 fps / 1529 kbps
Аудио 1: Русский / AC3 6ch / 48 KHz / 448 kbps |АП|
Аудио 2: Английский / AC3 6ch / 48 KHz / 384 kbps |Original|

MediaInfo

Формат : Matroska
Версия формата : Version 2
Размер файла : 1,78 Гбайт
Продолжительность : 1 ч. 48 м.
Общий поток : 2358 Кбит/сек
Название фильма : Under the Skin 2013 from ExKinoRay
Дата кодирования : UTC 2014-06-26 15:10:26
Программа кодирования : mkvmerge v4.9.1 ('Ich will') built on Jul 11 2011 23:53:15
Библиотека кодирования : libebml v1.2.1 + libmatroska v1.1.1
Attachment : Yes / Yes / Yes / Yes
Видео
Идентификатор : 1
Формат : AVC
Формат/Информация : Advanced Video Codec
Профиль формата : [email protected]
Параметр CABAC формата : Да
Параметр ReFrames формата : 9 кадров
Идентификатор кодека : V_MPEG4/ISO/AVC
Продолжительность : 1 ч. 48 м.
Битрейт : 1529 Кбит/сек
Ширина : 1024 пикселя
Высота : 550 пикселей
Соотношение сторон : 1,85:1
Режим частоты кадров : Постоянный
Частота кадров : 23,976 кадра/сек
Цветовое пространство : YUV
Субдискретизация насыщенности : 4:2:0
Битовая глубина : 8 бит
Тип развёртки : Прогрессивная
Бит/(Пиксели*Кадры) : 0.113
Размер потока : 1,12 Гбайт (63%)
Заголовок : Enigma-Vladislav71
Библиотека кодирования : x264 core 116 r2044 392e762
Настройки программы : cabac=1 / ref=9 / deblock=1:-2:-2 / analyse=0x3:0x113 / me=umh / subme=10 / psy=1 / psy_rd=1.00:0.20 / mixed_ref=1 / me_range=32 / chroma_me=1 / trellis=2 / 8x8dct=1 / cqm=0 / deadzone=21,11 / fast_pskip=0 / chroma_qp_offset=-3 / threads=12 / sliced_threads=0 / nr=0 / decimate=0 / interlaced=0 / bluray_compat=0 / constrained_intra=0 / bframes=9 / b_pyramid=2 / b_adapt=2 / b_bias=0 / direct=3 / weightb=1 / open_gop=0 / weightp=2 / keyint=240 / keyint_min=23 / scenecut=40 / intra_refresh=0 / rc=2pass / mbtree=0 / bitrate=1529 / ratetol=1.0 / qcomp=0.60 / qpmin=0 / qpmax=69 / qpstep=4 / cplxblur=20.0 / qblur=0.5 / ip_ratio=1.40 / pb_ratio=1.30 / aq=1:1.00
Default : Да
Forced : Нет
Аудио #1
Идентификатор : 2
Формат : AC-3
Формат/Информация : Audio Coding 3
Расширение режима : CM (complete main)
Параметр Endianness формата : Big
Идентификатор кодека : A_AC3
Продолжительность : 1 ч. 48 м.
Вид битрейта : Постоянный
Битрейт : 448 Кбит/сек
Каналы : 6 каналов
Расположение каналов : Front: L C R, Side: L R, LFE
Частота : 48,0 КГц
Битовая глубина : 16 бит
Метод сжатия : С потерями
Размер потока : 347 Мбайт (19%)
Заголовок : Doctor Joker
Язык : Russian
Default : Да
Forced : Нет
Аудио #2
Идентификатор : 3
Формат : AC-3
Формат/Информация : Audio Coding 3
Расширение режима : CM (complete main)
Параметр Endianness формата : Big
Идентификатор кодека : A_AC3
Продолжительность : 1 ч. 48 м.
Вид битрейта : Постоянный
Битрейт : 384 Кбит/сек
Каналы : 6 каналов
Расположение каналов : Front: L C R, Side: L R, LFE
Частота : 48,0 КГц
Битовая глубина : 16 бит
Метод сжатия : С потерями
Размер потока : 297 Мбайт (16%)
Язык : English
Default : Нет
Forced : Нет
Текст
Идентификатор : 4
Формат : UTF-8
Идентификатор кодека : S_TEXT/UTF8
Идентификатор кодека/Информация : UTF-8 Plain Text
Язык : Russian
Default : Нет
Forced : Нет
Меню
00:00:00.000 : en:1
00:06:48.000 : en:2
00:11:24.000 : en:3
00:22:45.000 : en:4
00:31:13.000 : en:5
00:38:38.000 : en:6
00:44:48.000 : en:7
00:49:47.000 : en:8
00:57:26.000 : en:9
01:04:18.000 : en:10
01:12:23.000 : en:11
01:18:56.000 : en:12
01:26:44.000 : en:13
01:30:01.000 : en:14
01:33:15.000 : en:15
01:40:41.000 : en:16

Скриншоты

Создавать темы 27-Июн-2014 13:21

[Профиль]  [ЛС] 

diyor-101

Стаж: 5 лет 11 месяцев

Сообщений: 112

Симпатии: 14

перевода нет как так

Создавать темы 03-Сен-2014 13:32

[Профиль]  [ЛС] 

Behzodjon

Стаж: 5 лет 9 месяцев

Сообщений: 43

Симпатии: 8

Ужас, а не фильм. Полный бред. Навивает депрессию. Не советую качать.

Создавать темы 10-Янв-2015 18:56

[Профиль]  [ЛС] 
Показать сообщения:    
Ответить на тему

Текущее время: 17-Дек 11:05

Часовой пояс: UTC + 5



Вы не можете начинать темы
Вы не можете отвечать на сообщения
Вы не можете редактировать свои сообщения
Вы не можете удалять свои сообщения
Вы не можете голосовать в опросах
Вы не можете прикреплять файлы к сообщениям
Вы не можете скачивать файлы