Игры в темноте (Илона Жунда, Мила Фахурдинова, Евгений Белов) [2014, Россия, ужасы, Триллер, драма WEB-DLRip] Original Rus [iTunes]

Ответить на тему
 

yusuf.0088 ®

Стаж: 3 года 11 месяцев

Сообщений: 116

Симпатии: 69

Игры в темноте
-- Страна: Россия
Жанр: Триллер, драма
Год выпуска: 2014
Продолжительность: 01:56:52--Озвучивание: Оригинал [iTunes]
Cубтитры: нет--Режиссер: Илона Жунда, Мила Фахурдинова, Евгений Белов--В ролях: Елена Антипова, Сергей Вершинин, Андрей Оганян, Евгений Сенченко, Анна Зарянкина, Мария Позднякова, Светлана Сандракова, Валерий Новиков, Юлия Железняк, Евгений Галенко--Описание:
11 безнадежно больных людей заперты на чердаке для смертельной игры. Но среди них есть тот, кто собрал их здесь и он - здоров. Если больные найдут здорового, то смогут продлить себе жизнь. Если нет - умрут.-- --Качество: WEB-DLRip
Контейнер: avi
Видео: XviD / 720x400 / 24.00 fps / 1441 kbps
Аудио: Русский / AC3 2ch / 48 KHz / 224 kbps |Original|

MediaInfo

Формат : Matroska
Формат : AVI
Формат/Информация : Audio Video Interleave
Размер файла : 1,37 Гбайт
Продолжительность : 1 ч. 56 м.
Общий поток : 1675 Кбит/сек
Программа кодирования : VirtualDubMod 1.5.10.2 (build 2540/release)
Библиотека кодирования : VirtualDubMod build 2540/release
Видео
Идентификатор : 0
Формат : MPEG-4 Visual
Профиль формата : Advanced [email protected]
Параметр BVOP формата : 2
Параметр QPel формата : Нет
Параметр GMC формата : Без точки перехода
Параметр матрицы формата : Default (MPEG)
Идентификатор кодека : XVID
Идентификатор кодека/Подсказка : XviD
Продолжительность : 1 ч. 56 м.
Битрейт : 1441 Кбит/сек
Ширина : 720 пикселей
Высота : 400 пикселей
Соотношение сторон : 16:9
Частота кадров : 24,000 кадра/сек
Цветовое пространство : YUV
Субдискретизация насыщенности : 4:2:0
Битовая глубина : 8 бит
Тип развёртки : Прогрессивная
Метод сжатия : С потерями
Бит/(Пиксели*Кадры) : 0.209
Размер потока : 1,18 Гбайт (86%)
Библиотека кодирования : XviD 1.2.1 (UTC 2008-12-04)
Аудио
Идентификатор : 1
Формат : AC-3
Формат/Информация : Audio Coding 3
Расширение режима : CM (complete main)
Параметр Endianness формата : Big
Идентификатор кодека : 2000
Продолжительность : 1 ч. 56 м.
Вид битрейта : Постоянный
Битрейт : 224 Кбит/сек
Каналы : 2 канала
Расположение каналов : Front: L R
Частота : 48,0 КГц
Битовая глубина : 16 бит
Метод сжатия : С потерями
Размер потока : 187 Мбайт (13%)
Выравнивание : Разделение по промежуткам
Продолжительность промежутка : 42 мс. (1,00 видеокадр)
Время предзагрузки промежутка : 500 мс.

Скриншоты

Создавать темы 27-Июн-2014 13:23

[Профиль]  [ЛС] 

serj777

Стаж: 4 года 2 месяца

Сообщений: 59

Симпатии: 3

По описанию, и по рейтингу! фильм явно не интересный! кто смотрел? кто что скажет?

Создавать темы 01-Июл-2014 18:20

[Профиль]  [ЛС] 

mukimov

Стаж: 5 лет

Сообщений: 15

Симпатии: 1

@serj777 А ты посмотри и расскажи :)

Создавать темы 08-Июл-2014 21:05

[Профиль]  [ЛС] 

EXPY

Стаж: 5 лет 2 месяца

Сообщений: 34

Интересный - мне лично понравился - это первый фильм в жанре буриме.

Создавать темы 08-Июл-2014 21:42

[Профиль]  [ЛС] 

iskanderr

Стаж: 4 года 6 месяцев

Сообщений: 10

Фильм почти неплох......немного натянуто, но для российского кинематографа это прорыв конечно....

Создавать темы 09-Июл-2014 13:02

[Профиль]  [ЛС] 

serj777

Стаж: 4 года 2 месяца

Сообщений: 59

Симпатии: 3

И все же я был прав!

Создавать темы 01-Окт-2014 14:34

[Профиль]  [ЛС] 

eks

Стаж: 5 лет 5 месяцев

Сообщений: 28

Симпатии: 2

Фильм классный создан при с помощью буриме жаль что вы даже не знаете что такое Буриме..

Создавать темы 01-Окт-2014 16:43

[Профиль]  [ЛС] 

eks

Стаж: 5 лет 5 месяцев

Сообщений: 28

Симпатии: 2

880569И все же я был прав!
Фильм снимался 1 год и с помощью 12 режиссеров которые присылали свои сценарии для фильма, а главные режиссеры связали эти истории в едино.

Создавать темы 01-Окт-2014 16:44

[Профиль]  [ЛС] 

nravich

Стаж: 3 года 9 месяцев

Сообщений: 38

Симпатии: 16

От Фильма ожидал большего

Создавать темы 02-Окт-2014 22:52

[Профиль]  [ЛС] 

k-2

Стаж: 3 года 10 месяцев

Сообщений: 3

фильм отстой полный

Создавать темы 03-Окт-2014 13:46

[Профиль]  [ЛС] 

фазилов

Стаж: 3 года 7 месяцев

Сообщений: 310

Симпатии: 344

даже полчаса не смог смотреть и удалил. Лажа полная. Больше года снимать в одной комнате-копеечный фильм.

Создавать темы 14-Фев-2015 13:47

[Профиль]  [ЛС] 
Показать сообщения:    
Ответить на тему

Текущее время: 21-Сен 06:40

Часовой пояс: UTC + 5



Вы не можете начинать темы
Вы не можете отвечать на сообщения
Вы не можете редактировать свои сообщения
Вы не можете удалять свои сообщения
Вы не можете голосовать в опросах
Вы не можете прикреплять файлы к сообщениям
Вы не можете скачивать файлы