(Hip-Hop) The Game - Official Discography - 2004-2008, FLAC (tracks), lossless

Ответить на тему
 

llewellys ®

Стаж: 4 года 10 месяцев

Сообщений: 41

Симпатии: 4

The Game - Official Discography
Страна: США
Жанр: Hip-Hop
Год выпуска: 2004-2008
Формат: FLAC (tracks)
Битрейт аудио: lossless
Продолжительность: 13.19.23 (7 Альбомов )

Доп. информация:

The Game (настоящее имя Джейсон Террелл Тэйлор) (родился 29 ноября 1979 в Лос-Анджелесе, США) — рэпер с Западного побережья. С 2014 года имеет контракт со звукозаписывающей студией eOne Music.
Получил популярность в 2005 году после успешного дебюта своего первого альбома «The Documentary» и двух номинаций на премию «Грэмми». C тех пор Game считается главной движущей силой в возвращении West Coast хип-хопа в мейнстрим и конкуренции с East Coast. Также Game является единственным исполнителем с Западного побережья, выпустившим мульти-платиновый альбом («The Documentary»), со времён альбома Dr. Dre «2001», который вышел в конце 1999.
The Game имеет много татуировок на своем теле, на правом предплечье вытатуировано "Eazy-E". Под ней кладбище с надгробиями, надписи на надгробьях гласят: 2Pac, Jam Master Jay & Eazy-E. Под левым глазом у него слеза, за левым ухом татуировка с надписью "HCT 6 30 03", которая является отсылкой на имя и дату рождения его старшего сына. На левой стороне шеи у него логотип "The Game" и под ним чёрный логотип Wallstreet. Под правым глазом была татуировка в виде бабочки (символ возрождения), но её перекрыли логотипом L.A. Доджерс, с красными звездами вокруг него. Под его правым ухом лого "Converse All-Star" и под ним CBP которая символизирует Cedar Block Piru. На верхней части груди надпись "Hate It Or Love It". На правой стороне груди аббревиатура культовой группы NWA. На левой стороне груди - бандана. На животе надпись "Stretch" - прозвище Гейма, данное ему из-за его высокого роста. На правом плече у него KJ, кроме того - Тупак Шакур в роли ангела. На нижней части правого предплечья - надпись "Wallstreet". На правой руке у него дань покойному другу "Billboard". На правой руке у него Чак, в то время как на левой руке - Тейлор, является отсылкой на Chuck Taylor. На нижней части левого предплечья у него голубь и выше - клоун. На левом локте логотип его обувной линии The Hurricanes и под ним "G-UNOT" - ссылка на его вражду с 50 Cent и G-Unit. «Когда был в восьмом классе сделал тату в первый раз — говорит музыкант. — Но не все мои первые тату можно сейчас увидеть. Когда становишься старше, понимаешь, что эти тату плохие, начинаешь делать реальные работы с реальными мастерами и покрываешь старье. Моя первая татуировка была на правой руке – мужчина с земным шаром в руках. Моя правая рука – рука для трибьютов. Там несколько рэпперов, покинувших нас: Eazy-E, Big Pun, Biggie, Jam Master Jay. Бабушка говорила мне, что тату – это не так уж и плохо, потому что кожа всего лишь костюм, который Господь дал тебе поносить, пока ты на земле. А когда умрешь, сдашь его обратно, так что можешь писать на себе что угодно. Это, конечно, ненормальная метафора, но если кто-то назовет мою бабулю ненормальной, у него будут проблемы».
В 2005 году снялся в клипе на песню «Road to Zion» в исполнении Damian Marley feat. Nas. При участии 310 Motoring имеет собственную марку обуви The Hurricanes. Владеет большим пакетом акций баскетбольной команды Inglewood Cobras, входящей в состав АБА.
Первый сын родился 30 июня 2003 года, был назван Harlem Caron Taylor (крестный отец Harlem - Джоэл Мэдден), 25 апреля 2007 г. родился второй сын King Justice Taylor, ещё позже 21 августа 2010 г. дочь Cali Dream Taylor. «Чтобы быть хорошим отцом, нужно уделять этому много внимания — говорит музыкант. — Которое отнимает время в том числе и от музыки. Я провожу с ними много времени и я прежде всего отец, это никакому хип-хопу не перевесить. Следующий альбом может быть и через год, и через два, и через шесть месяцев, но детям я нужен всегда и я всегда буду с ними». The Game был настроен на брак с актрисой и моделью Valeisha Butterfield, дочерью конгрессмена G.K.Butterfield, но брак не состоялся. Помолвлен с Тиффани Кэмбридж (учительница начальных классов).
Studio Albums

2005 - The Documentary

01. - The Game / Intro
02. - Westside Story (feat. 50 Cent)
03. - Dreams
04. - Hate It Or Love It (feat. 50 Cent)
05. - Higher
06. - How We Do (feat. 50 Cent)
07. - Don't Need Your Love (feat. Faith Evans)
08. - Church For Thugs
09. - Put You On The Game
10. - Start From Scratch (feat. Marsha Of Floetry)
11. - The Documentary
12. - Runnin' (feat. Tony Yayo)
13. - No More Fun And Games
14. - We Ain't (feat. Eminem)
15. - Where I'm From (feat. Nate Dogg)
16. - Special (feat. Nate Dogg)
17. - Don't Worry (feat. Mary J. Blige)
18. - Like Father, Like Son (feat. Busta Rhymes)

EAC

Exact Audio Copy V0.99 prebeta 5 from 4. May 2009
EAC extraction logfile from 30. November 2009, 17:15
The Game / The Documentary
Used drive : Optiarc DVD RW AD-7173A Adapter: 1 ID: 0
Read mode : Secure
Utilize accurate stream : Yes
Defeat audio cache : Yes
Make use of C2 pointers : No
Read offset correction : 48
Overread into Lead-In and Lead-Out : No
Fill up missing offset samples with silence : Yes
Delete leading and trailing silent blocks : No
Null samples used in CRC calculations : Yes
Used interface : Native Win32 interface for Win NT & 2000
Gap handling : Appended to previous track
Used output format : User Defined Encoder
Selected bitrate : 1024 kBit/s
Quality : High
Add ID3 tag : No
Command line compressor : d:\Program Files\Exact Audio Copy\FLAC\FLAC.EXE
Additional command line options : -6 -V -T "ARTIST=%a" -T "TITLE=%t" -T "ALBUM=%g" -T "DATE=%y" -T "TRACKNUMBER=%n" -T "GENRE=%m" -T "COMMENT=%e" %s -o %d
TOC of the extracted CD
Track | Start | Length | Start sector | End sector
---------------------------------------------------------
1 | 0:00.00 | 0:32.63 | 0 | 2462
2 | 0:32.63 | 3:43.05 | 2463 | 19192
3 | 4:15.68 | 4:46.34 | 19193 | 40676
4 | 9:02.27 | 3:26.30 | 40677 | 56156
5 | 12:28.57 | 4:05.01 | 56157 | 74532
6 | 16:33.58 | 3:55.40 | 74533 | 92197
7 | 20:29.23 | 4:26.15 | 92198 | 112162
8 | 24:55.38 | 4:00.67 | 112163 | 130229
9 | 28:56.30 | 4:14.10 | 130230 | 149289
10 | 33:10.40 | 4:07.25 | 149290 | 167839
11 | 37:17.65 | 4:11.26 | 167840 | 186690
12 | 41:29.16 | 4:26.50 | 186691 | 206690
13 | 45:55.66 | 2:37.68 | 206691 | 218533
14 | 48:33.59 | 4:46.59 | 218534 | 240042
15 | 53:20.43 | 3:08.36 | 240043 | 254178
16 | 56:29.04 | 3:57.34 | 254179 | 271987
17 | 60:26.38 | 4:11.33 | 271988 | 290845
18 | 64:37.71 | 5:27.36 | 290846 | 315406
Track 1
Filename C:\Documents and Settings\SANYOK\Мои документы\Моя музыка\01 The Game - Intro.wav
Peak level 88.9 %
Track quality 100.0 %
Test CRC 7DD0AF89
Copy CRC 7DD0AF89
Cannot be verified as accurate (confidence 38) [1E594E87], AccurateRip returned [ACA41E00]
Copy OK
Track 2
Filename C:\Documents and Settings\SANYOK\Мои документы\Моя музыка\02 The Game - Westside Story (feat. 50 Cent).wav
Peak level 98.8 %
Track quality 100.0 %
Test CRC 07E45340
Copy CRC 07E45340
Cannot be verified as accurate (confidence 40) [06DCF113], AccurateRip returned [849DBDBD]
Copy OK
Track 3
Filename C:\Documents and Settings\SANYOK\Мои документы\Моя музыка\03 The Game - Dreams.wav
Peak level 87.4 %
Track quality 100.0 %
Test CRC C8D33649
Copy CRC C8D33649
Cannot be verified as accurate (confidence 38) [D4575950], AccurateRip returned [B9253B6E]
Copy OK
Track 4
Filename C:\Documents and Settings\SANYOK\Мои документы\Моя музыка\04 The Game - Hate It Or Love It (feat. 50 Cent).wav
Peak level 90.8 %
Track quality 100.0 %
Test CRC 421683FA
Copy CRC 421683FA
Cannot be verified as accurate (confidence 39) [9F495388], AccurateRip returned [E3D8DC58]
Copy OK
Track 5
Filename C:\Documents and Settings\SANYOK\Мои документы\Моя музыка\05 The Game - Higher.wav
Peak level 94.7 %
Track quality 100.0 %
Test CRC ACB11234
Copy CRC ACB11234
Cannot be verified as accurate (confidence 40) [962EDA4E], AccurateRip returned [E93C14D6]
Copy OK
Track 6
Filename C:\Documents and Settings\SANYOK\Мои документы\Моя музыка\06 The Game - How We Do (feat. 50 Cent).wav
Peak level 98.8 %
Track quality 100.0 %
Test CRC C33F9CA8
Copy CRC C33F9CA8
Cannot be verified as accurate (confidence 40) [400CBCF3], AccurateRip returned [AEC5A023]
Copy OK
Track 7
Filename C:\Documents and Settings\SANYOK\Мои документы\Моя музыка\07 The Game - Don't Need Your Love (feat. Faith Evans).wav
Peak level 98.8 %
Track quality 100.0 %
Test CRC F5E59A16
Copy CRC F5E59A16
Cannot be verified as accurate (confidence 39) [F951546D], AccurateRip returned [47BA2837]
Copy OK
Track 8
Filename C:\Documents and Settings\SANYOK\Мои документы\Моя музыка\08 The Game - Church For Thugs.wav
Peak level 80.1 %
Track quality 100.0 %
Test CRC C685BF1D
Copy CRC C685BF1D
Cannot be verified as accurate (confidence 39) [0FC156AD], AccurateRip returned [C881F207]
Copy OK
Track 9
Filename C:\Documents and Settings\SANYOK\Мои документы\Моя музыка\09 The Game - Put You On The Game.wav
Peak level 99.9 %
Track quality 100.0 %
Test CRC 559181C1
Copy CRC 559181C1
Cannot be verified as accurate (confidence 37) [29502418], AccurateRip returned [6C258BE0]
Copy OK
Track 10
Filename C:\Documents and Settings\SANYOK\Мои документы\Моя музыка\10 The Game - Start From Scratch (feat. Marsha of Floetry).wav
Peak level 98.3 %
Track quality 99.9 %
Test CRC AABE4A39
Copy CRC AABE4A39
Cannot be verified as accurate (confidence 37) [CE5E9E9E], AccurateRip returned [F17FB69E]
Copy OK
Track 11
Filename C:\Documents and Settings\SANYOK\Мои документы\Моя музыка\11 The Game - The Documentary.wav
Peak level 99.9 %
Track quality 100.0 %
Test CRC 36F164A7
Copy CRC 36F164A7
Cannot be verified as accurate (confidence 37) [E7BFA1A2], AccurateRip returned [6153D064]
Copy OK
Track 12
Filename C:\Documents and Settings\SANYOK\Мои документы\Моя музыка\12 The Game - Runnin' (feat. Tony Yayo).wav
Peak level 99.9 %
Track quality 100.0 %
Test CRC E466EAF2
Copy CRC E466EAF2
Cannot be verified as accurate (confidence 37) [D28E6831], AccurateRip returned [B8733A10]
Copy OK
Track 13
Filename C:\Documents and Settings\SANYOK\Мои документы\Моя музыка\13 The Game - No More Fun And Games.wav
Peak level 92.4 %
Track quality 100.0 %
Test CRC 1E4684ED
Copy CRC 1E4684ED
Cannot be verified as accurate (confidence 37) [76968E72], AccurateRip returned [1057D03E]
Copy OK
Track 14
Filename C:\Documents and Settings\SANYOK\Мои документы\Моя музыка\14 The Game - We Ain't (feat. Eminem).wav
Peak level 98.4 %
Track quality 100.0 %
Test CRC 98EF29F9
Copy CRC 98EF29F9
Cannot be verified as accurate (confidence 38) [B3A5C5B1], AccurateRip returned [C200D840]
Copy OK
Track 15
Filename C:\Documents and Settings\SANYOK\Мои документы\Моя музыка\15 The Game - Where I'm From (feat. Nate Dogg).wav
Peak level 97.2 %
Track quality 100.0 %
Test CRC 66649E3F
Copy CRC 66649E3F
Cannot be verified as accurate (confidence 38) [628329A2], AccurateRip returned [0C23D9BB]
Copy OK
Track 16
Filename C:\Documents and Settings\SANYOK\Мои документы\Моя музыка\16 The Game - Special (feat. Nate Dogg).wav
Peak level 98.8 %
Track quality 99.9 %
Test CRC 8C33A3E3
Copy CRC 8C33A3E3
Cannot be verified as accurate (confidence 36) [E3BB697D], AccurateRip returned [2DA534BC]
Copy OK
Track 17
Filename C:\Documents and Settings\SANYOK\Мои документы\Моя музыка\17 The Game - Don't Worry (feat. Mary J. Blige).wav
Peak level 94.8 %
Track quality 100.0 %
Test CRC C4AD2944
Copy CRC C4AD2944
Cannot be verified as accurate (confidence 35) [8A7FF4BA], AccurateRip returned [1C76C60E]
Copy OK
Track 18
Filename C:\Documents and Settings\SANYOK\Мои документы\Моя музыка\18 The Game - Like Father, Like Son (feat. Busta Rhymes).wav
Peak level 99.9 %
Track quality 100.0 %
Test CRC DA127188
Copy CRC DA127188
Cannot be verified as accurate (confidence 35) [DECD174C], AccurateRip returned [257E5300]
Copy OK
No tracks could be verified as accurate
You may have a different pressing from the one(s) in the database
No errors occurred
End of status report

2006 - Doctor's Advocate

01. - Lookin' At You (feat. Mac Minister & Tracey Nelson)
02. - Da Shit (feat. Tracey Nelson, & Janeen Jasmine)
03. - It's Okay (One Blood) (feat. Junior Reid)
04. - Compton (feat. Will.I.Am)
05. - Remedy (feat. Isaac Hayes)
06. - Let's Ride
07. - Too Much (feat. Nate Dogg)
08. - Wouldn't Get Far (feat. Kanye West)
09. - Scream On Em (feat. Swizz Beatz)
10. - One Night (feat. Andrea Martin)
11. - Doctor's Advocate (feat. Busta Rhymes)
12. - Ol' English (feat. Dion)
13. - California Vacation (feat. Snoop Dogg, Xzibit & Tracey Nelson)
14. - Bang (feat. The Dogg Pound & Daz)
15. - Around The World (feat. Jamie Foxx)
16. - Why You Hate The Game (feat. Nas & Marsha Ambrosius Of Floetry, Andrea Martin & The 1500 Choir)

EAC

Exact Audio Copy V0.99 prebeta 5 from 4. May 2009
EAC extraction logfile from 30. November 2009, 19:37
The Game / Doctor's Advocate
Used drive : Optiarc DVD RW AD-7173A Adapter: 1 ID: 0
Read mode : Secure
Utilize accurate stream : Yes
Defeat audio cache : Yes
Make use of C2 pointers : No
Read offset correction : 48
Overread into Lead-In and Lead-Out : No
Fill up missing offset samples with silence : Yes
Delete leading and trailing silent blocks : No
Null samples used in CRC calculations : Yes
Used interface : Native Win32 interface for Win NT & 2000
Gap handling : Appended to previous track
Used output format : User Defined Encoder
Selected bitrate : 1024 kBit/s
Quality : High
Add ID3 tag : No
Command line compressor : d:\Program Files\Exact Audio Copy\FLAC\FLAC.EXE
Additional command line options : -6 -V -T "ARTIST=%a" -T "TITLE=%t" -T "ALBUM=%g" -T "DATE=%y" -T "TRACKNUMBER=%n" -T "GENRE=%m" -T "COMMENT=%e" %s -o %d
TOC of the extracted CD
Track | Start | Length | Start sector | End sector
---------------------------------------------------------
1 | 0:00.00 | 3:37.63 | 0 | 16337
2 | 3:37.63 | 5:23.08 | 16338 | 40570
3 | 9:00.71 | 4:17.45 | 40571 | 59890
4 | 13:18.41 | 4:41.15 | 59891 | 80980
5 | 17:59.56 | 2:57.13 | 80981 | 94268
6 | 20:56.69 | 3:57.51 | 94269 | 112094
7 | 24:54.45 | 4:11.12 | 112095 | 130931
8 | 29:05.57 | 4:11.03 | 130932 | 149759
9 | 33:16.60 | 4:20.09 | 149760 | 169268
10 | 37:36.69 | 4:27.28 | 169269 | 189321
11 | 42:04.22 | 5:03.56 | 189322 | 212102
12 | 47:08.03 | 4:44.17 | 212103 | 233419
13 | 51:52.20 | 4:29.46 | 233420 | 253640
14 | 56:21.66 | 3:37.42 | 253641 | 269957
15 | 59:59.33 | 4:02.03 | 269958 | 288110
16 | 64:01.36 | 9:22.07 | 288111 | 330267
Track 1
Filename C:\Documents and Settings\SANYOK\Мои документы\Моя музыка\01 The Game - Looking At You (feat. Mac Minister & Tracey Nelson).wav
Peak level 98.8 %
Track quality 99.9 %
Test CRC CADA4E1C
Copy CRC CADA4E1C
Accurately ripped (confidence 42) [0FA49051]
Copy OK
Track 2
Filename C:\Documents and Settings\SANYOK\Мои документы\Моя музыка\02 The Game - Da Shit (feat. Tracey Nelson, & Janeen Jasmine).wav
Peak level 99.9 %
Track quality 99.9 %
Test CRC A6C620EC
Copy CRC A6C620EC
Accurately ripped (confidence 42) [C164BCE4]
Copy OK
Track 3
Filename C:\Documents and Settings\SANYOK\Мои документы\Моя музыка\03 The Game - It's Okay (One Blood) [feat. Junior Reid].wav
Peak level 98.8 %
Track quality 100.0 %
Test CRC 29E4AAFF
Copy CRC 29E4AAFF
Accurately ripped (confidence 42) [A611D302]
Copy OK
Track 4
Filename C:\Documents and Settings\SANYOK\Мои документы\Моя музыка\04 The Game - Compton( feat. Will.I.Am).wav
Peak level 100.0 %
Track quality 100.0 %
Test CRC 9E8E5E6D
Copy CRC 9E8E5E6D
Accurately ripped (confidence 42) [BC9CAA4D]
Copy OK
Track 5
Filename C:\Documents and Settings\SANYOK\Мои документы\Моя музыка\05 The Game - Remedy.wav
Peak level 100.0 %
Track quality 100.0 %
Test CRC 4E37A272
Copy CRC 4E37A272
Accurately ripped (confidence 41) [E527B076]
Copy OK
Track 6
Filename C:\Documents and Settings\SANYOK\Мои документы\Моя музыка\06 The Game - Let's Ride.wav
Peak level 100.0 %
Track quality 100.0 %
Test CRC 17325CA7
Copy CRC 17325CA7
Accurately ripped (confidence 42) [2F1B3D4C]
Copy OK
Track 7
Filename C:\Documents and Settings\SANYOK\Мои документы\Моя музыка\07 The Game - Too Much (feat. Nate Dogg).wav
Peak level 98.8 %
Track quality 100.0 %
Test CRC FD816947
Copy CRC FD816947
Accurately ripped (confidence 42) [C5F981F5]
Copy OK
Track 8
Filename C:\Documents and Settings\SANYOK\Мои документы\Моя музыка\08 The Game - Wouldn't Get Far (feat. Kanye West).wav
Peak level 99.9 %
Track quality 99.9 %
Test CRC CEBF6535
Copy CRC CEBF6535
Accurately ripped (confidence 43) [8C798D0B]
Copy OK
Track 9
Filename C:\Documents and Settings\SANYOK\Мои документы\Моя музыка\09 The Game - Scream On Em (feat. Swizz Beatz).wav
Peak level 98.8 %
Track quality 100.0 %
Test CRC 3D0FF636
Copy CRC 3D0FF636
Accurately ripped (confidence 42) [2803B811]
Copy OK
Track 10
Filename C:\Documents and Settings\SANYOK\Мои документы\Моя музыка\10 The Game - One Night (feat. Andrea Martin).wav
Peak level 100.0 %
Track quality 100.0 %
Test CRC C28F40F4
Copy CRC C28F40F4
Accurately ripped (confidence 42) [3A8EDA79]
Copy OK
Track 11
Filename C:\Documents and Settings\SANYOK\Мои документы\Моя музыка\11 The Game - Doctor's Advocate (feat. Busta Rhymes).wav
Peak level 100.0 %
Track quality 97.3 %
Test CRC 0028B237
Copy CRC 80B7574B
Accurately ripped (confidence 42) [4EAE1444]
Copy OK
Track 12
Filename C:\Documents and Settings\SANYOK\Мои документы\Моя музыка\12 The Game - Ol' English (feat. Dion).wav
Peak level 99.8 %
Track quality 99.9 %
Test CRC 7D19C93C
Copy CRC A10A90D5
Accurately ripped (confidence 42) [B937E939]
Copy OK
Track 13
Filename C:\Documents and Settings\SANYOK\Мои документы\Моя музыка\13 The Game - California Vacation (feat. Snoop Dogg, Xzibit & Tracey Nelson).wav
Peak level 99.8 %
Track quality 99.9 %
Test CRC C762B30E
Copy CRC C762B30E
Accurately ripped (confidence 41) [65D525EB]
Copy OK
Track 14
Filename C:\Documents and Settings\SANYOK\Мои документы\Моя музыка\14 The Game - Bang (feat. The Dogg Pound).wav
Peak level 98.8 %
Track quality 100.0 %
Test CRC B45A7235
Copy CRC B45A7235
Accurately ripped (confidence 40) [ADC6BE38]
Copy OK
Track 15
Filename C:\Documents and Settings\SANYOK\Мои документы\Моя музыка\15 The Game - Around The World (feat. Jamie Foxx).wav
Peak level 94.6 %
Track quality 98.4 %
Test CRC 057E1DE1
Copy CRC 057E1DE1
Accurately ripped (confidence 41) [680D112F]
Copy OK
Track 16
Filename C:\Documents and Settings\SANYOK\Мои документы\Моя музыка\16 The Game - Why You Hate The Game (feat. Nas, Marsha Ambrosius, Andrea Martin & The 1500 Choir).wav
Peak level 99.9 %
Track quality 99.9 %
Test CRC 517CECF2
Copy CRC 517CECF2
Accurately ripped (confidence 40) [57F08EE9]
Copy OK
All tracks accurately ripped
No errors occurred
End of status report

2008 - LAX Deluxe Edition

CD1:
01. - Intro (feat. DMX)
02. - LAX Files
03. - State Of Emergency (Feat. Ice Cube)
04. - Bulletproof Diaries (Feat. Raekwon)
05. - My Life (Feat. Lil Wayne)
06. - Money
07. - Cali Sunshine (Feat. Bilal)
08. - Ya Heard (Feat. Ludacris)
09. - Hard Liquor (Interlude)
10. - House Of Pain
11. - Gentleman's Affair (Feat. Ne-Yo)
12. - Let Us Live (Feat. Chrisette Michelle)
13. - Touchdown (Feat. Raheem DeVaughn)
14. - Angel (Feat. Common)
15. - Never Can Say Goodbye (Feat. Latoya Williams)
16. - Dope Boys (Feat. Travis Barker)
17. - Game's Pain (Feat. Keyshia Cole)
18. - Letter To The King (Feat. Nas)
19. - Outro (feat. DMX)
CD2:
01. - Big Dreams
02. - Camera Phone (feat. Ne-Yo)
03. - Nice (feat. Newz)
04. - Spanglish

EAC

CD1

Exact Audio Copy V0.99 prebeta 5 from 4. May 2009
EAC extraction logfile from 30. November 2009, 20:13
The Game / LAX
Used drive : Optiarc DVD RW AD-7173A Adapter: 1 ID: 0
Read mode : Secure
Utilize accurate stream : Yes
Defeat audio cache : Yes
Make use of C2 pointers : No
Read offset correction : 48
Overread into Lead-In and Lead-Out : No
Fill up missing offset samples with silence : Yes
Delete leading and trailing silent blocks : No
Null samples used in CRC calculations : Yes
Used interface : Native Win32 interface for Win NT & 2000
Gap handling : Appended to previous track
Used output format : User Defined Encoder
Selected bitrate : 1024 kBit/s
Quality : High
Add ID3 tag : No
Command line compressor : d:\Program Files\Exact Audio Copy\FLAC\FLAC.EXE
Additional command line options : -6 -V -T "ARTIST=%a" -T "TITLE=%t" -T "ALBUM=%g" -T "DATE=%y" -T "TRACKNUMBER=%n" -T "GENRE=%m" -T "COMMENT=%e" %s -o %d
TOC of the extracted CD
Track | Start | Length | Start sector | End sector
---------------------------------------------------------
1 | 0:00.00 | 1:20.71 | 0 | 6070
2 | 1:20.71 | 3:59.18 | 6071 | 24013
3 | 5:20.14 | 3:38.39 | 24014 | 40402
4 | 8:58.53 | 4:52.28 | 40403 | 62330
5 | 13:51.06 | 5:20.67 | 62331 | 86397
6 | 19:11.73 | 5:13.01 | 86398 | 109873
7 | 24:24.74 | 4:33.13 | 109874 | 130361
8 | 28:58.12 | 4:04.56 | 130362 | 148717
9 | 33:02.68 | 1:50.68 | 148718 | 157035
10 | 34:53.61 | 4:32.20 | 157036 | 177455
11 | 39:26.06 | 3:39.26 | 177456 | 193906
12 | 43:05.32 | 4:39.11 | 193907 | 214842
13 | 47:44.43 | 3:59.66 | 214843 | 232833
14 | 51:44.34 | 4:28.07 | 232834 | 252940
15 | 56:12.41 | 4:40.20 | 252941 | 273960
16 | 60:52.61 | 4:00.38 | 273961 | 291998
17 | 64:53.24 | 4:21.58 | 291999 | 311631
18 | 69:15.07 | 5:45.41 | 311632 | 337547
19 | 75:00.48 | 1:28.03 | 337548 | 344150
Track 1
Filename C:\Documents and Settings\SANYOK\Мои документы\Моя музыка\01 The Game - Intro (feat. DMX).wav
Peak level 98.8 %
Track quality 100.0 %
Test CRC 2D79AA98
Copy CRC 2D79AA98
Accurately ripped (confidence 30) [2D694D3D]
Copy OK
Track 2
Filename C:\Documents and Settings\SANYOK\Мои документы\Моя музыка\02 The Game - LAX Files.wav
Peak level 99.9 %
Track quality 100.0 %
Test CRC FD71E7E4
Copy CRC FD71E7E4
Accurately ripped (confidence 30) [573DAC59]
Copy OK
Track 3
Filename C:\Documents and Settings\SANYOK\Мои документы\Моя музыка\03 The Game - State Of Emergency (feat. Ice Cube).wav
Peak level 98.8 %
Track quality 100.0 %
Test CRC 740A6FAC
Copy CRC 740A6FAC
Accurately ripped (confidence 30) [8D6EDB52]
Copy OK
Track 4
Filename C:\Documents and Settings\SANYOK\Мои документы\Моя музыка\04 The Game - Bulletproof Diaries (feat. Raekwon).wav
Peak level 98.9 %
Track quality 100.0 %
Test CRC 99110730
Copy CRC 99110730
Accurately ripped (confidence 30) [4238EF73]
Copy OK
Track 5
Filename C:\Documents and Settings\SANYOK\Мои документы\Моя музыка\05 The Game - My Life (feat. Lil Wayne).wav
Peak level 98.8 %
Track quality 100.0 %
Test CRC DA1FC29D
Copy CRC DA1FC29D
Accurately ripped (confidence 30) [25636672]
Copy OK
Track 6
Filename C:\Documents and Settings\SANYOK\Мои документы\Моя музыка\06 The Game - Money.wav
Peak level 98.8 %
Track quality 100.0 %
Test CRC D2004738
Copy CRC D2004738
Accurately ripped (confidence 30) [67EFAD09]
Copy OK
Track 7
Filename C:\Documents and Settings\SANYOK\Мои документы\Моя музыка\07 The Game - Cali Sunshine (feat. Bilal).wav
Peak level 98.8 %
Track quality 100.0 %
Test CRC DF8035E4
Copy CRC DF8035E4
Accurately ripped (confidence 30) [9111812A]
Copy OK
Track 8
Filename C:\Documents and Settings\SANYOK\Мои документы\Моя музыка\08 The Game - Ya Heard (feat. Ludacris).wav
Peak level 98.8 %
Track quality 100.0 %
Test CRC 2D1CB73C
Copy CRC 2D1CB73C
Accurately ripped (confidence 30) [8F8E268E]
Copy OK
Track 9
Filename C:\Documents and Settings\SANYOK\Мои документы\Моя музыка\09 The Game - Hard Liquor (Interlude).wav
Peak level 98.8 %
Track quality 99.9 %
Test CRC 76087EDC
Copy CRC 76087EDC
Accurately ripped (confidence 30) [8AE92C05]
Copy OK
Track 10
Filename C:\Documents and Settings\SANYOK\Мои документы\Моя музыка\10 The Game - House Of Pain.wav
Peak level 98.8 %
Track quality 100.0 %
Test CRC 4CDC6142
Copy CRC 4CDC6142
Accurately ripped (confidence 30) [6CB16854]
Copy OK
Track 11
Filename C:\Documents and Settings\SANYOK\Мои документы\Моя музыка\11 The Game - Gentleman's Affair (feat. Ne-Yo).wav
Peak level 98.8 %
Track quality 100.0 %
Test CRC 48A2486B
Copy CRC 48A2486B
Accurately ripped (confidence 30) [DA830A61]
Copy OK
Track 12
Filename C:\Documents and Settings\SANYOK\Мои документы\Моя музыка\12 The Game - Let Us Live (feat. Chrisette Michelle).wav
Peak level 98.8 %
Track quality 100.0 %
Test CRC 8E6F4E19
Copy CRC 8E6F4E19
Accurately ripped (confidence 29) [10910044]
Copy OK
Track 13
Filename C:\Documents and Settings\SANYOK\Мои документы\Моя музыка\13 The Game - Touchdown (feat. Raheem DeVaughn).wav
Peak level 98.8 %
Track quality 100.0 %
Test CRC 5442E2D6
Copy CRC 5442E2D6
Accurately ripped (confidence 29) [03487591]
Copy OK
Track 14
Filename C:\Documents and Settings\SANYOK\Мои документы\Моя музыка\14 The Game - Angel (feat. Common).wav
Peak level 98.8 %
Track quality 100.0 %
Test CRC 5DFC4189
Copy CRC 5DFC4189
Accurately ripped (confidence 30) [52466322]
Copy OK
Track 15
Filename C:\Documents and Settings\SANYOK\Мои документы\Моя музыка\15 The Game - Never Can Say Goodbye (feat. Latoya Williams).wav
Peak level 98.8 %
Track quality 99.9 %
Test CRC 41BF2D5C
Copy CRC 41BF2D5C
Accurately ripped (confidence 30) [5BB0E20F]
Copy OK
Track 16
Filename C:\Documents and Settings\SANYOK\Мои документы\Моя музыка\16 The Game - Dope Boys (feat. Travis Barker).wav
Peak level 99.9 %
Track quality 100.0 %
Test CRC B7F587C0
Copy CRC B7F587C0
Accurately ripped (confidence 29) [4FD4E26B]
Copy OK
Track 17
Filename C:\Documents and Settings\SANYOK\Мои документы\Моя музыка\17 The Game - Game's Pain (feat. Keyshia Cole).wav
Peak level 99.8 %
Track quality 100.0 %
Test CRC 63AB1F58
Copy CRC 63AB1F58
Accurately ripped (confidence 30) [08420275]
Copy OK
Track 18
Filename C:\Documents and Settings\SANYOK\Мои документы\Моя музыка\18 The Game - Letter To The King (feat. Nas).wav
Peak level 96.6 %
Track quality 100.0 %
Test CRC BA685304
Copy CRC BA685304
Accurately ripped (confidence 29) [703EA064]
Copy OK
Track 19
Filename C:\Documents and Settings\SANYOK\Мои документы\Моя музыка\19 The Game - Outro (feat. DMX).wav
Peak level 98.8 %
Track quality 100.0 %
Test CRC 1C892C11
Copy CRC 1C892C11
Accurately ripped (confidence 29) [8FF4DCB6]
Copy OK
All tracks accurately ripped
No errors occurred
End of status report

CD2

Exact Audio Copy V0.99 prebeta 5 from 4. May 2009
EAC extraction logfile from 17. November 2009, 12:42
The Game / LAX (Bonus Disc)
Used drive : TSSTcorpCDW/DVD SH-M522C Adapter: 0 ID: 0
Read mode : Secure
Utilize accurate stream : Yes
Defeat audio cache : Yes
Make use of C2 pointers : No
Read offset correction : 6
Overread into Lead-In and Lead-Out : No
Fill up missing offset samples with silence : Yes
Delete leading and trailing silent blocks : No
Null samples used in CRC calculations : Yes
Used interface : Native Win32 interface for Win NT & 2000
Gap handling : Appended to previous track
Used output format : User Defined Encoder
Selected bitrate : 1024 kBit/s
Quality : High
Add ID3 tag : No
Command line compressor : C:\Program Files\Exact Audio Copy\FLAC\FLAC.EXE
Additional command line options : -6 -V -T "ARTIST=%a" -T "TITLE=%t" -T "ALBUM=%g" -T "DATE=%y" -T "TRACKNUMBER=%n" -T "GENRE=%m" -T "COMMENT=%e" %s -o %d
TOC of the extracted CD
Track | Start | Length | Start sector | End sector
---------------------------------------------------------
1 | 0:00.00 | 4:49.12 | 0 | 21686
2 | 4:49.12 | 4:29.35 | 21687 | 41896
3 | 9:18.47 | 4:40.11 | 41897 | 62907
4 | 13:58.58 | 4:15.08 | 62908 | 82040
Track 1
Filename C:\Documents and Settings\ANGELRAPPER\MY DOCUMENTS\The Game - LAX (Deluxe Edition) (2008)\The Game - LAX (Bonus Disc)\01 The Game - Big Dreams.wav
Pre-gap length 0:00:02.00
Peak level 100.0 %
Track quality 100.0 %
Test CRC 8F3942AD
Copy CRC 8F3942AD
Cannot be verified as accurate (confidence 10) [5D429DCF], AccurateRip returned [52DF1FD3]
Copy OK
Track 2
Filename C:\Documents and Settings\ANGELRAPPER\MY DOCUMENTS\The Game - LAX (Deluxe Edition) (2008)\The Game - LAX (Bonus Disc)\02 The Game - Camera Phone (feat. Ne-Yo).wav
Peak level 98.8 %
Track quality 100.0 %
Test CRC 341F606F
Copy CRC 341F606F
Cannot be verified as accurate (confidence 10) [2D69FF09], AccurateRip returned [1F7DDBBF]
Copy OK
Track 3
Filename C:\Documents and Settings\ANGELRAPPER\MY DOCUMENTS\The Game - LAX (Deluxe Edition) (2008)\The Game - LAX (Bonus Disc)\03 The Game - Nice (feat. Newz).wav
Peak level 96.6 %
Track quality 100.0 %
Test CRC 1FE57460
Copy CRC 1FE57460
Cannot be verified as accurate (confidence 10) [53D3B369], AccurateRip returned [B1CD18D5]
Copy OK
Track 4
Filename C:\Documents and Settings\ANGELRAPPER\MY DOCUMENTS\The Game - LAX (Deluxe Edition) (2008)\The Game - LAX (Bonus Disc)\04 The Game - Spanglish.wav
Peak level 98.8 %
Track quality 100.0 %
Test CRC B7F7EB47
Copy CRC B7F7EB47
Cannot be verified as accurate (confidence 10) [4323AE87], AccurateRip returned [2477BB19]
Copy OK
No tracks could be verified as accurate
You may have a different pressing from the one(s) in the database
No errors occurred
End of status report
Independent Albums

2004 - Untold Story

1 "Intro" (featuring JT the Bigga Figga) - 1:03
2 "Neigborhood Supa Starz" (featuring JT the Bigga Figga) - 3:52
3 "When Shit Get Thick" (featuring Sean T, JT the Bigga Figga) - 3:15
4 "I'm Looking" (featuring Blue Chip) - 3:27
5 "Real Gangstaz" - 4:00
6 "Drama Is Real" (featuring San Quinn) - 3:38
7 "Compton 2 Fillmoe" (featuring JT the Bigga Figga) - 3:52
8 "El Presidento" (featuring Telly Mac) - 4:02
9 "G.A.M.E." (featuring Young Noble) - 3:27
10 "Cali Boyz" - 1:49
11 "Who the Illest" (featuring Sean T) - 4:10
12 "Bleek Is..." - 3:46
13 "Street Kings" (featuring Get Low Playaz) - 4:55
14 "Don't Cry" (featuring Blue Chip) - 3:39
15 "Exclusively" (featuring Get Low Playaz, Young Noble) - 4:28
16 "Compton Compton" - 3:38
17 "Outro" (featuring JT the Bigga Figga) - 1:06

EAC

Exact Audio Copy V0.99 prebeta 5 from 4. May 2009
EAC extraction logfile from 15. November 2009, 10:54
The Game / Untold Story
Used drive : TSSTcorpCDW/DVD SH-M522C Adapter: 0 ID: 0
Read mode : Secure
Utilize accurate stream : Yes
Defeat audio cache : Yes
Make use of C2 pointers : No
Read offset correction : 6
Overread into Lead-In and Lead-Out : No
Fill up missing offset samples with silence : Yes
Delete leading and trailing silent blocks : No
Null samples used in CRC calculations : Yes
Used interface : Native Win32 interface for Win NT & 2000
Gap handling : Appended to previous track
Used output format : User Defined Encoder
Selected bitrate : 1024 kBit/s
Quality : High
Add ID3 tag : No
Command line compressor : C:\Program Files\Exact Audio Copy\FLAC\FLAC.EXE
Additional command line options : -6 -V -T "ARTIST=%a" -T "TITLE=%t" -T "ALBUM=%g" -T "DATE=%y" -T "TRACKNUMBER=%n" -T "GENRE=%m" -T "COMMENT=%e" %s -o %d
TOC of the extracted CD
Track | Start | Length | Start sector | End sector
---------------------------------------------------------
1 | 0:00.00 | 1:03.34 | 0 | 4758
2 | 1:03.34 | 3:52.63 | 4759 | 22221
3 | 4:56.22 | 3:12.62 | 22222 | 36683
4 | 8:09.09 | 3:26.13 | 36684 | 52146
5 | 11:35.22 | 4:00.63 | 52147 | 70209
6 | 15:36.10 | 3:38.23 | 70210 | 86582
7 | 19:14.33 | 3:52.50 | 86583 | 104032
8 | 23:07.08 | 4:00.49 | 104033 | 122081
9 | 27:07.57 | 3:26.72 | 122082 | 137603
10 | 30:34.54 | 1:49.12 | 137604 | 145790
11 | 32:23.66 | 4:08.00 | 145791 | 164390
12 | 36:31.66 | 3:45.69 | 164391 | 181334
13 | 40:17.60 | 4:55.33 | 181335 | 203492
14 | 45:13.18 | 3:39.29 | 203493 | 219946
15 | 48:52.47 | 4:28.32 | 219947 | 240078
16 | 53:21.04 | 3:38.49 | 240079 | 256477
17 | 56:59.53 | 1:05.74 | 256478 | 261426
Track 1
Filename C:\Documents and Settings\ANGELRAPPER\MY DOCUMENTS\The Game - Untold Story (2004)\01 The Game - Intro (feat. JT The Bigga Figga).wav
Pre-gap length 0:00:02.00
Peak level 98.4 %
Track quality 100.0 %
Test CRC 1830E523
Copy CRC 1830E523
Cannot be verified as accurate (confidence 1) [93FB3982], AccurateRip returned [A695EBC4]
Copy OK
Track 2
Filename C:\Documents and Settings\ANGELRAPPER\MY DOCUMENTS\The Game - Untold Story (2004)\02 The Game - Neighborhood Supa Starz (feat. JT The Bigga Figga).wav
Peak level 99.7 %
Track quality 100.0 %
Test CRC 4F028AE1
Copy CRC 4F028AE1
Track not present in AccurateRip database
Copy OK
Track 3
Filename C:\Documents and Settings\ANGELRAPPER\MY DOCUMENTS\The Game - Untold Story (2004)\03 The Game - When Shit Get Thick (feat. JT The Bigga Figga & Sean T).wav
Peak level 100.0 %
Track quality 100.0 %
Test CRC 175E05CE
Copy CRC 175E05CE
Track not present in AccurateRip database
Copy OK
Track 4
Filename C:\Documents and Settings\ANGELRAPPER\MY DOCUMENTS\The Game - Untold Story (2004)\04 The Game - I'm Looking (feat. Blue Chip).wav
Peak level 100.0 %
Track quality 100.0 %
Test CRC A01EC450
Copy CRC A01EC450
Track not present in AccurateRip database
Copy OK
Track 5
Filename C:\Documents and Settings\ANGELRAPPER\MY DOCUMENTS\The Game - Untold Story (2004)\05 The Game - Real Gangstaz.wav
Peak level 100.0 %
Track quality 100.0 %
Test CRC 9003D899
Copy CRC 9003D899
Track not present in AccurateRip database
Copy OK
Track 6
Filename C:\Documents and Settings\ANGELRAPPER\MY DOCUMENTS\The Game - Untold Story (2004)\06 The Game - Drama Is Real (feat. San Quinn).wav
Peak level 100.0 %
Track quality 100.0 %
Test CRC 5F70A144
Copy CRC 5F70A144
Track not present in AccurateRip database
Copy OK
Track 7
Filename C:\Documents and Settings\ANGELRAPPER\MY DOCUMENTS\The Game - Untold Story (2004)\07 The Game - Compton 2 Fillmoe (feat. JT The Bigga Figga).wav
Peak level 98.9 %
Track quality 100.0 %
Test CRC 30E6B6D0
Copy CRC 30E6B6D0
Track not present in AccurateRip database
Copy OK
Track 8
Filename C:\Documents and Settings\ANGELRAPPER\MY DOCUMENTS\The Game - Untold Story (2004)\08 The Game - El Presidente (feat. Telly Mac).wav
Peak level 100.0 %
Track quality 100.0 %
Test CRC 41154193
Copy CRC 41154193
Track not present in AccurateRip database
Copy OK
Track 9
Filename C:\Documents and Settings\ANGELRAPPER\MY DOCUMENTS\The Game - Untold Story (2004)\09 The Game - G.A.M.E. (feat. Young Noble of the Outlawz).wav
Peak level 100.0 %
Track quality 100.0 %
Test CRC A1824384
Copy CRC A1824384
Track not present in AccurateRip database
Copy OK
Track 10
Filename C:\Documents and Settings\ANGELRAPPER\MY DOCUMENTS\The Game - Untold Story (2004)\10 The Game - Cali Boyz.wav
Peak level 100.0 %
Track quality 100.0 %
Test CRC 21F67249
Copy CRC 21F67249
Track not present in AccurateRip database
Copy OK
Track 11
Filename C:\Documents and Settings\ANGELRAPPER\MY DOCUMENTS\The Game - Untold Story (2004)\11 The Game - Who The Illest (feat. Sean T).wav
Peak level 100.0 %
Track quality 100.0 %
Test CRC B35A2E55
Copy CRC B35A2E55
Track not present in AccurateRip database
Copy OK
Track 12
Filename C:\Documents and Settings\ANGELRAPPER\MY DOCUMENTS\The Game - Untold Story (2004)\12 The Game - Bleek Is....wav
Peak level 100.0 %
Track quality 100.0 %
Test CRC 6B11AF40
Copy CRC 6B11AF40
Track not present in AccurateRip database
Copy OK
Track 13
Filename C:\Documents and Settings\ANGELRAPPER\MY DOCUMENTS\The Game - Untold Story (2004)\13 The Game - Street Kingz (feat. Get Low Playaz).wav
Peak level 100.0 %
Track quality 100.0 %
Test CRC C3054D2B
Copy CRC C3054D2B
Track not present in AccurateRip database
Copy OK
Track 14
Filename C:\Documents and Settings\ANGELRAPPER\MY DOCUMENTS\The Game - Untold Story (2004)\14 The Game - Don't Cry (feat. Blue Chip).wav
Peak level 100.0 %
Track quality 100.0 %
Test CRC 0D216428
Copy CRC 0D216428
Track not present in AccurateRip database
Copy OK
Track 15
Filename C:\Documents and Settings\ANGELRAPPER\MY DOCUMENTS\The Game - Untold Story (2004)\15 The Game - Exclusively (feat. Get Low Playaz & Young Noble).wav
Peak level 100.0 %
Track quality 100.0 %
Test CRC B1D3F196
Copy CRC B1D3F196
Track not present in AccurateRip database
Copy OK
Track 16
Filename C:\Documents and Settings\ANGELRAPPER\MY DOCUMENTS\The Game - Untold Story (2004)\16 The Game - Compton Compton.wav
Peak level 100.0 %
Track quality 100.0 %
Test CRC A820671C
Copy CRC A820671C
Track not present in AccurateRip database
Copy OK
Track 17
Filename C:\Documents and Settings\ANGELRAPPER\MY DOCUMENTS\The Game - Untold Story (2004)\17 The Game - Outro (feat. JT The Bigga Figga).wav
Peak level 96.6 %
Track quality 100.0 %
Test CRC D37F4F10
Copy CRC D37F4F10
Track not present in AccurateRip database
Copy OK
1 track(s) could not be verified as accurate
16 track(s) not present in the AccurateRip database
No tracks could be verified as accurate
You may have a different pressing from the one(s) in the database
No errors occurred
End of status report

2005 - West Coast Resurection

01 - Intro (Feat. JT)
02 - The Streetz Of Compton (Feat. JT)
03 - Blacksox (Feat. JT & Bluechip)
04 - Krush Groove (Feat. JT & Get Low)
05 - Troublesome
06 - Rookie Card (Feat. JT)
07 - Promised Land
08 - Gutta Boyz (Feat. Sean T)
09 - Put It In The Air (Feat. Sky)
10 - Desparados (Feat. JT)
11 - 100 Barz and Gunnin
12 - Work Hard (Feat. JT & Get Low)
13 - Untold Story (Feat. JT)
14 - Outro (Feat. JT)

EAC

Exact Audio Copy V0.99 prebeta 5 from 4. May 2009
EAC extraction logfile from 15. November 2009, 11:56
The Game / West Coast Resurrection
Used drive : TSSTcorpCDW/DVD SH-M522C Adapter: 0 ID: 0
Read mode : Secure
Utilize accurate stream : Yes
Defeat audio cache : Yes
Make use of C2 pointers : No
Read offset correction : 6
Overread into Lead-In and Lead-Out : No
Fill up missing offset samples with silence : Yes
Delete leading and trailing silent blocks : No
Null samples used in CRC calculations : Yes
Used interface : Native Win32 interface for Win NT & 2000
Gap handling : Appended to previous track
Used output format : User Defined Encoder
Selected bitrate : 1024 kBit/s
Quality : High
Add ID3 tag : No
Command line compressor : C:\Program Files\Exact Audio Copy\FLAC\FLAC.EXE
Additional command line options : -6 -V -T "ARTIST=%a" -T "TITLE=%t" -T "ALBUM=%g" -T "DATE=%y" -T "TRACKNUMBER=%n" -T "GENRE=%m" -T "COMMENT=%e" %s -o %d
TOC of the extracted CD
Track | Start | Length | Start sector | End sector
---------------------------------------------------------
1 | 0:00.00 | 1:18.27 | 0 | 5876
2 | 1:18.27 | 4:43.00 | 5877 | 27101
3 | 6:01.27 | 4:02.63 | 27102 | 45314
4 | 10:04.15 | 3:23.07 | 45315 | 60546
5 | 13:27.22 | 4:35.29 | 60547 | 81200
6 | 18:02.51 | 2:21.44 | 81201 | 91819
7 | 20:24.20 | 4:17.73 | 91820 | 111167
8 | 24:42.18 | 3:38.58 | 111168 | 127575
9 | 28:21.01 | 3:42.47 | 127576 | 144272
10 | 32:03.48 | 4:24.15 | 144273 | 164087
11 | 36:27.63 | 1:15.63 | 164088 | 169775
12 | 37:43.51 | 4:05.49 | 169776 | 188199
13 | 41:49.25 | 2:52.44 | 188200 | 201143
14 | 44:41.69 | 2:48.20 | 201144 | 213763
Track 1
Filename C:\Documents and Settings\ANGELRAPPER\MY DOCUMENTS\The Game - West Coast Resurrection (2005)\01 The Game - Intro (feat. JT).wav
Pre-gap length 0:00:02.00
Peak level 96.6 %
Track quality 99.8 %
Test CRC 04DAB138
Copy CRC 04DAB138
Track not present in AccurateRip database
Copy OK
Track 2
Filename C:\Documents and Settings\ANGELRAPPER\MY DOCUMENTS\The Game - West Coast Resurrection (2005)\02 The Game - The Streetz of Compton (feat. JT).wav
Pre-gap length 0:00:01.93
Peak level 96.6 %
Track quality 100.0 %
Test CRC 0591DFE7
Copy CRC 0591DFE7
Track not present in AccurateRip database
Copy OK
Track 3
Filename C:\Documents and Settings\ANGELRAPPER\MY DOCUMENTS\The Game - West Coast Resurrection (2005)\03 The Game - Blacksox (feat. JT & Bluechip).wav
Pre-gap length 0:00:01.94
Peak level 96.6 %
Track quality 100.0 %
Test CRC 36D745B6
Copy CRC 36D745B6
Track not present in AccurateRip database
Copy OK
Track 4
Filename C:\Documents and Settings\ANGELRAPPER\MY DOCUMENTS\The Game - West Coast Resurrection (2005)\04 The Game - Krush Groove (feat. JT & Get Low).wav
Pre-gap length 0:00:01.93
Peak level 96.6 %
Track quality 100.0 %
Test CRC 9EE322A6
Copy CRC 9EE322A6
Track not present in AccurateRip database
Copy OK
Track 5
Filename C:\Documents and Settings\ANGELRAPPER\MY DOCUMENTS\The Game - West Coast Resurrection (2005)\05 The Game - Troublesome.wav
Peak level 96.6 %
Track quality 100.0 %
Test CRC 7DF32FD7
Copy CRC 7DF32FD7
Track not present in AccurateRip database
Copy OK
Track 6
Filename C:\Documents and Settings\ANGELRAPPER\MY DOCUMENTS\The Game - West Coast Resurrection (2005)\06 The Game - Rookie Card (feat. JT).wav
Pre-gap length 0:00:01.78
Peak level 100.0 %
Track quality 100.0 %
Test CRC 8CF3D44D
Copy CRC 8CF3D44D
Track not present in AccurateRip database
Copy OK
Track 7
Filename C:\Documents and Settings\ANGELRAPPER\MY DOCUMENTS\The Game - West Coast Resurrection (2005)\07 The Game - Promised Land.wav
Peak level 100.0 %
Track quality 100.0 %
Test CRC 7853E5A7
Copy CRC 7853E5A7
Track not present in AccurateRip database
Copy OK
Track 8
Filename C:\Documents and Settings\ANGELRAPPER\MY DOCUMENTS\The Game - West Coast Resurrection (2005)\08 The Game - Gutta Boyz (feat. Sean T).wav
Pre-gap length 0:00:01.96
Peak level 98.8 %
Track quality 100.0 %
Test CRC 225B5FF8
Copy CRC 225B5FF8
Track not present in AccurateRip database
Copy OK
Track 9
Filename C:\Documents and Settings\ANGELRAPPER\MY DOCUMENTS\The Game - West Coast Resurrection (2005)\09 The Game - Put It In The Air (feat. Sky).wav
Pre-gap length 0:00:01.66
Peak level 100.0 %
Track quality 100.0 %
Test CRC C70CB2D3
Copy CRC C70CB2D3
Track not present in AccurateRip database
Copy OK
Track 10
Filename C:\Documents and Settings\ANGELRAPPER\MY DOCUMENTS\The Game - West Coast Resurrection (2005)\10 The Game - Desparados (feat. JT).wav
Pre-gap length 0:00:02.46
Peak level 96.6 %
Track quality 100.0 %
Test CRC 09509BC9
Copy CRC 09509BC9
Track not present in AccurateRip database
Copy OK
Track 11
Filename C:\Documents and Settings\ANGELRAPPER\MY DOCUMENTS\The Game - West Coast Resurrection (2005)\11 The Game - 100 Barz and Gunnin.wav
Pre-gap length 0:00:01.84
Peak level 96.6 %
Track quality 100.0 %
Test CRC 613351BC
Copy CRC 613351BC
Track not present in AccurateRip database
Copy OK
Track 12
Filename C:\Documents and Settings\ANGELRAPPER\MY DOCUMENTS\The Game - West Coast Resurrection (2005)\12 The Game - Work Hard (feat. JT & Get Low).wav
Pre-gap length 0:00:01.89
Peak level 96.6 %
Track quality 100.0 %
Test CRC 9761D0D7
Copy CRC 9761D0D7
Track not present in AccurateRip database
Copy OK
Track 13
Filename C:\Documents and Settings\ANGELRAPPER\MY DOCUMENTS\The Game - West Coast Resurrection (2005)\13 The Game - Untold Story (feat. JT).wav
Pre-gap length 0:00:01.50
Peak level 96.6 %
Track quality 100.0 %
Test CRC C9F4D200
Copy CRC C9F4D200
Track not present in AccurateRip database
Copy OK
Track 14
Filename C:\Documents and Settings\ANGELRAPPER\MY DOCUMENTS\The Game - West Coast Resurrection (2005)\14 The Game - Outro (feat. JT).wav
Peak level 96.6 %
Track quality 100.0 %
Test CRC 14E53B5D
Copy CRC 14E53B5D
Track not present in AccurateRip database
Copy OK
None of the tracks are present in the AccurateRip database
No errors occurred
End of status report

2005 - Untold Story Vol. 2

1 "Fuck Wit Me" (featuring JT the Bigga Figga)
2 "For My Gangstaz"
3 "Money Over Bitches" (featuring JT the Bigga Figga])
4 "I'm A Mobsta" (featuring Young Menace)
5 "Business Never Personal" '(featuring Blue Chip)
6 "Eat Ya Beats Alive" (featuring JT the Bigga Figga)
7 "Troublesome"
8 "Just Beginning (Where I'm From)"
9 "Born and Raised In Compton (Raised As A G)"
10 "We Are The Hustlaz" (featuring Blue Chip & Sean T)
11 "Walk Thru The Sky"
12 "Truth Rap" (featuring JT the Bigga Figga)
13 "Drop Ya Thangs" (featuring JT the Bigga Figga)
14 "The Game Get Live" (featuring JT the Bigga Figg

EAC

Exact Audio Copy V0.99 prebeta 5 from 4. May 2009
EAC extraction logfile from 20. November 2009, 7:39
The Game / Untold Story Vol. 2
Used drive : TSSTcorpCDW/DVD SH-M522C Adapter: 0 ID: 0
Read mode : Secure
Utilize accurate stream : Yes
Defeat audio cache : Yes
Make use of C2 pointers : No
Read offset correction : 6
Overread into Lead-In and Lead-Out : No
Fill up missing offset samples with silence : Yes
Delete leading and trailing silent blocks : No
Null samples used in CRC calculations : Yes
Used interface : Native Win32 interface for Win NT & 2000
Gap handling : Appended to previous track
Used output format : User Defined Encoder
Selected bitrate : 1024 kBit/s
Quality : High
Add ID3 tag : No
Command line compressor : C:\Program Files\Exact Audio Copy\FLAC\FLAC.EXE
Additional command line options : -6 -V -T "ARTIST=%a" -T "TITLE=%t" -T "ALBUM=%g" -T "DATE=%y" -T "TRACKNUMBER=%n" -T "GENRE=%m" -T "COMMENT=%e" %s -o %d
TOC of the extracted CD
Track | Start | Length | Start sector | End sector
---------------------------------------------------------
1 | 0:00.00 | 3:23.71 | 0 | 15295
2 | 3:23.71 | 4:03.38 | 15296 | 33558
3 | 7:27.34 | 3:54.34 | 33559 | 51142
4 | 11:21.68 | 3:44.66 | 51143 | 68008
5 | 15:06.59 | 2:33.73 | 68009 | 79556
6 | 17:40.57 | 3:34.19 | 79557 | 95625
7 | 21:15.01 | 3:15.31 | 95626 | 110281
8 | 24:30.32 | 3:11.68 | 110282 | 124674
9 | 27:42.25 | 2:40.42 | 124675 | 136716
10 | 30:22.67 | 3:33.47 | 136717 | 152738
11 | 33:56.39 | 1:47.63 | 152739 | 160826
12 | 35:44.27 | 3:50.43 | 160827 | 178119
13 | 39:34.70 | 4:28.44 | 178120 | 198263
14 | 44:03.39 | 3:53.06 | 198264 | 215744
Track 1
Filename C:\The Game - Untold Story Vol. 2 (2005)\01 The Game - Fuck Wit Me (feat. JT The Bigga Figga).wav
Pre-gap length 0:00:02.00
Peak level 99.9 %
Track quality 100.0 %
Test CRC 230C3E34
Copy CRC 230C3E34
Accurately ripped (confidence 1) [6a2c8e33]
Copy OK
Track 2
Filename C:\The Game - Untold Story Vol. 2 (2005)\02 The Game - For My Gangstaz.wav
Peak level 99.1 %
Track quality 100.0 %
Test CRC 681E2186
Copy CRC 681E2186
Accurately ripped (confidence 1) [8db891b0]
Copy OK
Track 3
Filename C:\The Game - Untold Story Vol. 2 (2005)\03 The Game - Money Over Bitches (feat. JT The Bigga Figga).wav
Peak level 97.4 %
Track quality 99.9 %
Test CRC E4E3FC6C
Copy CRC E4E3FC6C
Accurately ripped (confidence 1) [f34f1ab6]
Copy OK
Track 4
Filename C:\The Game - Untold Story Vol. 2 (2005)\04 The Game - I'm A Mobsta (feat. Young Menace).wav
Peak level 99.8 %
Track quality 100.0 %
Test CRC C45B59E7
Copy CRC C45B59E7
Accurately ripped (confidence 1) [b332b418]
Copy OK
Track 5
Filename C:\The Game - Untold Story Vol. 2 (2005)\05 The Game - Business Never Personal (feat. Blue Chip).wav
Peak level 98.5 %
Track quality 100.0 %
Test CRC D782E3AC
Copy CRC D782E3AC
Accurately ripped (confidence 1) [3562aea3]
Copy OK
Track 6
Filename C:\The Game - Untold Story Vol. 2 (2005)\06 The Game - Eat Ya Beats Alive (feat. JT The Bigga Figga).wav
Peak level 99.1 %
Track quality 100.0 %
Test CRC 70FD3820
Copy CRC 70FD3820
Accurately ripped (confidence 1) [fe7e3d54]
Copy OK
Track 7
Filename C:\The Game - Untold Story Vol. 2 (2005)\07 The Game - Troublesome.wav
Peak level 98.8 %
Track quality 100.0 %
Test CRC B2DB4A47
Copy CRC B2DB4A47
Accurately ripped (confidence 1) [1a3369a3]
Copy OK
Track 8
Filename C:\The Game - Untold Story Vol. 2 (2005)\08 The Game - Just Beginning (Where I'm From).wav
Peak level 99.7 %
Track quality 99.9 %
Test CRC 52297E3A
Copy CRC 52297E3A
Accurately ripped (confidence 1) [a8782969]
Copy OK
Track 9
Filename C:\The Game - Untold Story Vol. 2 (2005)\09 The Game - Born And Raised In Compton (Raised As A G).wav
Peak level 97.7 %
Track quality 100.0 %
Test CRC 7A6CB782
Copy CRC 7A6CB782
Accurately ripped (confidence 1) [7a23d833]
Copy OK
Track 10
Filename C:\The Game - Untold Story Vol. 2 (2005)\10 The Game - We Are The Hustlaz (feat. Blue Chip & Sean T).wav
Peak level 97.7 %
Track quality 100.0 %
Test CRC 22EF6028
Copy CRC 22EF6028
Accurately ripped (confidence 1) [5d4af3ad]
Copy OK
Track 11
Filename C:\The Game - Untold Story Vol. 2 (2005)\11 The Game - Walk Thru The Sky.wav
Peak level 97.1 %
Track quality 100.0 %
Test CRC 500A6C31
Copy CRC 500A6C31
Accurately ripped (confidence 1) [0fcc0383]
Copy OK
Track 12
Filename C:\The Game - Untold Story Vol. 2 (2005)\12 The Game - Truth Rap (feat. JT The Bigga Figga).wav
Peak level 97.7 %
Track quality 100.0 %
Test CRC 6BD8AF3D
Copy CRC 6BD8AF3D
Accurately ripped (confidence 1) [ccb9942f]
Copy OK
Track 13
Filename C:\The Game - Untold Story Vol. 2 (2005)\13 The Game - Drop Ya Thangs (feat. JT The Bigga Figga).wav
Peak level 98.9 %
Track quality 100.0 %
Test CRC 41F31269
Copy CRC 41F31269
Accurately ripped (confidence 1) [f556b9de]
Copy OK
Track 14
Filename C:\The Game - Untold Story Vol. 2 (2005)\14 The Game - The Game Get Live (feat. JT The Bigga Figga).wav
Peak level 99.4 %
Track quality 100.0 %
Test CRC 8996F377
Copy CRC 8996F377
Accurately ripped (confidence 1) [df148e93]
Copy OK
All tracks accurately ripped
No errors occurred
End of status report

2006 - G.A.M.E.

01. Anything You Ask For (featuring Bootleg)
02. Never Personal (featuring JT The Bigga Figga)
03. Gettin' American Money Easy (featuring Young Noble)
04. Curtains
05. Real Niggas Stand Up
06. Walk Wit Me
07. It Gets Thicker
08. That's Presidents
09. It's The Game
10. Nothin' Promised
11. Get Live
12. It Is What It Is

EAC

Exact Audio Copy V0.99 prebeta 3 from 28. July 2007
EAC extraction logfile from 2. May 2008, 18:24
The Game / G.A.M.E.
Used drive : TSSTcorpDVD+-RW TS-L632D Adapter: 1 ID: 0
Read mode : Secure
Utilize accurate stream : Yes
Defeat audio cache : Yes
Make use of C2 pointers : No
Read offset correction : 6
Overread into Lead-In and Lead-Out : No
Fill up missing offset samples with silence : Yes
Delete leading and trailing silent blocks : No
Null samples used in CRC calculations : Yes
Used interface : Native Win32 interface for Win NT & 2000
Gap handling : Appended to previous track
Used output format : User Defined Encoder
Selected bitrate : 128 kBit/s
Quality : High
Add ID3 tag : No
Command line compressor : C:\Program Files\FLAC\flac.exe
Additional command line options : -8 -V -T "ARTIST=%a" -T "TITLE=%t" -T "ALBUM=%g" -T "DATE=%y" -T "TRACKNUMBER=%n" -T "GENRE=%m" -T "COMMENT=%e" %s -o %d
TOC of the extracted CD
Track | Start | Length | Start sector | End sector
---------------------------------------------------------
1 | 0:00.00 | 3:08.36 | 0 | 14135
2 | 3:08.36 | 3:30.71 | 14136 | 29956
3 | 6:39.32 | 3:12.45 | 29957 | 44401
4 | 9:52.02 | 3:30.52 | 44402 | 60203
5 | 13:22.54 | 3:58.09 | 60204 | 78062
6 | 17:20.63 | 3:07.56 | 78063 | 92143
7 | 20:28.44 | 2:36.71 | 92144 | 103914
8 | 23:05.40 | 2:48.28 | 103915 | 116542
9 | 25:53.68 | 3:45.70 | 116543 | 133487
10 | 29:39.63 | 4:22.49 | 133488 | 153186
11 | 34:02.37 | 3:43.66 | 153187 | 169977
12 | 37:46.28 | 3:23.12 | 169978 | 185214
Track 1
Filename C:\The Game - G.A.M.E. (2006)\01 The Game - Anything You Ask For (feat. Bootleg).wav
Pre-gap length 0:00:02.00
Peak level 98.8 %
Track quality 100.0 %
Test CRC 36F79FCB
Copy CRC 36F79FCB
Accurately ripped (confidence 3) [31C82FF8]
Copy OK
Track 2
Filename C:\The Game - G.A.M.E. (2006)\02 The Game - Never Personal (feat. JT The Bigga Figga).wav
Peak level 98.8 %
Track quality 100.0 %
Test CRC 0DE99D30
Copy CRC 0DE99D30
Accurately ripped (confidence 3) [0124C1C3]
Copy OK
Track 3
Filename C:\The Game - G.A.M.E. (2006)\03 The Game - Gettin' American Money Easy (feat. Young Noble).wav
Pre-gap length 0:00:00.88
Peak level 98.9 %
Track quality 99.9 %
Test CRC 39DC4E4D
Copy CRC 39DC4E4D
Accurately ripped (confidence 3) [1A95F043]
Copy OK
Track 4
Filename C:\The Game - G.A.M.E. (2006)\04 The Game - Curtains.wav
Pre-gap length 0:00:00.65
Peak level 98.8 %
Track quality 100.0 %
Test CRC D3E93323
Copy CRC D3E93323
Accurately ripped (confidence 3) [D5FCC406]
Copy OK
Track 5
Filename C:\The Game - G.A.M.E. (2006)\05 The Game - Real Nxxxxxs Stand Up.wav
Pre-gap length 0:00:00.45
Peak level 98.8 %
Track quality 100.0 %
Test CRC 18FCCC16
Copy CRC 18FCCC16
Accurately ripped (confidence 3) [31AAD145]
Copy OK
Track 6
Filename C:\The Game - G.A.M.E. (2006)\06 The Game - Walk Wit Me.wav
Peak level 98.8 %
Track quality 100.0 %
Test CRC 31E8D892
Copy CRC 31E8D892
Accurately ripped (confidence 3) [8732795C]
Copy OK
Track 7
Filename C:\The Game - G.A.M.E. (2006)\07 The Game - It Gets Thicker.wav
Peak level 98.9 %
Track quality 100.0 %
Test CRC 7A19792A
Copy CRC 7A19792A
Accurately ripped (confidence 3) [9F215608]
Copy OK
Track 8
Filename C:\The Game - G.A.M.E. (2006)\08 The Game - That's Preseidents.wav
Peak level 98.8 %
Track quality 100.0 %
Test CRC 85DF3166
Copy CRC 85DF3166
Accurately ripped (confidence 3) [29C064FB]
Copy OK
Track 9
Filename C:\The Game - G.A.M.E. (2006)\09 The Game - It's The Game.wav
Peak level 98.8 %
Track quality 100.0 %
Test CRC D6D413CF
Copy CRC D6D413CF
Accurately ripped (confidence 3) [4AD2350E]
Copy OK
Track 10
Filename C:\The Game - G.A.M.E. (2006)\10 The Game - Nothin' Promised.wav
Peak level 98.8 %
Track quality 99.9 %
Test CRC 4A2E26F6
Copy CRC 4A2E26F6
Accurately ripped (confidence 3) [325E777E]
Copy OK
Track 11
Filename C:\The Game - G.A.M.E. (2006)\11 The Game - Get Live.wav
Pre-gap length 0:00:01.00
Peak level 98.8 %
Track quality 100.0 %
Test CRC E464FB50
Copy CRC E464FB50
Accurately ripped (confidence 3) [16047B6F]
Copy OK
Track 12
Filename C:\The Game - G.A.M.E. (2006)\12 The Game - It Is What It Is.wav
Peak level 98.8 %
Track quality 100.0 %
Test CRC 2504B4A7
Copy CRC 2504B4A7
Accurately ripped (confidence 3) [DFE04E4E]
Copy OK
All tracks accurately ripped
No errors occurred
End of status report
Singles

2004 - How We Do

01 The Game - How We Do (Radio Edit) (feat. 50 Cent)
02 The Game - How We Do (Explicit) (feat. 50 Cent)
03 The Game - How We Do (Instrumental) (feat. 50 Cent)

EAC

Exact Audio Copy V0.99 prebeta 4 from 23. January 2008
EAC extraction logfile from 26. July 2009, 1:29
Game ft 50 Cent / How We Do (CD Pro)
Used drive : TSSTcorpDVD+-RW TS-H653B Adapter: 2 ID: 1
Read mode : Secure
Utilize accurate stream : Yes
Defeat audio cache : Yes
Make use of C2 pointers : No
Read offset correction : 6
Overread into Lead-In and Lead-Out : No
Fill up missing offset samples with silence : Yes
Delete leading and trailing silent blocks : No
Null samples used in CRC calculations : Yes
Used interface : Native Win32 interface for Win NT & 2000
Gap handling : Appended to previous track
Used output format : User Defined Encoder
Selected bitrate : 320 kBit/s
Quality : High
Add ID3 tag : No
Command line compressor : C:\Program Files\FLAC\flac.exe
Additional command line options : -V -8 -T "artist=%a" -T "title=%t" -T "album=%g" -T "date=%y" -T "tracknumber=%n" -T "genre=%m" %s
TOC of the extracted CD
Track | Start | Length | Start sector | End sector
---------------------------------------------------------
1 | 0:00.00 | 4:05.20 | 0 | 18394
2 | 4:05.20 | 4:05.13 | 18395 | 36782
3 | 8:10.33 | 4:03.62 | 36783 | 55069
Track 1
Filename C:\Documents and Settings\Administrator\Desktop\Game ft 50 Cent - How We Do (CD Pro)\01 - How We Do (Radio Edit).wav
Pre-gap length 0:00:02.00
Peak level 98.8 %
Track quality 100.0 %
Test CRC FA18B53D
Copy CRC FA18B53D
Track not present in AccurateRip database
Copy OK
Track 2
Filename C:\Documents and Settings\Administrator\Desktop\Game ft 50 Cent - How We Do (CD Pro)\02 - How We Do (Explicit).wav
Pre-gap length 0:00:02.00
Peak level 98.8 %
Track quality 100.0 %
Test CRC BA01262F
Copy CRC BA01262F
Track not present in AccurateRip database
Copy OK
Track 3
Filename C:\Documents and Settings\Administrator\Desktop\Game ft 50 Cent - How We Do (CD Pro)\03 - How We Do (Instrumental).wav
Pre-gap length 0:00:01.96
Peak level 98.8 %
Track quality 100.0 %
Test CRC CFD6BF91
Copy CRC CFD6BF91
Track not present in AccurateRip database
Copy OK
None of the tracks are present in the AccurateRip database
No errors occurred
End of status report

2005 - Hate It Or Love It

01 The Game - Hate It Or Love It (Radio Edit ft. 50 Cent)
02 The Game - Hate It Or Love It (Explicit ft. 50 Cent)
03 The Game - Hate It Or Love It (Instrumental ft. 50 Cent)

EAC

Exact Audio Copy V0.99 prebeta 5 from 4. May 2009
EAC extraction logfile from 2. March 2006, 16:00
The Game / Hate It Or Love It
Used drive : Optiarc DVD RW AD-7173A Adapter: 1 ID: 0
Read mode : Secure
Utilize accurate stream : Yes
Defeat audio cache : Yes
Make use of C2 pointers : No
Read offset correction : 48
Overread into Lead-In and Lead-Out : No
Fill up missing offset samples with silence : Yes
Delete leading and trailing silent blocks : No
Null samples used in CRC calculations : Yes
Used interface : Native Win32 interface for Win NT & 2000
Gap handling : Not detected, thus appended to previous track
Used output format : User Defined Encoder
Selected bitrate : 1024 kBit/s
Quality : High
Add ID3 tag : No
Command line compressor : d:\Program Files\Exact Audio Copy\FLAC\FLAC.EXE
Additional command line options : -6 -V -T "ARTIST=%a" -T "TITLE=%t" -T "ALBUM=%g" -T "DATE=%y" -T "TRACKNUMBER=%n" -T "GENRE=%m" -T "COMMENT=%e" %s -o %d
TOC of the extracted CD
Track | Start | Length | Start sector | End sector
---------------------------------------------------------
1 | 0:00.00 | 3:29.65 | 0 | 15739
2 | 3:29.65 | 3:28.68 | 15740 | 31407
3 | 6:58.58 | 4:05.11 | 31408 | 49793
Track 1
Filename D:\01 The Game - Hate It Or Love It (Radio Edit ft. 50 Cent).wav
Peak level 93.0 %
Track quality 99.9 %
Test CRC 8070B6CB
Copy CRC 8070B6CB
Track not present in AccurateRip database
Copy OK
Track 2
Filename D:\02 The Game - Hate It Or Love It (Explicit ft. 50 Cent).wav
Peak level 90.8 %
Track quality 100.0 %
Test CRC E8435100
Copy CRC E8435100
Track not present in AccurateRip database
Copy OK
Track 3
Filename D:\03 The Game - Hate It Or Love It (Instrumental ft. 50 Cent).wav
Peak level 94.0 %
Track quality 100.0 %
Test CRC BFA58AEF
Copy CRC BFA58AEF
Track not present in AccurateRip database
Copy OK
None of the tracks are present in the AccurateRip database
No errors occurred
End of status report

2008 - My Life

01. The Game - My Life (Radio Edit) (feat. Lil Wayne)
02. The Game - My Life (Radio Instrumental) (feat. Lil Wayne)

EAC

Exact Audio Copy V0.99 prebeta 5 from 4. May 2009
EAC extraction logfile from 17. November 2009, 7:18
The Game / My Life
Used drive : Optiarc DVD RW AD-7173A Adapter: 1 ID: 0
Read mode : Secure
Utilize accurate stream : Yes
Defeat audio cache : Yes
Make use of C2 pointers : No
Read offset correction : 48
Overread into Lead-In and Lead-Out : No
Fill up missing offset samples with silence : Yes
Delete leading and trailing silent blocks : No
Null samples used in CRC calculations : Yes
Used interface : Native Win32 interface for Win NT & 2000
Gap handling : Appended to previous track
Used output format : User Defined Encoder
Selected bitrate : 1024 kBit/s
Quality : High
Add ID3 tag : No
Command line compressor : C:\Program Files\Exact Audio Copy\FLAC\FLAC.EXE
Additional command line options : -6 -V -T "ARTIST=%a" -T "TITLE=%t" -T "ALBUM=%g" -T "DATE=%y" -T "TRACKNUMBER=%n" -T "GENRE=%m" -T "COMMENT=%e" %s -o %d
TOC of the extracted CD
Track | Start | Length | Start sector | End sector
---------------------------------------------------------
1 | 0:00.00 | 3:37.52 | 0 | 16326
2 | 3:37.52 | 3:13.38 | 16327 | 30839
Track 1
Filename C:\Documents and Settings\SANYOK\MY DOCUMENTS\The Game - My Life (2008)\01 The Game - My Life (Radio Edit) (feat. Lil Wayne).wav
Pre-gap length 0:00:02.00
Peak level 98.8 %
Track quality 100.0 %
Test CRC 6F6FE1AD
Copy CRC 6F6FE1AD
Track not present in AccurateRip database
Copy OK
Track 2
Filename C:\Documents and Settings\SANYOK\MY DOCUMENTS\The Game - My Life (2008)\02 The Game - My Life (Radio Instrumental) (feat. Lil Wayne).wav
Peak level 98.8 %
Track quality 100.0 %
Test CRC C07F0C4E
Copy CRC C07F0C4E
Track not present in AccurateRip database
Copy OK
None of the tracks are present in the AccurateRip database
No errors occurred
End of status report

2008 - Big Dreams

01 The Game - Big Dreams (Radio Edit).flac
02 The Game - Big Dreams (Instrumental).flac
03 The Game - Big Dreams (Explicit).flac

EAC

Exact Audio Copy V0.99 prebeta 4 from 23. January 2008
EAC extraction logfile from 26. July 2009, 0:31
The Game / Big Dreams PROMO CD
Used drive : TSSTcorpDVD+-RW TS-H653B Adapter: 2 ID: 1
Read mode : Secure
Utilize accurate stream : Yes
Defeat audio cache : Yes
Make use of C2 pointers : No
Read offset correction : 6
Overread into Lead-In and Lead-Out : No
Fill up missing offset samples with silence : Yes
Delete leading and trailing silent blocks : No
Null samples used in CRC calculations : Yes
Used interface : Native Win32 interface for Win NT & 2000
Gap handling : Appended to previous track
Used output format : User Defined Encoder
Selected bitrate : 320 kBit/s
Quality : High
Add ID3 tag : No
Command line compressor : C:\Program Files\FLAC\flac.exe
Additional command line options : -V -8 -T "artist=%a" -T "title=%t" -T "album=%g" -T "date=%y" -T "tracknumber=%n" -T "genre=%m" %s
TOC of the extracted CD
Track | Start | Length | Start sector | End sector
---------------------------------------------------------
1 | 0:00.00 | 4:22.55 | 0 | 19704
2 | 4:22.55 | 4:51.35 | 19705 | 41564
3 | 9:14.15 | 4:50.70 | 41565 | 63384
Track 1
Filename C:\Documents and Settings\Administrator\Desktop\The Game - Big Dreams PROMO CD\01 - Big Dreams (Radio Edit).wav
Pre-gap length 0:00:02.00
Peak level 100.0 %
Track quality 100.0 %
Test CRC C62E4077
Copy CRC C62E4077
Track not present in AccurateRip database
Copy OK
Track 2
Filename C:\Documents and Settings\Administrator\Desktop\The Game - Big Dreams PROMO CD\02 - Big Dreams (Instrumental).wav
Pre-gap length 0:00:01.65
Peak level 100.0 %
Track quality 100.0 %
Test CRC B1C39B8D
Copy CRC B1C39B8D
Track not present in AccurateRip database
Copy OK
Track 3
Filename C:\Documents and Settings\Administrator\Desktop\The Game - Big Dreams PROMO CD\03 - Big Dreams (Explicit).wav
Pre-gap length 0:00:01.68
Peak level 100.0 %
Track quality 100.0 %
Test CRC A67F31DE
Copy CRC A67F31DE
Track not present in AccurateRip database
Copy OK
None of the tracks are present in the AccurateRip database
No errors occurred
End of status report

2008 - Game's Pain

01 The Game - Game's Pain (Clean) (feat. Keyshia Cole)
02 The Game - Game's Pain (Explicit) (feat. Keyshia Cole)
03 The Game - Game's Pain (Instrumental) (feat. Keyshia Cole)

EAC

Exact Audio Copy V0.99 prebeta 4 from 23. January 2008
EAC extraction logfile from 31. July 2009, 12:43
The Game featuring Keyshia Cole / Game's Pain
Used drive : TSSTcorpDVD+-RW TS-H653B Adapter: 2 ID: 1
Read mode : Secure
Utilize accurate stream : Yes
Defeat audio cache : Yes
Make use of C2 pointers : No
Read offset correction : 6
Overread into Lead-In and Lead-Out : No
Fill up missing offset samples with silence : Yes
Delete leading and trailing silent blocks : No
Null samples used in CRC calculations : Yes
Used interface : Native Win32 interface for Win NT & 2000
Gap handling : Appended to previous track
Used output format : User Defined Encoder
Selected bitrate : 320 kBit/s
Quality : High
Add ID3 tag : No
Command line compressor : C:\Program Files\FLAC\flac.exe
Additional command line options : -V -8 -T "artist=%a" -T "title=%t" -T "album=%g" -T "date=%y" -T "tracknumber=%n" -T "genre=%m" %s
TOC of the extracted CD
Track | Start | Length | Start sector | End sector
---------------------------------------------------------
1 | 0:00.00 | 4:07.34 | 0 | 18558
2 | 4:07.34 | 4:25.50 | 18559 | 38483
3 | 8:33.09 | 4:23.57 | 38484 | 58265
Track 1
Filename C:\Documents and Settings\Administrator\Desktop\The Game featuring Keyshia Cole - Game's Pain\01 - Game's Pain (Clean).wav
Pre-gap length 0:00:02.00
Peak level 99.8 %
Track quality 100.0 %
Test CRC E1C785F1
Copy CRC E1C785F1
Track not present in AccurateRip database
Copy OK
Track 2
Filename C:\Documents and Settings\Administrator\Desktop\The Game featuring Keyshia Cole - Game's Pain\02 - Game's Pain (Explicit).wav
Pre-gap length 0:00:01.97
Peak level 99.8 %
Track quality 100.0 %
Test CRC 8CA102C6
Copy CRC 8CA102C6
Track not present in AccurateRip database
Copy OK
Track 3
Filename C:\Documents and Settings\Administrator\Desktop\The Game featuring Keyshia Cole - Game's Pain\03 - Game's Pain (Instrumental).wav
Pre-gap length 0:00:01.98
Peak level 99.8 %
Track quality 100.0 %
Test CRC 4EE34D48
Copy CRC 4EE34D48
Track not present in AccurateRip database
Copy OK
None of the tracks are present in the AccurateRip database
No errors occurred
End of status report
Mixtapes

2005 - You Know What It Is, Volume 3

01. Intro (00:55)
02. 300 Bars & Runnin' (14:40)
03. Down (03:29)
04. Poison Bananas (featuring Rockstar & M.O.B.) (04:51)
05. I'm A King (featuring T.I.) (03:23)
06. (Debut Single) (03:28)
07. Skit (01:33)
08. Play The Game (03:18)
09. Lil' Bit (Remix) (02:59)
10. Freestyle (01:57)
11. Why You Smell Like Dat (featuring Rockstar & M.O.B.) (03:45)
00. Street Muzik (featuring Sheek Louch) (02:27)
13. Lyrical Exercise (featuring Rockstar) (04:41)
14. Where I'm From (featuring Dr. Dre) (02:23)
15. Never Be Friends (05:15)
16. Swallow That Slug (featuring Charli "Chuck" B'More) (02:50)
17. Hate It Or Love It (Street Remix) (03:01)
18. All I Need (featuring W.C.) (03:06)
19. Playa's Only (featuring R. Kelly) (01:27)
20. Lay Low (featuring M.O.B.) (03:55)
21. Dreams (featuring Notorious B.I.G.) (01:53)
22. Tribute (04:17)

EAC

Exact Audio Copy V0.99 prebeta 4 from 23. January 2008
EAC extraction logfile from 4. June 2008, 17:42
The Game / You Know What It Is Vol. 3
Used drive : HL-DT-STDVDRRW GSA-H30L Adapter: 0 ID: 1
Read mode : Secure
Utilize accurate stream : Yes
Defeat audio cache : Yes
Make use of C2 pointers : No
Read offset correction : 102
Overread into Lead-In and Lead-Out : No
Fill up missing offset samples with silence : Yes
Delete leading and trailing silent blocks : No
Null samples used in CRC calculations : Yes
Used interface : Native Win32 interface for Win NT & 2000
Gap handling : Appended to previous track
Used output format : User Defined Encoder
Selected bitrate : 192 kBit/s
Quality : High
Add ID3 tag : No
Command line compressor : C:\Program Files\FLAC\flac.exe
Additional command line options : -V -8 -T "artist=%a" -T "title=%t" -T "album=%g" -T "date=%y" -T "tracknumber=%n" -T "genre=%m" %s
TOC of the extracted CD
Track | Start | Length | Start sector | End sector
---------------------------------------------------------
1 | 0:00.00 | 0:55.61 | 0 | 4185
2 | 0:55.61 | 14:40.29 | 4186 | 70214
3 | 15:36.15 | 3:28.68 | 70215 | 85882
4 | 19:05.08 | 4:51.65 | 85883 | 107772
5 | 23:56.73 | 3:23.67 | 107773 | 123064
6 | 27:20.65 | 3:28.32 | 123065 | 138696
7 | 30:49.22 | 1:33.53 | 138697 | 145724
8 | 32:23.00 | 3:18.62 | 145725 | 160636
9 | 35:41.62 | 2:59.54 | 160637 | 174115
10 | 38:41.41 | 1:57.26 | 174116 | 182916
11 | 40:38.67 | 3:45.10 | 182917 | 199801
12 | 44:24.02 | 2:27.05 | 199802 | 210831
13 | 46:51.07 | 4:41.52 | 210832 | 231958
14 | 51:32.59 | 2:23.29 | 231959 | 242712
15 | 53:56.13 | 5:15.11 | 242713 | 266348
16 | 59:11.24 | 2:50.31 | 266349 | 279129
17 | 62:01.55 | 3:01.55 | 279130 | 292759
18 | 65:03.35 | 3:06.10 | 292760 | 306719
19 | 68:09.45 | 1:27.24 | 306720 | 313268
20 | 69:36.69 | 3:55.20 | 313269 | 330913
21 | 73:32.14 | 1:53.48 | 330914 | 339436
22 | 75:25.62 | 4:17.66 | 339437 | 358777
Track 1
Filename F:\Torrents\Downloads\The Game - You Know What It Is[FLAC] -2\01 - Game , Intro.wav
Pre-gap length 0:00:02.00
Peak level 100.0 %
Track quality 100.0 %
Test CRC 9FCADDB7
Copy CRC 9FCADDB7
Track not present in AccurateRip database
Copy OK
Track 2
Filename F:\Torrents\Downloads\The Game - You Know What It Is[FLAC] -2\02 - Game , 300 Bars & Runnin'.wav
Peak level 100.0 %
Track quality 100.0 %
Test CRC 954B55A5
Copy CRC 954B55A5
Track not present in AccurateRip database
Copy OK
Track 3
Filename F:\Torrents\Downloads\The Game - You Know What It Is[FLAC] -2\03 - Game , Down.wav
Peak level 100.0 %
Track quality 100.0 %
Test CRC E8F4E00F
Copy CRC E8F4E00F
Track not present in AccurateRip database
Copy OK
Track 4
Filename F:\Torrents\Downloads\The Game - You Know What It Is[FLAC] -2\04 - Game, Rockstar, M.O.B. , Poison Bananas.wav
Peak level 100.0 %
Track quality 99.7 %
Test CRC B30FA9C7
Copy CRC F003F54B
Track not present in AccurateRip database
Copy OK
Track 5
Filename F:\Torrents\Downloads\The Game - You Know What It Is[FLAC] -2\05 - Game, T.I. , I'm A King.wav
Peak level 100.0 %
Track quality 99.9 %
Test CRC CC49CE8F
Copy CRC CC49CE8F
Track not present in AccurateRip database
Copy OK
Track 6
Filename F:\Torrents\Downloads\The Game - You Know What It Is[FLAC] -2\06 - Game , Olivia (Debut Single).wav
Peak level 79.4 %
Track quality 100.0 %
Test CRC ED1D74FE
Copy CRC ED1D74FE
Track not present in AccurateRip database
Copy OK
Track 7
Filename F:\Torrents\Downloads\The Game - You Know What It Is[FLAC] -2\07 - Game , Unot (Skit).wav
Peak level 57.5 %
Track quality 99.7 %
Test CRC BC30EE69
Copy CRC BC30EE69
Track not present in AccurateRip database
Copy OK
Track 8
Filename F:\Torrents\Downloads\The Game - You Know What It Is[FLAC] -2\08 - Game , Play The Game.wav
Peak level 97.7 %
Track quality 100.0 %
Test CRC 54028424
Copy CRC 54028424
Track not present in AccurateRip database
Copy OK
Track 9
Filename F:\Torrents\Downloads\The Game - You Know What It Is[FLAC] -2\09 - Game , Lil' Bit (Remix).wav
Peak level 100.0 %
Track quality 100.0 %
Test CRC 8B9F136E
Copy CRC 8B9F136E
Track not present in AccurateRip database
Copy OK
Track 10
Filename F:\Torrents\Downloads\The Game - You Know What It Is[FLAC] -2\10 - Game, Nas , M.O.B. Freestyle.wav
Peak level 100.0 %
Track quality 99.9 %
Test CRC 9FDDC10B
Copy CRC 9FDDC10B
Track not present in AccurateRip database
Copy OK
Track 11
Filename F:\Torrents\Downloads\The Game - You Know What It Is[FLAC] -2\11 - Game, Rockstar, M.O.B. , Why You Smell Like Dat.wav
Peak level 100.0 %
Track quality 99.9 %
Test CRC C4006E7D
Copy CRC C4006E7D
Track not present in AccurateRip database
Copy OK
Track 12
Filename F:\Torrents\Downloads\The Game - You Know What It Is[FLAC] -2\12 - Game, Sheek Louch , Street Muzik.wav
Peak level 100.0 %
Track quality 99.9 %
Test CRC 4B890DC3
Copy CRC 4B890DC3
Track not present in AccurateRip database
Copy OK
Track 13
Filename F:\Torrents\Downloads\The Game - You Know What It Is[FLAC] -2\13 - Game, Rockstar , Lyrical Exersice.wav
Peak level 100.0 %
Track quality 100.0 %
Test CRC E1827F89
Copy CRC E1827F89
Track not present in AccurateRip database
Copy OK
Track 14
Filename F:\Torrents\Downloads\The Game - You Know What It Is[FLAC] -2\14 - Game, Dr.Dre , Where I'm From.wav
Peak level 88.4 %
Track quality 100.0 %
Test CRC 167E86CE
Copy CRC 167E86CE
Track not present in AccurateRip database
Copy OK
Track 15
Filename F:\Torrents\Downloads\The Game - You Know What It Is[FLAC] -2\15 - Game , Never Be Friends.wav
Peak level 58.2 %
Track quality 100.0 %
Test CRC 5AFBCE07
Copy CRC 5AFBCE07
Track not present in AccurateRip database
Copy OK
Track 16
Filename F:\Torrents\Downloads\The Game - You Know What It Is[FLAC] -2\16 - Game, Charli 'Chuck' B'More , Swallow That Slug.wav
Peak level 90.6 %
Track quality 100.0 %
Test CRC D2FCBB93
Copy CRC D2FCBB93
Track not present in AccurateRip database
Copy OK
Track 17
Filename F:\Torrents\Downloads\The Game - You Know What It Is[FLAC] -2\17 - Game , Hate It Or Love It (Street Remix).wav
Peak level 100.0 %
Track quality 99.5 %
Test CRC 9758B9A5
Copy CRC 9758B9A5
Track not present in AccurateRip database
Copy OK
Track 18
Filename F:\Torrents\Downloads\The Game - You Know What It Is[FLAC] -2\18 - Game, W.C. , All I Need.wav
Peak level 100.0 %
Track quality 99.7 %
Test CRC 3088B68E
Copy CRC 3E167218
Track not present in AccurateRip database
Copy OK
Track 19
Filename F:\Torrents\Downloads\The Game - You Know What It Is[FLAC] -2\19 - Game, R. Kelly , Playa's Only.wav
Peak level 89.7 %
Track quality 99.8 %
Test CRC 5D48C202
Copy CRC 5D48C202
Track not present in AccurateRip database
Copy OK
Track 20
Filename F:\Torrents\Downloads\The Game - You Know What It Is[FLAC] -2\20 - Game, M.O.B. , Lay Low.wav
Peak level 100.0 %
Track quality 100.0 %
Test CRC 99507D4A
Copy CRC 99507D4A
Track not present in AccurateRip database
Copy OK
Track 21
Filename F:\Torrents\Downloads\The Game - You Know What It Is[FLAC] -2\21 - Game, Notorious B.I.G. , Dreams.wav
Peak level 100.0 %
Track quality 100.0 %
Test CRC A26DFC44
Copy CRC A26DFC44
Track not present in AccurateRip database
Copy OK
Track 22
Filename F:\Torrents\Downloads\The Game - You Know What It Is[FLAC] -2\22 - Game , Justo Faison Tribute.wav
Peak level 55.5 %
Track quality 100.0 %
Test CRC 74552B48
Copy CRC 74552B48
Track not present in AccurateRip database
Copy OK
None of the tracks are present in the AccurateRip database
No errors occurred
End of status report

2006 - Stop Snitchin', Stop Lyin

1. Into
2. We Are The Champions 1970 Somethin'
3. 120
4. Stop Talkin' To The Cops
5. Niggaz Bleed
6. Testify
7. 1970 Sumthin'
8. G-Unit Crip
9. Beach Boy
10. Not Gonna Leave
11. Above the Rim In Farmington
12. Freeze
13. AM To PM
14. My Lowrider
15. Gayo
16. Bounce Back
17. Quite
18. All I Need
19. I Told You
20. Buckest
21. Outro (Red Bandana)

EAC

Exact Audio Copy V0.99 prebeta 4 from 23. January 2008
EAC extraction logfile from 30. March 2008, 20:10
Various / Stop Snitchin', Stop Lyin'
Used drive : HL-DT-STDVDRRW GSA-H30L Adapter: 0 ID: 1
Read mode : Secure
Utilize accurate stream : Yes
Defeat audio cache : Yes
Make use of C2 pointers : No
Read offset correction : 102
Overread into Lead-In and Lead-Out : No
Fill up missing offset samples with silence : Yes
Delete leading and trailing silent blocks : No
Null samples used in CRC calculations : Yes
Used interface : Native Win32 interface for Win NT & 2000
Gap handling : Appended to previous track
Used output format : User Defined Encoder
Selected bitrate : 192 kBit/s
Quality : High
Add ID3 tag : No
Command line compressor : C:\Program Files\FLAC\flac.exe
Additional command line options : -V -8 -T "artist=%a" -T "title=%t" -T "album=%g" -T "date=%y" -T "tracknumber=%n" -T "genre=%m" %s
TOC of the extracted CD
Track | Start | Length | Start sector | End sector
---------------------------------------------------------
1 | 0:00.00 | 1:34.27 | 0 | 7076
2 | 1:34.27 | 2:02.32 | 7077 | 16258
3 | 3:36.59 | 8:53.36 | 16259 | 56269
4 | 12:30.20 | 4:38.39 | 56270 | 77158
5 | 17:08.59 | 3:44.45 | 77159 | 94003
6 | 20:53.29 | 4:36.41 | 94004 | 114744
7 | 25:29.70 | 3:24.13 | 114745 | 130057
8 | 28:54.08 | 4:48.11 | 130058 | 151668
9 | 33:42.19 | 3:21.24 | 151669 | 166767
10 | 37:03.43 | 3:23.41 | 166768 | 182033
11 | 40:27.09 | 0:35.72 | 182034 | 184730
12 | 41:03.06 | 3:47.50 | 184731 | 201805
13 | 44:50.56 | 2:03.05 | 201806 | 211035
14 | 46:53.61 | 5:18.34 | 211036 | 234919
15 | 52:12.20 | 1:24.47 | 234920 | 241266
16 | 53:36.67 | 2:25.73 | 241267 | 252214
17 | 56:02.65 | 3:57.01 | 252215 | 269990
18 | 59:59.66 | 2:24.58 | 269991 | 280848
19 | 62:24.49 | 3:30.72 | 280849 | 296670
20 | 65:55.46 | 5:58.04 | 296671 | 323524
21 | 71:53.50 | 6:39.04 | 323525 | 353453
Track 1
Filename F:\Torrents\Downloads\The Game - Stop Snitchin', Stop Lyin' -2[FLAC]\01 - Intro.wav
Pre-gap length 0:00:02.00
Peak level 100.0 %
Track quality 100.0 %
Test CRC 06F83223
Copy CRC 06F83223
Copy OK
Track 2
Filename F:\Torrents\Downloads\The Game - Stop Snitchin', Stop Lyin' -2[FLAC]\02 - We Are the Champions.wav
Peak level 100.0 %
Track quality 100.0 %
Test CRC 9CF7240C
Copy CRC 9CF7240C
Copy OK
Track 3
Filename F:\Torrents\Downloads\The Game - Stop Snitchin', Stop Lyin' -2[FLAC]\03 - 120.wav
Peak level 100.0 %
Track quality 100.0 %
Test CRC ABE78C33
Copy CRC ABE78C33
Copy OK
Track 4
Filename F:\Torrents\Downloads\The Game - Stop Snitchin', Stop Lyin' -2[FLAC]\04 - Stop Talkin' To the Cops.wav
Peak level 100.0 %
Track quality 100.0 %
Test CRC A8B873AF
Copy CRC A8B873AF
Copy OK
Track 5
Filename F:\Torrents\Downloads\The Game - Stop Snitchin', Stop Lyin' -2[FLAC]\05 - Niggaz Bleed.wav
Peak level 100.0 %
Track quality 100.0 %
Test CRC 952A6FF4
Copy CRC 952A6FF4
Copy OK
Track 6
Filename F:\Torrents\Downloads\The Game - Stop Snitchin', Stop Lyin' -2[FLAC]\06 - Testify.wav
Peak level 100.0 %
Track quality 100.0 %
Test CRC FF5AC961
Copy CRC FF5AC961
Copy OK
Track 7
Filename F:\Torrents\Downloads\The Game - Stop Snitchin', Stop Lyin' -2[FLAC]\07 - 1970 Sumthin'.wav
Peak level 100.0 %
Track quality 100.0 %
Test CRC C42E9E56
Copy CRC C42E9E56
Copy OK
Track 8
Filename F:\Torrents\Downloads\The Game - Stop Snitchin', Stop Lyin' -2[FLAC]\08 - G-Unit Crip.wav
Peak level 100.0 %
Track quality 100.0 %
Test CRC 7B9B0CB9
Copy CRC 7B9B0CB9
Copy OK
Track 9
Filename F:\Torrents\Downloads\The Game - Stop Snitchin', Stop Lyin' -2[FLAC]\09 - Beach Boy.wav
Peak level 100.0 %
Track quality 100.0 %
Test CRC F3E19562
Copy CRC F3E19562
Copy OK
Track 10
Filename F:\Torrents\Downloads\The Game - Stop Snitchin', Stop Lyin' -2[FLAC]\10 - Not Gunna Leave.wav
Peak level 100.0 %
Track quality 99.9 %
Test CRC D515B7BF
Copy CRC D515B7BF
Copy OK
Track 11
Filename F:\Torrents\Downloads\The Game - Stop Snitchin', Stop Lyin' -2[FLAC]\11 - Above the Rim In Farmington, CT.wav
Peak level 100.0 %
Track quality 100.0 %
Test CRC 54DBC146
Copy CRC 54DBC146
Copy OK
Track 12
Filename F:\Torrents\Downloads\The Game - Stop Snitchin', Stop Lyin' -2[FLAC]\12 - Freeze.wav
Peak level 100.0 %
Track quality 100.0 %
Test CRC A0B2EA25
Copy CRC A0B2EA25
Copy OK
Track 13
Filename F:\Torrents\Downloads\The Game - Stop Snitchin', Stop Lyin' -2[FLAC]\13 - AM To PM.wav
Peak level 100.0 %
Track quality 100.0 %
Test CRC 203B55BF
Copy CRC 203B55BF
Copy OK
Track 14
Filename F:\Torrents\Downloads\The Game - Stop Snitchin', Stop Lyin' -2[FLAC]\14 - My Lowrider.wav
Peak level 100.0 %
Track quality 99.9 %
Test CRC 7A2D2E88
Copy CRC 7A2D2E88
Copy OK
Track 15
Filename F:\Torrents\Downloads\The Game - Stop Snitchin', Stop Lyin' -2[FLAC]\15 - Gayo.wav
Peak level 100.0 %
Track quality 100.0 %
Test CRC 643A2263
Copy CRC 643A2263
Copy OK
Track 16
Filename F:\Torrents\Downloads\The Game - Stop Snitchin', Stop Lyin' -2[FLAC]\16 - Bounce Back.wav
Peak level 100.0 %
Track quality 100.0 %
Test CRC 21D24C4A
Copy CRC 21D24C4A
Copy OK
Track 17
Filename F:\Torrents\Downloads\The Game - Stop Snitchin', Stop Lyin' -2[FLAC]\17 - Quite.wav
Peak level 100.0 %
Track quality 100.0 %
Test CRC F6CEFA08
Copy CRC F6CEFA08
Copy OK
Track 18
Filename F:\Torrents\Downloads\The Game - Stop Snitchin', Stop Lyin' -2[FLAC]\18 - All I Need.wav
Peak level 100.0 %
Track quality 99.9 %
Test CRC 609D9C46
Copy CRC 609D9C46
Copy OK
Track 19
Filename F:\Torrents\Downloads\The Game - Stop Snitchin', Stop Lyin' -2[FLAC]\19 - I Told You.wav
Peak level 100.0 %
Track quality 100.0 %
Test CRC 1E1024CD
Copy CRC 1E1024CD
Copy OK
Track 20
Filename F:\Torrents\Downloads\The Game - Stop Snitchin', Stop Lyin' -2[FLAC]\20 - Buckest.wav
Peak level 100.0 %
Track quality 100.0 %
Test CRC F84DEC9E
Copy CRC F84DEC9E
Copy OK
Track 21
Filename F:\Torrents\Downloads\The Game - Stop Snitchin', Stop Lyin' -2[FLAC]\21 - Outro (Red Bandana).wav
Peak level 100.0 %
Track quality 100.0 %
Test CRC C727895F
Copy CRC C727895F
Copy OK
No errors occurred
End of status report

2008 - Before LAX

01 Big Dreams 4:50
02 Pain feat Keyshia Cole 4:25
03 Nigga Wit A Attitude 3:15
04 Black Wall Street Is My Click 3:07
05 Worldwide 4:00
06 Where You At feat Ray-j 2:58
07 Ghost Rider 4:23
08 Our Turn 5:06
09 I Might Be 4:21
10 Self feat Nelly & KRS-One 1:13
11 On Fire feat Juice 3:52
12 Sprung On A Thug 3:57
13 What You Wanna Do? feat Krayzie Bone 2:42
14 Recognize A Boss 3:36
15 I Think We Got A Problem feat Sheek Louch & Bun.B 3:37
16 Luv Me No More feat Jim Jones 3:56
17 What's Going On feat Marsha Ambrosius 4:19
18 Love's Highway feat Mario Winans 2:47
19 Big Dreams (Back Wall Street Remix) feat Juice & Ya Boy 4:48

EAC

Exact Audio Copy V0.99 prebeta 4 from 23. January 2008
EAC extraction logfile from 12. November 2008, 14:23
The Game / Before L.A.X.
Used drive : HL-DT-STDVDRAM GMA-4082N Adapter: 0 ID: 0
Read mode : Secure
Utilize accurate stream : Yes
Defeat audio cache : Yes
Make use of C2 pointers : No
Read offset correction : 667
Overread into Lead-In and Lead-Out : No
Fill up missing offset samples with silence : Yes
Delete leading and trailing silent blocks : No
Null samples used in CRC calculations : Yes
Used interface : Native Win32 interface for Win NT & 2000
Gap handling : Appended to previous track
Used output format : User Defined Encoder
Selected bitrate : 128 kBit/s
Quality : High
Add ID3 tag : No
Command line compressor : C:\Program Files\Exact Audio Copy\Flac\flac.exe
Additional command line options : -V -8 -T "artist=%a" -T "title=%t" -T "album=%g" -T "date=%y" -T "tracknumber=%n" -T "genre=%m" %s
TOC of the extracted CD
Track | Start | Length | Start sector | End sector
---------------------------------------------------------
1 | 0:00.00 | 4:50.69 | 0 | 21818
2 | 4:50.69 | 4:25.57 | 21819 | 41750
3 | 9:16.51 | 3:15.61 | 41751 | 56436
4 | 12:32.37 | 3:07.61 | 56437 | 70522
5 | 15:40.23 | 4:00.65 | 70523 | 88587
6 | 19:41.13 | 2:58.01 | 88588 | 101938
7 | 22:39.14 | 4:23.68 | 101939 | 121731
8 | 27:03.07 | 5:06.39 | 121732 | 144720
9 | 32:09.46 | 4:21.46 | 144721 | 164341
10 | 36:31.17 | 1:13.22 | 164342 | 169838
11 | 37:44.39 | 3:52.24 | 169839 | 187262
12 | 41:36.63 | 3:57.20 | 187263 | 205057
13 | 45:34.08 | 2:42.35 | 205058 | 217242
14 | 48:16.43 | 3:36.22 | 217243 | 233464
15 | 51:52.65 | 3:36.74 | 233465 | 249738
16 | 55:29.64 | 3:56.56 | 249739 | 267494
17 | 59:26.45 | 4:19.37 | 267495 | 286956
18 | 63:46.07 | 2:47.03 | 286957 | 299484
19 | 66:33.10 | 4:48.33 | 299485 | 321117
Track 1
Filename C:\EACRips\The Game - 2008 - Before L.A.X\01 - Big Dreams.wav
Pre-gap length 0:00:02.00
Peak level 100.0 %
Track quality 100.0 %
Test CRC EA7ABB1D
Copy CRC EA7ABB1D
Copy OK
Track 2
Filename C:\EACRips\The Game - 2008 - Before L.A.X\02 - Game's Pain.wav
Peak level 100.0 %
Track quality 100.0 %
Test CRC E692986D
Copy CRC E692986D
Copy OK
Track 3
Filename C:\EACRips\The Game - 2008 - Before L.A.X\03 - Nigga Wit A Attitude.wav
Peak level 100.0 %
Track quality 100.0 %
Test CRC A398CC56
Copy CRC A398CC56
Copy OK
Track 4
Filename C:\EACRips\The Game - 2008 - Before L.A.X\04 - Black Wallstreet Is My Click.wav
Peak level 100.0 %
Track quality 100.0 %
Test CRC C5CC3504
Copy CRC C5CC3504
Copy OK
Track 5
Filename C:\EACRips\The Game - 2008 - Before L.A.X\05 - Worldwide.wav
Peak level 100.0 %
Track quality 100.0 %
Test CRC 3C1E17E2
Copy CRC 3C1E17E2
Copy OK
Track 6
Filename C:\EACRips\The Game - 2008 - Before L.A.X\06 - Where You At (ft. Ray-J).wav
Peak level 100.0 %
Track quality 100.0 %
Test CRC 9DBC189F
Copy CRC 9DBC189F
Copy OK
Track 7
Filename C:\EACRips\The Game - 2008 - Before L.A.X\07 - Ghost Rider.wav
Peak level 100.0 %
Track quality 100.0 %
Test CRC F11D6AF9
Copy CRC F11D6AF9
Copy OK
Track 8
Filename C:\EACRips\The Game - 2008 - Before L.A.X\08 - Our Turn.wav
Peak level 100.0 %
Track quality 99.9 %
Test CRC 51E09EB0
Copy CRC 51E09EB0
Copy OK
Track 9
Filename C:\EACRips\The Game - 2008 - Before L.A.X\09 - I Might Be.wav
Peak level 100.0 %
Track quality 100.0 %
Test CRC 89D38B52
Copy CRC 89D38B52
Copy OK
Track 10
Filename C:\EACRips\The Game - 2008 - Before L.A.X\10 - Seelf (ft. Nelly & KRS-One).wav
Peak level 100.0 %
Track quality 100.0 %
Test CRC EE66129C
Copy CRC EE66129C
Copy OK
Track 11
Filename C:\EACRips\The Game - 2008 - Before L.A.X\11 - On Fire (ft. Juice).wav
Peak level 100.0 %
Track quality 100.0 %
Test CRC 2CD1A7BD
Copy CRC 2CD1A7BD
Copy OK
Track 12
Filename C:\EACRips\The Game - 2008 - Before L.A.X\12 - Sprung On A Thug.wav
Peak level 100.0 %
Track quality 100.0 %
Test CRC FF59FA98
Copy CRC FF59FA98
Copy OK
Track 13
Filename C:\EACRips\The Game - 2008 - Before L.A.X\13 - What You Wanna Do .wav
Peak level 100.0 %
Track quality 100.0 %
Test CRC A56F5FE5
Copy CRC A56F5FE5
Copy OK
Track 14
Filename C:\EACRips\The Game - 2008 - Before L.A.X\14 - Recognize A Boss.wav
Peak level 100.0 %
Track quality 100.0 %
Test CRC 1157D83A
Copy CRC 1157D83A
Copy OK
Track 15
Filename C:\EACRips\The Game - 2008 - Before L.A.X\15 - I Think We Got A Problem (ft. Sheek Louch & Bun B).wav
Peak level 100.0 %
Track quality 100.0 %
Test CRC 1766FEA4
Copy CRC 1766FEA4
Copy OK
Track 16
Filename C:\EACRips\The Game - 2008 - Before L.A.X\16 - Luv Me No More (ft. Jim Jones).wav
Peak level 100.0 %
Track quality 99.9 %
Test CRC 1A99707A
Copy CRC 1A99707A
Copy OK
Track 17
Filename C:\EACRips\The Game - 2008 - Before L.A.X\17 - What's Going On (ft. Marsha Ambrosius).wav
Peak level 84.4 %
Track quality 100.0 %
Test CRC 229649CA
Copy CRC 229649CA
Copy OK
Track 18
Filename C:\EACRips\The Game - 2008 - Before L.A.X\18 - Love's Highway (ft. Mario Winans).wav
Peak level 100.0 %
Track quality 99.9 %
Test CRC 129E056B
Copy CRC 129E056B
Copy OK
Track 19
Filename C:\EACRips\The Game - 2008 - Before L.A.X\19 - Big Dreams (Blackwall Street Remix) (ft. Juice & Ya Boy).wav
Peak level 100.0 %
Track quality 100.0 %
Test CRC 06BF554B
Copy CRC 06BF554B
Copy OK
No errors occurred
End of status report

2008 - The Street King

1. Street Kings Movie (Intro)
2. The Game feat. Black Wall Street - Our Turn
3. The Game - Where You At
4. The Game feat. Sheek Louch - Think We Got A Problem
5. The Game - I'm A Boss (New)
6. The Game feat. Juice & Ya Boy - Big Dreams (Remix)
7. The Game - Ghost Writer
8. The Game - Dead Bodie
9. The Game - Westside Story
10. The Game - Westside Story (Live)
11. The Game feat. Sean Kingston - Colors 07
12. The Game - Body Bags
13. Street Kings Move (Interlude)
14. The Game feat. Dogg Pound - Anybody Killa
15. The Game feat. Nas - Hustlers
16. The Game - Not Gonna Leave
17. The Game - Southside
18. The Game - My Bitch
19. The Game - Runnin'
20. The Game - Where I'm From
21. The Game - Start From Scratch
22. The Game feat. Dion - Ol' English
23. Street Kings Movie (Outro)
24. The Game feat. Hip-Hop - One Blood (Remix)

EAC

Exact Audio Copy V0.99 prebeta 4 from 23. January 2008
EAC extraction logfile from 9. September 2008, 19:47
The Game / The Street King
Used drive : TSSTcorpCD/DVDW SH-S182M Adapter: 0 ID: 0
Read mode : Secure
Utilize accurate stream : Yes
Defeat audio cache : No
Make use of C2 pointers : No
Read offset correction : 6
Overread into Lead-In and Lead-Out : No
Fill up missing offset samples with silence : Yes
Delete leading and trailing silent blocks : No
Null samples used in CRC calculations : Yes
Used interface : Native Win32 interface for Win NT & 2000
Gap handling : Appended to previous track
Used output format : User Defined Encoder
Selected bitrate : 128 kBit/s
Quality : High
Add ID3 tag : No
Command line compressor : C:\Program Files (x86)\Exact Audio Copy\Flac\flac.exe
Additional command line options : -V -8 -T "artist=%a" -T "title=%t" -T "album=%g" -T "date=%y" -T "tracknumber=%n" -T "genre=%m" %s
TOC of the extracted CD
Track | Start | Length | Start sector | End sector
---------------------------------------------------------
1 | 0:00.00 | 1:18.11 | 0 | 5860
2 | 1:18.11 | 5:28.09 | 5861 | 30469
3 | 6:46.20 | 2:01.57 | 30470 | 39601
4 | 8:48.02 | 2:09.39 | 39602 | 49315
5 | 10:57.41 | 1:51.65 | 49316 | 57705
6 | 12:49.31 | 4:08.14 | 57706 | 76319
7 | 16:57.45 | 2:00.30 | 76320 | 85349
8 | 18:58.00 | 2:12.59 | 85350 | 95308
9 | 21:10.59 | 1:28.20 | 95309 | 101928
10 | 22:39.04 | 2:25.50 | 101929 | 112853
11 | 25:04.54 | 4:09.47 | 112854 | 131575
12 | 29:14.26 | 4:26.43 | 131576 | 151568
13 | 33:40.69 | 0:27.26 | 151569 | 153619
14 | 34:08.20 | 4:05.04 | 153620 | 171998
15 | 38:13.24 | 3:32.03 | 171999 | 187901
16 | 41:45.27 | 3:38.47 | 187902 | 204298
17 | 45:23.74 | 2:52.04 | 204299 | 217202
18 | 48:16.03 | 3:29.51 | 217203 | 232928
19 | 51:45.54 | 4:07.67 | 232929 | 251520
20 | 55:53.46 | 2:48.04 | 251521 | 264124
21 | 58:41.50 | 3:47.05 | 264125 | 281154
22 | 62:28.55 | 4:43.41 | 281155 | 302420
23 | 67:12.21 | 0:40.22 | 302421 | 305442
24 | 67:52.43 | 11:48.02 | 305443 | 358544
Track 1
Filename ...\01 - Street Kings Movie (Intro).wav
Pre-gap length 0:00:02.00
Peak level 100.0 %
Track quality 100.0 %
Test CRC CCD42D0C
Copy CRC CCD42D0C
Track not present in AccurateRip database
Copy OK
Track 2
Filename ...\02 - Our Turn (feat. Black Wall Street, Southside & Power).wav
Peak level 100.0 %
Track quality 100.0 %
Test CRC FBB435B5
Copy CRC FBB435B5
Track not present in AccurateRip database
Copy OK
Track 3
Filename ...\03 - Where You At.wav
Peak level 100.0 %
Track quality 100.0 %
Test CRC DF78DE19
Copy CRC DF78DE19
Track not present in AccurateRip database
Copy OK
Track 4
Filename ...\04 - Think We Got A Problem (feat. Sheek Louch).wav
Peak level 100.0 %
Track quality 99.9 %
Test CRC 90D7BB78
Copy CRC 90D7BB78
Track not present in AccurateRip database
Copy OK
Track 5
Filename ...\05 - I'm A Boss.wav
Peak level 100.0 %
Track quality 100.0 %
Test CRC 6E9E6143
Copy CRC 6E9E6143
Track not present in AccurateRip database
Copy OK
Track 6
Filename ...\06 - Big Dreams (Remix) (feat. Juice & Ya Boy).wav
Peak level 100.0 %
Track quality 100.0 %
Test CRC BF5BBED8
Copy CRC BF5BBED8
Track not present in AccurateRip database
Copy OK
Track 7
Filename ...\07 - Ghost Writer.wav
Peak level 100.0 %
Track quality 100.0 %
Test CRC D3559449
Copy CRC D3559449
Track not present in AccurateRip database
Copy OK
Track 8
Filename ...\08 - Dead Bodies.wav
Peak level 100.0 %
Track quality 100.0 %
Test CRC E304425D
Copy CRC E304425D
Track not present in AccurateRip database
Copy OK
Track 9
Filename ...\09 - Westside Story.wav
Peak level 100.0 %
Track quality 100.0 %
Test CRC B5814ECD
Copy CRC B5814ECD
Track not present in AccurateRip database
Copy OK
Track 10
Filename ...\10 - Westside Story (Live).wav
Peak level 100.0 %
Track quality 100.0 %
Test CRC AD0FBB97
Copy CRC AD0FBB97
Track not present in AccurateRip database
Copy OK
Track 11
Filename ...\11 - Colors 07 (feat. Sean Kingston).wav
Peak level 98.1 %
Track quality 100.0 %
Test CRC 3039CDBC
Copy CRC 3039CDBC
Track not present in AccurateRip database
Copy OK
Track 12
Filename ...\12 - Body Bags.wav
Peak level 100.0 %
Track quality 100.0 %
Test CRC A4845C65
Copy CRC A4845C65
Track not present in AccurateRip database
Copy OK
Track 13
Filename ...\13 - Street Kings Move (Interlude).wav
Peak level 93.5 %
Track quality 100.0 %
Test CRC E5AEC53C
Copy CRC E5AEC53C
Track not present in AccurateRip database
Copy OK
Track 14
Filename ...\14 - Anybody Killa (feat. Dogg Pound).wav
Peak level 100.0 %
Track quality 99.9 %
Test CRC 39B606AC
Copy CRC 39B606AC
Track not present in AccurateRip database
Copy OK
Track 15
Filename ...\15 - Hustlers (feat. Nas).wav
Peak level 99.9 %
Track quality 100.0 %
Test CRC D9E9FB07
Copy CRC D9E9FB07
Track not present in AccurateRip database
Copy OK
Track 16
Filename ...\16 - Not Gonna Leave.wav
Peak level 100.0 %
Track quality 100.0 %
Test CRC D2E8D212
Copy CRC D2E8D212
Track not present in AccurateRip database
Copy OK
Track 17
Filename ...\17 - Southside.wav
Peak level 100.0 %
Track quality 100.0 %
Test CRC F9A7061C
Copy CRC F9A7061C
Track not present in AccurateRip database
Copy OK
Track 18
Filename ...\18 - My Bitch.wav
Peak level 100.0 %
Track quality 100.0 %
Test CRC 30BFEB17
Copy CRC 30BFEB17
Track not present in AccurateRip database
Copy OK
Track 19
Filename ...\19 - Runnin'.wav
Peak level 100.0 %
Track quality 100.0 %
Test CRC FD8F6695
Copy CRC FD8F6695
Track not present in AccurateRip database
Copy OK
Track 20
Filename ...\20 - Where I'm From.wav
Peak level 100.0 %
Track quality 100.0 %
Test CRC E25A3149
Copy CRC E25A3149
Track not present in AccurateRip database
Copy OK
Track 21
Filename ...\21 - Start From Scratch.wav
Peak level 100.0 %
Track quality 100.0 %
Test CRC 15A36461
Copy CRC 15A36461
Track not present in AccurateRip database
Copy OK
Track 22
Filename ...\22 - Ol' English (feat. Dion).wav
Peak level 100.0 %
Track quality 100.0 %
Test CRC 321AB070
Copy CRC 321AB070
Track not present in AccurateRip database
Copy OK
Track 23
Filename ...\23 - Street Kings Movie (Outro).wav
Peak level 91.6 %
Track quality 100.0 %
Test CRC 88DA51A0
Copy CRC 88DA51A0
Track not present in AccurateRip database
Copy OK
Track 24
Filename ...\24 - One Blood (Remix) (feat. Hip-Hop).wav
Peak level 100.0 %
Track quality 100.0 %
Test CRC ABACC577
Copy CRC ABACC577
Track not present in AccurateRip database
Copy OK
None of th

Создавать темы 27-Июн-2014 19:11

[Профиль]  [ЛС] 
Показать сообщения:    
Ответить на тему

Текущее время: 25-Сен 20:23

Часовой пояс: UTC + 5



Вы не можете начинать темы
Вы не можете отвечать на сообщения
Вы не можете редактировать свои сообщения
Вы не можете удалять свои сообщения
Вы не можете голосовать в опросах
Вы не можете прикреплять файлы к сообщениям
Вы не можете скачивать файлы