Цунами / Tsunami: The Aftermath (Бхарат Наллури) [2006 г., драма, ..., DVDRip]

Ответить на тему
 

igor1968 ®

Стаж: 5 лет 5 месяцев

Сообщений: 366

Симпатии: 197

Цунами / Tsunami: The Aftermath Год выпуска: 2006
Страна:
Жанр: драма, ...
Продолжительность: 2~1.30
Перевод: Профессиональный (двухголосый)
Субтитры:русские-английские (убираемые)
Режиссер: Бхарат Наллури
В ролях: Тим Рот, Чивител Эджофор, Софи Оконедо, Хью Бонневилль, Джина МакКи, Тони Коллетт, Кейт Эшфилд, Ор Атика, Леон Форд, Морган Дэвид Джонс, Яцек Коман, Уилл Юн Ли, Джордж МакКей, Оуэн Тил
История о личных потерях, выживании и надежде нескольких людей. Ян и Сьюзи Картер — молодая пара, которая ищет свою шестилетнюю дочь Марту, пропавшую во время цунами. В то же время, Ким Пибоди и ее сын Адам ищут Джеймса (их мужа и отца) и Джона (сына Ким, старшего брата Адама). Тхана, тайский официант, должен справиться с потерей своей семьи и целой деревни.
Помимо этих пострадавших, есть несколько чиновников, пытающихся справиться с ситуацией: Тони Уиттакер, чьи вера в силу бюрократизма становится серьезным испытанием. Кэти Грэм, работник Христианской благотворительной компании пытается помочь людям, насколько это возможно. И наконец, Ник Фрейзер, журналист, который расследует причины отсутствия прогноза уже после катастрофы.- -

Рецензии

Фильм практически не отражает величины произошедшей трагедии. Минимальные документальные врезки видео записей на камеру очевидцев в картину в первой части являются показателем недостачи денег и вообще плохой организации по воссозданию тех 3-х минут природной катастрофы, которая за это короткое время унесла около 300 000 жизней по всем побережьям Индийского океана.
Можно было сказать, что техническая сторона темы была неважна, а стремление было направлено на трагедию трех семей и еще пару историй отчисленного журналиста в роле Тима Рота и британского консула, проводившего никчемную работу по оказанию помощи граждан своей страны. Но и здесь все истории булькали как пузыри и в мгновение рассыпались. Из которых с натягом до конца была доведена только история пары, потерявшей свою дочь, до последнего хранивших веру в ее спасение. Но это ведь всего лишь вера.
У фильма было 2 года на создание убийственной истории о контрастном взаимодействии райского места с катастрофическим мертвым местом на примере пляжей и людей, которые ехали с разных мест, чтобы отдаться океанскому блаженству. Но сделано этого не было. Первые минуты довольно мягко описывают спокойную атмосферу вечером-утром, предшествующую цунами. Но ряд тонких моментов, которые могли бы зрителя заставить волноваться и внутри нагнетать ощущение страха за тех людей и за себя как участника, учтены не были. Моменты с отошедшей береговой линией на несколько десятков метров, с более акцентирующими съемками поведения животных, некоторых людей, сделали бы первые минуты более резкими.
Далее в ходе всей картины режиссер постоянно приводит зрителя к месту, по-видимому, наибольших жертв в Таиланде — Khao Lak и рядом расположенные острова Phuket и Phi Phi. Размеров трагедии снова не чувствуется. Зато режиссеру захотелось выделиться и он решил подвесить за ногу на столб мертвую женщину, тогда как тела были повсюду и друг на друге и картина была не пугающей, как это показано, а ужасающей.
Несмотря на то, что подобного рода катастрофы с большим числом жертв без специальных эффектов описать сложно, фильм больше отталкивает лицемерием (ведь он был о реальной истории в жизни человечества), чем плохой документальностью и скучнейшим сюжетом.
-Качество: DVDRip
Формат: AVI
Видео кодек: XviD
Аудио кодек: MPEG Audio
Видео:1~ 624x352 (1.77:1), 25 fps, XviD build 50 ~992 kbps avg, 0.18 bit/pixel 2~624x352 (1.77:1), 25 fps, XviD build 50 ~1072 kbps avg, 0.20 bit/pixel
Аудио:1~ 48 kHz, MPEG Layer 3, 2 ch, ~128.00 kbps avg
2~48 kHz, MPEG Layer 3, 2 ch, ~128.00 kbps avg-

MediaInfo-1-2

MediaInfo -1

General
Complete name : Tsunami_2x745\Tsunami_745_1s.avi
Format : AVI
Format/Info : Audio Video Interleave
File size : 745 MiB
Duration : 1h 32mn
Overall bit rate : 1 130 Kbps
Writing application : VirtualDubModRus 1.5.10.2 (build 2542/release)
Writing library : VirtualDubMod build 2542/release
Video
ID : 0
Format : MPEG-4 Visual
Format profile : Advanced [email protected]
Format settings, BVOP : Yes
Format settings, QPel : No
Format settings, GMC : No warppoints
Format settings, Matrix : Custom
Codec ID : XVID
Codec ID/Hint : XviD
Duration : 1h 32mn
Bit rate : 993 Kbps
Width : 624 pixels
Height : 352 pixels
Display aspect ratio : 16:9
Frame rate : 25.000 fps
Color space : YUV
Chroma subsampling : 4:2:0
Bit depth : 8 bits
Scan type : Progressive
Compression mode : Lossy
Bits/(Pixel*Frame) : 0.181
Stream size : 655 MiB (88%)
Writing library : XviD 1.2.1 (UTC 2008-12-04)
Audio
ID : 1
Format : MPEG Audio
Format version : Version 1
Format profile : Layer 3
Mode : Joint stereo
Codec ID : 55
Codec ID/Hint : MP3
Duration : 1h 32mn
Bit rate mode : Constant
Bit rate : 128 Kbps
Channel count : 2 channels
Sampling rate : 48.0 KHz
Compression mode : Lossy
Stream size : 84.4 MiB (11%)
Alignment : Aligned on interleaves
Interleave, duration : 40 ms (1.00 video frame)
Interleave, preload duration : 504 ms

MediaInfo - 2

General
Complete name : Tsunami_2x745\Tsunami_745_2s.avi
Format : AVI
Format/Info : Audio Video Interleave
File size : 746 MiB
Duration : 1h 26mn
Overall bit rate : 1 210 Kbps
Writing application : VirtualDubModRus 1.5.10.2 (build 2542/release)
Writing library : VirtualDubMod build 2542/release
Video
ID : 0
Format : MPEG-4 Visual
Format profile : Advanced [email protected]
Format settings, BVOP : Yes
Format settings, QPel : No
Format settings, GMC : No warppoints
Format settings, Matrix : Custom
Codec ID : XVID
Codec ID/Hint : XviD
Duration : 1h 26mn
Bit rate : 1 073 Kbps
Width : 624 pixels
Height : 352 pixels
Display aspect ratio : 16:9
Frame rate : 25.000 fps
Color space : YUV
Chroma subsampling : 4:2:0
Bit depth : 8 bits
Scan type : Progressive
Compression mode : Lossy
Bits/(Pixel*Frame) : 0.195
Stream size : 661 MiB (89%)
Writing library : XviD 1.2.1 (UTC 2008-12-04)
Audio
ID : 1
Format : MPEG Audio
Format version : Version 1
Format profile : Layer 3
Mode : Joint stereo
Codec ID : 55
Codec ID/Hint : MP3
Duration : 1h 26mn
Bit rate mode : Constant
Bit rate : 128 Kbps
Channel count : 2 channels
Sampling rate : 48.0 KHz
Compression mode : Lossy
Stream size : 78.9 MiB (11%)
Alignment : Aligned on interleaves
Interleave, duration : 40 ms (1.00 video frame)
Interleave, preload duration : 504 ms
- - - -

Создавать темы 27-Июн-2014 19:31

[Профиль]  [ЛС] 

Итачи

Стаж: 5 лет 6 месяцев

Сообщений: 98

Симпатии: 1

Было бы здорово, если бы это был фильм, которыи смотрел когда-то давно.

_________________
Подпись отключена за нарушение правил форума

Создавать темы 27-Июн-2014 20:52

[Профиль]  [ЛС] 
Показать сообщения:    
Ответить на тему

Текущее время: 24-Авг 04:26

Часовой пояс: UTC + 5



Вы не можете начинать темы
Вы не можете отвечать на сообщения
Вы не можете редактировать свои сообщения
Вы не можете удалять свои сообщения
Вы не можете голосовать в опросах
Вы не можете прикреплять файлы к сообщениям
Вы не можете скачивать файлы