(Hip-Hop) Drake / Nothing Was The Same - [Best Buy Deluxe Edition] - 2013, FLAC (tracks), lossless

Ответить на тему
 

llewellys ®

Стаж: 4 года 11 месяцев

Сообщений: 41

Симпатии: 4

Drake / Nothing Was The Same - [Best Buy Deluxe Edition]
Страна: США
Жанр: Hip-Hop
Год выпуска: 2013
Формат: FLAC (tracks)
Битрейт аудио: lossless
Продолжительность: 01:07:57
Трэклист:
01. Tuscan Leather (6:06)
02. Furthest Thing (4:27)
03. Started From the Bottom (2:53)
04. Wu-Tang Forever (3:37)
05. Own It (4:11)
06. Worst Behavior (4:30)
07. From Time (feat. Jhené Aiko) (5:22)
08. Hold On, We're Going Home (feat. Majid Jordan) (3:51)
09. Connect (4:56)
10. The Language (3:44)
11. 305 to My City (feat. Detail) (4:15)
12. Too Much (feat. Sampha) (4:21)
13. Pound Cake / Paris Morton Music 2 (feat. Jay Z) (7:13)
14. Come Thru (3:56)
15. All Me (feat. 2 Chainz & Big Sean) (4:31)
Best Buy Bonus Track:
16. The Motion (feat. Sampha) (4:05)

Лог создания рипа

Exact Audio Copy V1.0 beta 2 from 29. April 2011
EAC extraction logfile from 24. September 2013, 10:48
Drake / Nothing Was The Same
Used drive : ATAPI iHAS224 A Adapter: 3 ID: 0
Read mode : Secure
Utilize accurate stream : Yes
Defeat audio cache : Yes
Make use of C2 pointers : No
Read offset correction : 6
Overread into Lead-In and Lead-Out : No
Fill up missing offset samples with silence : Yes
Delete leading and trailing silent blocks : No
Null samples used in CRC calculations : Yes
Used interface : Native Win32 interface for Win NT & 2000
Gap handling : Appended to previous track
Used output format : User Defined Encoder
Selected bitrate : 320 kBit/s
Quality : High
Add ID3 tag : No
Command line compressor : C:\Program Files (x86)\Exact Audio Copy\Flac\flac.exe
Additional command line options : -V -8 -T "artist=%albumartist%" -T "title=%title%" -T "album=%albumtitle%" -T "date=%year%" -T "tracknumber=%tracknr%" -T "genre=%genre%" %source%
TOC of the extracted CD
Track | Start | Length | Start sector | End sector
---------------------------------------------------------
1 | 0:00.00 | 6:06.30 | 0 | 27479
2 | 6:06.30 | 4:27.28 | 27480 | 47532
3 | 10:33.58 | 2:54.09 | 47533 | 60591
4 | 13:27.67 | 3:37.45 | 60592 | 76911
5 | 17:05.37 | 4:12.04 | 76912 | 95815
6 | 21:17.41 | 4:30.15 | 95816 | 116080
7 | 25:47.56 | 5:22.12 | 116081 | 140242
8 | 31:09.68 | 3:47.66 | 140243 | 157333
9 | 34:57.59 | 4:56.30 | 157334 | 179563
10 | 39:54.14 | 3:44.03 | 179564 | 196366
11 | 43:38.17 | 4:15.62 | 196367 | 215553
12 | 47:54.04 | 4:21.65 | 215554 | 235193
13 | 52:15.69 | 7:13.60 | 235194 | 267728
14 | 59:29.54 | 3:56.27 | 267729 | 285455
15 | 63:26.06 | 4:31.43 | 285456 | 305823
16 | 67:57.49 | 4:01.00 | 305824 | 323898
Track 1
Filename E:\FLAC\Drake-Nothing Was The Same\01 Tuscan Leather.wav
Pre-gap length 0:00:02.00
Peak level 100.0 %
Extraction speed 4.0 X
Track quality 100.0 %
Test CRC 075C316D
Copy CRC 075C316D
Track not present in AccurateRip database
Copy OK
Track 2
Filename E:\FLAC\Drake-Nothing Was The Same\02 Furthest Thing.wav
Peak level 100.0 %
Extraction speed 4.4 X
Track quality 100.0 %
Test CRC 8DEB187E
Copy CRC 8DEB187E
Track not present in AccurateRip database
Copy OK
Track 3
Filename E:\FLAC\Drake-Nothing Was The Same\03 Started From The Bottom.wav
Peak level 99.9 %
Extraction speed 4.4 X
Track quality 100.0 %
Test CRC 2AF51A33
Copy CRC 2AF51A33
Track not present in AccurateRip database
Copy OK
Track 4
Filename E:\FLAC\Drake-Nothing Was The Same\04 Wu-Tang Forever.wav
Peak level 100.0 %
Extraction speed 4.8 X
Track quality 100.0 %
Test CRC C1D6CEA6
Copy CRC C1D6CEA6
Track not present in AccurateRip database
Copy OK
Track 5
Filename E:\FLAC\Drake-Nothing Was The Same\05 Own It.wav
Peak level 99.6 %
Extraction speed 5.2 X
Track quality 100.0 %
Test CRC F19E5E46
Copy CRC F19E5E46
Track not present in AccurateRip database
Copy OK
Track 6
Filename E:\FLAC\Drake-Nothing Was The Same\06 Worst Behavior.wav
Peak level 99.2 %
Extraction speed 5.4 X
Track quality 100.0 %
Test CRC A894AC5A
Copy CRC A894AC5A
Track not present in AccurateRip database
Copy OK
Track 7
Filename E:\FLAC\Drake-Nothing Was The Same\07 From Time (Feat. Jhene Aiko).wav
Peak level 99.5 %
Extraction speed 5.8 X
Track quality 100.0 %
Test CRC 73EA7F87
Copy CRC 73EA7F87
Track not present in AccurateRip database
Copy OK
Track 8
Filename E:\FLAC\Drake-Nothing Was The Same\08 Hold On, We're Going Home (Feat. Majid Jordan).wav
Peak level 100.0 %
Extraction speed 5.9 X
Track quality 100.0 %
Test CRC 1FF561BF
Copy CRC 1FF561BF
Track not present in AccurateRip database
Copy OK
Track 9
Filename E:\FLAC\Drake-Nothing Was The Same\09 Connect.wav
Peak level 99.8 %
Extraction speed 6.4 X
Track quality 100.0 %
Test CRC 6D9DA04C
Copy CRC 6D9DA04C
Track not present in AccurateRip database
Copy OK
Track 10
Filename E:\FLAC\Drake-Nothing Was The Same\10 The Language.wav
Peak level 99.6 %
Extraction speed 6.3 X
Track quality 100.0 %
Test CRC D223BC0C
Copy CRC D223BC0C
Track not present in AccurateRip database
Copy OK
Track 11
Filename E:\FLAC\Drake-Nothing Was The Same\11 305 To My City (Feat. Detail).wav
Peak level 99.6 %
Extraction speed 6.6 X
Track quality 100.0 %
Test CRC 1A55BB9E
Copy CRC 1A55BB9E
Track not present in AccurateRip database
Copy OK
Track 12
Filename E:\FLAC\Drake-Nothing Was The Same\12 Too Much.wav
Peak level 99.7 %
Extraction speed 6.8 X
Track quality 100.0 %
Test CRC 53EC67F7
Copy CRC 53EC67F7
Track not present in AccurateRip database
Copy OK
Track 13
Filename E:\FLAC\Drake-Nothing Was The Same\13 Pound Cake,Paris Morton Music 2 (Feat. Jay-Z).wav
Peak level 99.6 %
Extraction speed 7.5 X
Track quality 100.0 %
Test CRC 1135E570
Copy CRC 1135E570
Track not present in AccurateRip database
Copy OK
Track 14
Filename E:\FLAC\Drake-Nothing Was The Same\14 Come Thru.wav
Peak level 99.9 %
Extraction speed 5.8 X
Track quality 99.9 %
Test CRC 373666CE
Copy CRC 373666CE
Track not present in AccurateRip database
Copy OK
Track 15
Filename E:\FLAC\Drake-Nothing Was The Same\15 All Me (Feat. 2 Chainz & Big Sean).wav
Peak level 99.8 %
Extraction speed 6.1 X
Track quality 99.9 %
Test CRC F23EE361
Copy CRC F23EE361
Track not present in AccurateRip database
Copy OK
Track 16
Filename E:\FLAC\Drake-Nothing Was The Same\16 The Motion.wav
Peak level 100.0 %
Extraction speed 6.0 X
Track quality 99.9 %
Test CRC 1F53FC10
Copy CRC 1F53FC10
Track not present in AccurateRip database
Copy OK
None of the tracks are present in the AccurateRip database
No errors occurred
End of status report
==== Log checksum AD49C9841223499280C6F5714660E17C2FB2670893D390E123F90A06ACB42D48 ====

Содержание индексной карты (.CUE)

REM GENRE Hip-Hop
REM DATE 2013
REM DISCID 0210DE10
REM COMMENT "ExactAudioCopy v1.0b2"
FILE "Drake-Nothing Was The Same\01 Tuscan Leather.wav" WAVE
TRACK 01 AUDIO
FLAGS DCP
INDEX 01 00:00:00
FILE "Drake-Nothing Was The Same\02 Furthest Thing.wav" WAVE
TRACK 02 AUDIO
FLAGS DCP
INDEX 01 00:00:00
FILE "Drake-Nothing Was The Same\03 Started From The Bottom.wav" WAVE
TRACK 03 AUDIO
FLAGS DCP
INDEX 01 00:00:00
FILE "Drake-Nothing Was The Same\04 Wu-Tang Forever.wav" WAVE
TRACK 04 AUDIO
FLAGS DCP
INDEX 01 00:00:00
FILE "Drake-Nothing Was The Same\05 Own It.wav" WAVE
TRACK 05 AUDIO
FLAGS DCP
INDEX 01 00:00:00
FILE "Drake-Nothing Was The Same\06 Worst Behavior.wav" WAVE
TRACK 06 AUDIO
FLAGS DCP
INDEX 01 00:00:00
FILE "Drake-Nothing Was The Same\07 From Time (Feat. Jhene Aiko).wav" WAVE
TRACK 07 AUDIO
FLAGS DCP
INDEX 01 00:00:00
FILE "Drake-Nothing Was The Same\08 Hold On, We're Going Home (Feat. Majid Jordan).wav" WAVE
TRACK 08 AUDIO
FLAGS DCP
INDEX 01 00:00:00
FILE "Drake-Nothing Was The Same\09 Connect.wav" WAVE
TRACK 09 AUDIO
FLAGS DCP
INDEX 01 00:00:00
FILE "Drake-Nothing Was The Same\10 The Language.wav" WAVE
TRACK 10 AUDIO
FLAGS DCP
INDEX 01 00:00:00
FILE "Drake-Nothing Was The Same\11 305 To My City (Feat. Detail).wav" WAVE
TRACK 11 AUDIO
FLAGS DCP
INDEX 01 00:00:00
FILE "Drake-Nothing Was The Same\12 Too Much.wav" WAVE
TRACK 12 AUDIO
FLAGS DCP
INDEX 01 00:00:00
FILE "Drake-Nothing Was The Same\13 Pound Cake,Paris Morton Music 2 (Feat. Jay-Z).wav" WAVE
TRACK 13 AUDIO
FLAGS DCP
INDEX 01 00:00:00
FILE "Drake-Nothing Was The Same\14 Come Thru.wav" WAVE
TRACK 14 AUDIO
FLAGS DCP
INDEX 01 00:00:00
FILE "Drake-Nothing Was The Same\15 All Me (Feat. 2 Chainz & Big Sean).wav" WAVE
TRACK 15 AUDIO
FLAGS DCP
INDEX 01 00:00:00
FILE "Drake-Nothing Was The Same\16 The Motion.wav" WAVE
TRACK 16 AUDIO
FLAGS DCP
INDEX 01 00:00:00

Создавать темы 27-Июн-2014 23:55

[Профиль]  [ЛС] 
Показать сообщения:    
Ответить на тему

Текущее время: 21-Окт 11:58

Часовой пояс: UTC + 5



Вы не можете начинать темы
Вы не можете отвечать на сообщения
Вы не можете редактировать свои сообщения
Вы не можете удалять свои сообщения
Вы не можете голосовать в опросах
Вы не можете прикреплять файлы к сообщениям
Вы не можете скачивать файлы