(Hip-Hop) GOOD Music - Cruel Summer - 2012, FLAC (tracks), lossless

Ответить на тему
 

llewellys ®

Стаж: 4 года 9 месяцев

Сообщений: 41

Симпатии: 4

GOOD Music - Cruel Summer (2012)
Страна: США
Жанр: Hip-Hop
Год выпуска: 2012
Формат: FLAC (tracks)
Битрейт аудио: lossless
Продолжительность: 00.54.35
Трэклист:
01. To the World (Kanye West & R. Kelly)
02. Clique (Kanye West, Jay-Z & Big Sean)
03. Mercy (Kanye West, Big Sean, Pusha-T & 2 Chainz)
04. New God Flow (Kanye West, Pusha-T & Ghostface Killah)
05. The Morning (Raekwon, Pusha-T, Common, 2 Chainz, Cyhi the Prynce, Kid Cudi & D'Banj)
06. Cold (DJ Khaled)
07. Higher (The-Dream, Pusha-T & Ma$e)
08. Sin City (John Legend, Travi$ Scott, Teyana Taylor, Cyhi the Prynce & Malik Yusef)
09. The One (Kanye West, Big Sean, 2 Chainz & Marsha Ambrosius)
10. Creepers (Kid Cudi)
11. Bliss (John Legend & Teyana Taylor)
12. Don't Like (Kanye West, Chief Keef, Pusha-T, Big Sean & Jadakiss)

Лог создания рипа

X Lossless Decoder version 20120908 (141.1)
XLD extraction logfile from 2012-09-18 19:50:53 -0500
GOOD Music / Cruel Summer
Used drive : OPTIARC DVD RW AD-5670S (revision 2AHH)
Ripper mode : XLD Secure Ripper
Disable audio cache : OK for the drive with a cache less than 1375KiB
Make use of C2 pointers : NO
Read offset correction : 48
Max retry count : 20
Gap status : Analyzed, Appended (except HTOA)
TOC of the extracted CD
Track | Start | Length | Start sector | End sector
---------------------------------------------------------
1 | 00:00:00 | 03:51:13 | 0 | 17337
2 | 03:51:13 | 04:53:40 | 17338 | 39352
3 | 08:44:53 | 05:26:27 | 39353 | 63829
4 | 14:11:05 | 05:57:29 | 63830 | 90633
5 | 20:08:34 | 04:35:07 | 90634 | 111265
6 | 24:43:41 | 03:36:22 | 111266 | 127487
7 | 28:19:63 | 04:34:37 | 127488 | 148074
8 | 32:54:25 | 04:28:06 | 148075 | 168180
9 | 37:22:31 | 05:44:52 | 168181 | 194032
10 | 43:07:08 | 03:14:24 | 194033 | 208606
11 | 46:21:32 | 03:30:08 | 208607 | 224364
12 | 49:51:40 | 04:43:56 | 224365 | 245645
AccurateRip Summary
Disc not found in AccurateRip DB.
All Tracks
Album gain : -9.49 dB
Peak : 0.989746
Statistics
Read error : 0
Jitter error (maybe fixed) : 0
Retry sector count : 0
Damaged sector count : 0
Track 01
Filename : /Users/mstrctrlprgrm/Desktop/rips/GOOD Music - Cruel Summer (2012) [FLAC]/01 Kanye West & R. Kelly - To the World.flac
Pre-gap length : 00:02:00
Track gain : -7.48 dB
Peak : 0.988617
CRC32 hash (test run) : 8848BB61
CRC32 hash : 8848BB61
CRC32 hash (skip zero) : 19358D3E
AccurateRip v1 signature : C56A031F
AccurateRip v2 signature : A4E0405A
->Track not present in AccurateRip database.
Statistics
Read error : 0
Jitter error (maybe fixed) : 0
Retry sector count : 0
Damaged sector count : 0
Track 02
Filename : /Users/mstrctrlprgrm/Desktop/rips/GOOD Music - Cruel Summer (2012) [FLAC]/02 Kanye West, Jay-Z & Big Sean - Clique.flac
Track gain : -9.64 dB
Peak : 0.988617
CRC32 hash (test run) : 16D9ACF5
CRC32 hash : 16D9ACF5
CRC32 hash (skip zero) : E538B1BF
AccurateRip v1 signature : DF7145C4
AccurateRip v2 signature : 53286BB2
->Track not present in AccurateRip database.
Statistics
Read error : 0
Jitter error (maybe fixed) : 0
Retry sector count : 0
Damaged sector count : 0
Track 03
Filename : /Users/mstrctrlprgrm/Desktop/rips/GOOD Music - Cruel Summer (2012) [FLAC]/03 Kanye West, Big Sean, Pusha T & 2 Chainz - Mercy.flac
Track gain : -7.35 dB
Peak : 0.988617
CRC32 hash (test run) : 92FB78C1
CRC32 hash : 92FB78C1
CRC32 hash (skip zero) : 7BE3B61A
AccurateRip v1 signature : E17935CE
AccurateRip v2 signature : F25BD875
->Track not present in AccurateRip database.
Statistics
Read error : 0
Jitter error (maybe fixed) : 0
Retry sector count : 0
Damaged sector count : 0
Track 04
Filename : /Users/mstrctrlprgrm/Desktop/rips/GOOD Music - Cruel Summer (2012) [FLAC]/04 Kanye West, Pusha T & Ghostface Killah - New God Flow.flac
Track gain : -10.69 dB
Peak : 0.988617
CRC32 hash (test run) : 98F41C44
CRC32 hash : 98F41C44
CRC32 hash (skip zero) : 04217CD8
AccurateRip v1 signature : BADEB157
AccurateRip v2 signature : BD044D6A
->Track not present in AccurateRip database.
Statistics
Read error : 0
Jitter error (maybe fixed) : 0
Retry sector count : 0
Damaged sector count : 0
Track 05
Filename : /Users/mstrctrlprgrm/Desktop/rips/GOOD Music - Cruel Summer (2012) [FLAC]/05 Raekwon, Pusha T, Common, 2 Chainz, Cyhi the Prynce, Kid Cudi & D'banj - The Morning.flac
Track gain : -7.37 dB
Peak : 0.989746
CRC32 hash (test run) : 50364C4A
CRC32 hash : 50364C4A
CRC32 hash (skip zero) : D34BCF05
AccurateRip v1 signature : 7CF8157B
AccurateRip v2 signature : 9C817A4B
->Track not present in AccurateRip database.
Statistics
Read error : 0
Jitter error (maybe fixed) : 0
Retry sector count : 0
Damaged sector count : 0
Track 06
Filename : /Users/mstrctrlprgrm/Desktop/rips/GOOD Music - Cruel Summer (2012) [FLAC]/06 Kanye West & DJ Khaled - Cold.flac
Track gain : -10.00 dB
Peak : 0.988617
CRC32 hash (test run) : D11157BE
CRC32 hash : D11157BE
CRC32 hash (skip zero) : 3DC8738B
AccurateRip v1 signature : 6FB96F99
AccurateRip v2 signature : 706B867E
->Track not present in AccurateRip database.
Statistics
Read error : 0
Jitter error (maybe fixed) : 0
Retry sector count : 0
Damaged sector count : 0
Track 07
Filename : /Users/mstrctrlprgrm/Desktop/rips/GOOD Music - Cruel Summer (2012) [FLAC]/07 The-Dream, Pusha T, Mase & Cocaine 80s - Higher.flac
Track gain : -5.33 dB
Peak : 0.988617
CRC32 hash (test run) : A848CFE6
CRC32 hash : A848CFE6
CRC32 hash (skip zero) : E01A6167
AccurateRip v1 signature : 1B4D1CA2
AccurateRip v2 signature : A232AEAB
->Track not present in AccurateRip database.
Statistics
Read error : 0
Jitter error (maybe fixed) : 0
Retry sector count : 0
Damaged sector count : 0
Track 08
Filename : /Users/mstrctrlprgrm/Desktop/rips/GOOD Music - Cruel Summer (2012) [FLAC]/08 John Legend, Travis Scott, Teyana Taylor, Cyhi the Prynce & Malik Yusef - Sin City.flac
Track gain : -7.21 dB
Peak : 0.988617
CRC32 hash (test run) : 7FDCBD4E
CRC32 hash : 7FDCBD4E
CRC32 hash (skip zero) : 7F04D9A6
AccurateRip v1 signature : 363B1C09
AccurateRip v2 signature : 9D6335DD
->Track not present in AccurateRip database.
Statistics
Read error : 0
Jitter error (maybe fixed) : 0
Retry sector count : 0
Damaged sector count : 0
Track 09
Filename : /Users/mstrctrlprgrm/Desktop/rips/GOOD Music - Cruel Summer (2012) [FLAC]/09 Kanye West, Big Sean, 2 Chainz & Marsha Ambrosius - The One.flac
Track gain : -9.91 dB
Peak : 0.988617
CRC32 hash (test run) : A385D169
CRC32 hash : A385D169
CRC32 hash (skip zero) : 23829EE6
AccurateRip v1 signature : 9A7149AB
AccurateRip v2 signature : 68808D31
->Track not present in AccurateRip database.
Statistics
Read error : 0
Jitter error (maybe fixed) : 0
Retry sector count : 0
Damaged sector count : 0
Track 10
Filename : /Users/mstrctrlprgrm/Desktop/rips/GOOD Music - Cruel Summer (2012) [FLAC]/10 Kid Cudi - Creepers.flac
Track gain : -7.59 dB
Peak : 0.988617
CRC32 hash (test run) : CC0F18F9
CRC32 hash : CC0F18F9
CRC32 hash (skip zero) : A7B82508
AccurateRip v1 signature : 8820388E
AccurateRip v2 signature : 06664734
->Track not present in AccurateRip database.
Statistics
Read error : 0
Jitter error (maybe fixed) : 0
Retry sector count : 0
Damaged sector count : 0
Track 11
Filename : /Users/mstrctrlprgrm/Desktop/rips/GOOD Music - Cruel Summer (2012) [FLAC]/11 John Legend & Teyana Taylor - Bliss.flac
Track gain : -10.44 dB
Peak : 0.988617
CRC32 hash (test run) : 492311A0
CRC32 hash : 492311A0
CRC32 hash (skip zero) : 3C93C758
AccurateRip v1 signature : CEA7145A
AccurateRip v2 signature : F2457D4B
->Track not present in AccurateRip database.
Statistics
Read error : 0
Jitter error (maybe fixed) : 0
Retry sector count : 0
Damaged sector count : 0
Track 12
Filename : /Users/mstrctrlprgrm/Desktop/rips/GOOD Music - Cruel Summer (2012) [FLAC]/12 Kanye West, Chief Keef, Pusha T, Big Sean & Jadakiss - Don't Like (remix).flac
Track gain : -8.87 dB
Peak : 0.988617
CRC32 hash (test run) : 21BD4058
CRC32 hash : 21BD4058
CRC32 hash (skip zero) : D931A24F
AccurateRip v1 signature : 56AE07E1
AccurateRip v2 signature : A152EEB7
->Track not present in AccurateRip database.
Statistics
Read error : 0
Jitter error (maybe fixed) : 0
Retry sector count : 0
Damaged sector count : 0
No errors occurred
End of status report

Содержание индексной карты (.CUE)

TITLE "Cruel Summer"
PERFORMER "GOOD Music"
CATALOG 0602537118694
REM DATE "2012-09-18"
REM DISCID AC0CCB0C
REM REPLAYGAIN_ALBUM_GAIN -9.49 dB
REM REPLAYGAIN_ALBUM_PEAK 0.989746
FILE "01 Kanye West & R. Kelly - To the World.flac" WAVE
TRACK 01 AUDIO
TITLE "To the World"
PERFORMER "Kanye West & R. Kelly"
ISRC USUM71209864
REM REPLAYGAIN_TRACK_GAIN -7.48 dB
REM REPLAYGAIN_TRACK_PEAK 0.988617
INDEX 01 00:00:00
FILE "02 Kanye West, Jay-Z & Big Sean - Clique.flac" WAVE
TRACK 02 AUDIO
TITLE "Clique"
PERFORMER "Kanye West, Jay-Z & Big Sean"
ISRC USUM71209867
REM REPLAYGAIN_TRACK_GAIN -9.64 dB
REM REPLAYGAIN_TRACK_PEAK 0.988617
INDEX 01 00:00:00
FILE "03 Kanye West, Big Sean, Pusha T & 2 Chainz - Mercy.flac" WAVE
TRACK 03 AUDIO
TITLE "Mercy"
PERFORMER "Kanye West, Big Sean, Pusha T & 2 Chainz"
ISRC USUM71210090
REM REPLAYGAIN_TRACK_GAIN -7.35 dB
REM REPLAYGAIN_TRACK_PEAK 0.988617
INDEX 01 00:00:00
FILE "04 Kanye West, Pusha T & Ghostface Killah - New God Flow.flac" WAVE
TRACK 04 AUDIO
TITLE "New God Flow"
PERFORMER "Kanye West, Pusha T & Ghostface Killah"
ISRC USUM71209860
REM REPLAYGAIN_TRACK_GAIN -10.69 dB
REM REPLAYGAIN_TRACK_PEAK 0.988617
INDEX 01 00:00:00
FILE "05 Raekwon, Pusha T, Common, 2 Chainz, Cyhi the Prynce, Kid Cudi & D'banj - The Morning.flac" WAVE
TRACK 05 AUDIO
TITLE "The Morning"
PERFORMER "Raekwon, Pusha T, Common, 2 Chainz, Cyhi the Prynce, Kid Cudi & D'banj"
ISRC USUM71209870
REM REPLAYGAIN_TRACK_GAIN -7.37 dB
REM REPLAYGAIN_TRACK_PEAK 0.989746
INDEX 01 00:00:00
FILE "06 Kanye West & DJ Khaled - Cold.flac" WAVE
TRACK 06 AUDIO
TITLE "Cold"
PERFORMER "Kanye West & DJ Khaled"
ISRC USUM71209873
REM REPLAYGAIN_TRACK_GAIN -10.00 dB
REM REPLAYGAIN_TRACK_PEAK 0.988617
INDEX 01 00:00:00
FILE "07 The-Dream, Pusha T, Mase & Cocaine 80s - Higher.flac" WAVE
TRACK 07 AUDIO
TITLE "Higher"
PERFORMER "The-Dream, Pusha T, Mase & Cocaine 80s"
ISRC USUM71209876
REM REPLAYGAIN_TRACK_GAIN -5.33 dB
REM REPLAYGAIN_TRACK_PEAK 0.988617
INDEX 01 00:00:00
FILE "08 John Legend, Travis Scott, Teyana Taylor, Cyhi the Prynce & Malik Yusef - Sin City.flac" WAVE
TRACK 08 AUDIO
TITLE "Sin City"
PERFORMER "John Legend, Travis Scott, Teyana Taylor, Cyhi the Prynce & Malik Yusef"
ISRC USUM71209880
REM REPLAYGAIN_TRACK_GAIN -7.21 dB
REM REPLAYGAIN_TRACK_PEAK 0.988617
INDEX 01 00:00:00
FILE "09 Kanye West, Big Sean, 2 Chainz & Marsha Ambrosius - The One.flac" WAVE
TRACK 09 AUDIO
TITLE "The One"
PERFORMER "Kanye West, Big Sean, 2 Chainz & Marsha Ambrosius"
ISRC USUM71209883
REM REPLAYGAIN_TRACK_GAIN -9.91 dB
REM REPLAYGAIN_TRACK_PEAK 0.988617
INDEX 01 00:00:00
FILE "10 Kid Cudi - Creepers.flac" WAVE
TRACK 10 AUDIO
TITLE "Creepers"
PERFORMER "Kid Cudi"
ISRC USUM71209861
REM REPLAYGAIN_TRACK_GAIN -7.59 dB
REM REPLAYGAIN_TRACK_PEAK 0.988617
INDEX 01 00:00:00
FILE "11 John Legend & Teyana Taylor - Bliss.flac" WAVE
TRACK 11 AUDIO
TITLE "Bliss"
PERFORMER "John Legend & Teyana Taylor"
ISRC USUM71209899
REM REPLAYGAIN_TRACK_GAIN -10.44 dB
REM REPLAYGAIN_TRACK_PEAK 0.988617
INDEX 01 00:00:00
FILE "12 Kanye West, Chief Keef, Pusha T, Big Sean & Jadakiss - Don't Like (remix).flac" WAVE
TRACK 12 AUDIO
TITLE "Don't Like (remix)"
PERFORMER "Kanye West, Chief Keef, Pusha T, Big Sean & Jadakiss"
ISRC USUM71209911
REM REPLAYGAIN_TRACK_GAIN -8.87 dB
REM REPLAYGAIN_TRACK_PEAK 0.988617
INDEX 01 00:00:00

Создавать темы 28-Июн-2014 01:14

[Профиль]  [ЛС] 
Показать сообщения:    
Ответить на тему

Текущее время: 16-Авг 18:31

Часовой пояс: UTC + 5



Вы не можете начинать темы
Вы не можете отвечать на сообщения
Вы не можете редактировать свои сообщения
Вы не можете удалять свои сообщения
Вы не можете голосовать в опросах
Вы не можете прикреплять файлы к сообщениям
Вы не можете скачивать файлы