Рио 2. / Rio 2. (Карлос Салдана.) [2014 г., Мультфильм, Комедия, Приключения, Семейный., HDRip.][Чистый 3вук]

Ответить на тему
 

X3JumperRaZ0R ®

Стаж: 5 лет 1 месяц

Сообщений: 177

Симпатии: 151

---Год выпуска: 2014.
Страна: США.
Жанр: Мультфильм, Комедия, Приключения, Семейный.
Продолжительность: 01:41:57
Перевод: Профессиональный (полное дублирование) [Чистый 3вук]-Режиссер: Карлос Салдана.-В ролях: Энн Хэтэуэй, Лесли Манн, Джейми Фокс, Джесси Айзенберг, Родриго Санторо, Энди Гарсиа, Трэйси Морган, Уилл Ай Эм, Джемейн Клемент, Кристин Ченоуэт...-Описание: Голубчик, Жемчужинка и их трое детей живут счастливой жизнью в волшебном городе Рио-де-Жанейро. Когда Жемчужинка решает, что их детям нужно научиться жить как настоящим птицам, она настаивает на авантюрной поездке в дебри реки Амазонки. Там, пытаясь вписаться в новое окружение, Голубчик начинает беспокоиться, что может потерять Жемчужинку и детей, идущих на зов дикой природы...-Качество: HDRip.
Формат: AVI.
Видео кодек: XviD.
Аудио кодек: AC3.
Видео: XviD, 1541 kb/s, 720x304.
Аудио: AC3, 384 kb/s (2 ch).---

MI

General
Complete name : D:\kino-5\2014 ([email protected]) RaZ0R xJ\Rio.2.2014.D.HDRip.1400MB.([email protected]).RaZ0R.xJ.avi
Format : AVI
Format/Info : Audio Video Interleave
File size : 1.37 GiB
Duration : 1h 41mn
Overall bit rate : 1 934 Kbps
Writing application : VirtualDubMod 1.5.10.3 | www.virtualdub-fr.org || (build 2550/release)
Writing library : VirtualDubMod build 2550/release
Video
ID : 0
Format : MPEG-4 Visual
Format profile : Advanced [email protected]
Format settings, BVOP : 2
Format settings, QPel : No
Format settings, GMC : No warppoints
Format settings, Matrix : Custom
Codec ID : XVID
Codec ID/Hint : XviD
Duration : 1h 41mn
Bit rate : 1 541 Kbps
Width : 720 pixels
Height : 304 pixels
Display aspect ratio : 2.35:1
Frame rate : 23.976 fps
Color space : YUV
Chroma subsampling : 4:2:0
Bit depth : 8 bits
Scan type : Progressive
Compression mode : Lossy
Bits/(Pixel*Frame) : 0.294
Stream size : 1.09 GiB (80%)
Writing library : XviD 1.2.1 (UTC 2008-12-04)
Audio
ID : 1
Format : AC-3
Format/Info : Audio Coding 3
Mode extension : CM (complete main)
Codec ID : 2000
Duration : 1h 41mn
Bit rate mode : Constant
Bit rate : 384 Kbps
Channel(s) : 2 channels
Channel positions : Front: L R
Sampling rate : 48.0 KHz
Bit depth : 16 bits
Compression mode : Lossy
Stream size : 278 MiB (20%)
Alignment : Split accross interleaves
Interleave, duration : 42 ms (1.00 video frame)
Interleave, preload duration : 500 ms

Скриншоты




-
-

Создавать темы 29-Июн-2014 05:55

[Профиль]  [ЛС] 

Slapper

Стаж: 3 года 9 месяцев

Сообщений: 2193

Симпатии: 213

спасибо)

Создавать темы 29-Июн-2014 09:16

[Профиль]  [ЛС] 

Иннур

Стаж: 4 года 10 месяцев

Сообщений: 40

а английская дорожка есть?

Создавать темы 29-Июн-2014 09:55

[Профиль]  [ЛС] 

ciroga1995

Стаж: 4 года 10 месяцев

Сообщений: 9

Иннур, нет

Создавать темы 29-Июн-2014 13:24

[Профиль]  [ЛС] 
Показать сообщения:    
Ответить на тему

Текущее время: 20-Авг 16:46

Часовой пояс: UTC + 5



Вы не можете начинать темы
Вы не можете отвечать на сообщения
Вы не можете редактировать свои сообщения
Вы не можете удалять свои сообщения
Вы не можете голосовать в опросах
Вы не можете прикреплять файлы к сообщениям
Вы не можете скачивать файлы