Приключения мистера Пибоди и Шермана / Mr. Peabody & Sherman (Роб Минкофф / Rob Minkoff) [2014, мультфильм, фантастика, комедия, приключения, семейный, WEB-DL 720p] DUB + UKR + ENG + SUB (rus, ukr, eng)

Ответить на тему
 

sanyokdb ®

Стаж: 5 лет 11 месяцев

Сообщений: 27

Симпатии: 1

Приключения мистера Пибоди и Шермана
Mr. Peabody & Sherman«Наперегонки с историей» Год выпуска: 2014
Страна: США
Жанр: мультфильм, фантастика, комедия, приключения, семейный
Продолжительность: 01:33:07
Перевод: Профессиональный (Дублированный) - iTunes
русские субтитры: есть-Режиссёр: Роб Минкофф : Rob Minkoff-Роли озвучивали: Тай Бурелл, Макс Чарльз, Эриель Винтер, Стефен Колбер, Лесли Манн, Эллисон Дженни, Стэнли Туччи, Том МакГрат, Лэйк Белл, Зак Каллисон
Роли дублировали: Леонид Парфенов, Анна Денисова, Илья Исаев, Сергей Чихачев, Максим Чихачев-Описание: Мистер Пибоди — бизнесмен, изобретатель, ученый, нобелевский лауреат, гурман, двукратный олимпийский чемпион и гений… который кроме всего прочего является собакой. При помощи своего самого неординарного изобретения — машины ВЕЙБЕК — мистер Пибоди и его приемный сын Шерман мгновенно перемещаются в прошлое, где становятся свидетелями самых важных исторических событий и общаются с известными историческими персонажами. Но когда Шерман нарушает правила путешествий во времени, нашим героям приходится вновь отправиться в путь — на сей раз с целью восстановления цепи исторических событий и спасения будущего. Кроме того, мистеру Пибоди предстоит справиться с самой сложной для него задачей — стать настоящим отцом для Шермана.-Качество: WEB-DL 720p
Формат: MKV
Видео кодек: AVC
Аудио кодек: AC3
Видео: 1280x692 , 23,976 fps, ~3902 kbps avg, 0.184 bit/pixel
Аудио #1: [RUS] 48 kHz, AC3, 3/2 (L,C,R,l,r) + LFE ch, ~384.00 kbps avg - /DUB/ iTunes
Аудио #2: [UKR] 48 kHz, AC3 Dolby Digital, 2/0 (L,R) ch, ~192 kbps kbps avg
Аудио #3: [ENG] 48 kHz, AC3 Dolby Digital, 2/0 (L,R) ch, ~192 kbps kbps avg
субтитры: русские (forced, full), украинские (forced, full), английские (full)
навигация по главам: 28 глав-
MediaInfo
Общее
Формат : Matroska
Версия формата : Version 4 / Version 2
Размер файла : 3,10 Гбайт
Продолжительность : 1 ч. 33 м.
Общий поток : 4765 Кбит/сек
Название фильма : Mr. Peabody & Sherman.2014.WEB-DL 720p -Azureus-
Дата кодирования : UTC 2014-06-06 10:44:26
Программа кодирования : mkvmerge v6.9.1 ('Blue Panther') 32bit built on Apr 18 2014 18:15:44
Библиотека кодирования : libebml v1.3.0 + libmatroska v1.4.1
Видео
Идентификатор : 1
Формат : AVC
Формат/Информация : Advanced Video Codec
Профиль формата : [email protected]
Параметр CABAC формата : Нет
Параметр ReFrames формата : 2 кадра
Идентификатор кодека : V_MPEG4/ISO/AVC
Продолжительность : 1 ч. 33 м.
Битрейт : 3902 Кбит/сек
Ширина : 1280 пикселей
Высота : 692 пикселя
Соотношение сторон : 1,85:1
Режим частоты кадров : Постоянный
Частота кадров : 23,976 кадра/сек
Цветовое пространство : YUV
Субдискретизация насыщенности : 4:2:0
Битовая глубина : 8 бит
Тип развёртки : Прогрессивная
Бит/(Пиксели*Кадры) : 0.184
Размер потока : 2,54 Гбайт (82%)
Язык : English
Default : Да
Forced : Нет
Основные цвета : BT.709
Характеристики трансфера : BT.709
Коэффициенты матрицы : BT.709
Аудио #1
Идентификатор : 2
Формат : AC-3
Формат/Информация : Audio Coding 3
Расширение режима : CM (complete main)
Параметр Endianness формата : Big
Идентификатор кодека : A_AC3
Продолжительность : 1 ч. 33 м.
Вид битрейта : Постоянный
Битрейт : 384 Кбит/сек
Каналы : 6 каналов
Расположение каналов : Front: L C R, Side: L R, LFE
Частота : 48,0 КГц
Битовая глубина : 16 бит
Метод сжатия : С потерями
Размер потока : 256 Мбайт (8%)
Заголовок : DUB - iTunes
Язык : Russian
Default : Да
Forced : Нет
Аудио #2
Идентификатор : 3
Формат : AC-3
Формат/Информация : Audio Coding 3
Расширение режима : CM (complete main)
Параметр Endianness формата : Big
Идентификатор кодека : A_AC3
Продолжительность : 1 ч. 33 м.
Вид битрейта : Постоянный
Битрейт : 192 Кбит/сек
Каналы : 2 канала
Расположение каналов : Front: L R
Частота : 48,0 КГц
Битовая глубина : 16 бит
Метод сжатия : С потерями
Размер потока : 128 Мбайт (4%)
Заголовок : UKR
Язык : Ukrainian
Default : Нет
Forced : Нет
Аудио #3
Идентификатор : 4
Формат : AC-3
Формат/Информация : Audio Coding 3
Расширение режима : CM (complete main)
Параметр Endianness формата : Big
Идентификатор кодека : A_AC3
Продолжительность : 1 ч. 33 м.
Вид битрейта : Постоянный
Битрейт : 192 Кбит/сек
Каналы : 2 канала
Расположение каналов : Front: L R
Частота : 48,0 КГц
Битовая глубина : 16 бит
Метод сжатия : С потерями
Размер потока : 128 Мбайт (4%)
Заголовок : ENG
Язык : English
Default : Нет
Forced : Нет
Текст #1
Идентификатор : 5
Формат : UTF-8
Идентификатор кодека : S_TEXT/UTF8
Идентификатор кодека/Информация : UTF-8 Plain Text
Заголовок : Rus Sub - full
Язык : Russian
Default : Нет
Forced : Нет
Текст #2
Идентификатор : 6
Формат : UTF-8
Идентификатор кодека : S_TEXT/UTF8
Идентификатор кодека/Информация : UTF-8 Plain Text
Заголовок : Rus Sub - forced
Язык : Russian
Default : Нет
Forced : Нет
Текст #3
Идентификатор : 7
Формат : UTF-8
Идентификатор кодека : S_TEXT/UTF8
Идентификатор кодека/Информация : UTF-8 Plain Text
Заголовок : Ukr Sub - full
Язык : Ukrainian
Default : Нет
Forced : Нет
Текст #4
Идентификатор : 8
Формат : UTF-8
Идентификатор кодека : S_TEXT/UTF8
Идентификатор кодека/Информация : UTF-8 Plain Text
Заголовок : Ukr Sub - forced
Язык : Ukrainian
Default : Нет
Forced : Нет
Текст #5
Идентификатор : 9
Формат : UTF-8
Идентификатор кодека : S_TEXT/UTF8
Идентификатор кодека/Информация : UTF-8 Plain Text
Заголовок : Eng Sub - full
Язык : English
Default : Нет
Forced : Нет
Меню
00:00:00.000 : en:1
00:03:46.000 : en:2
00:07:10.000 : en:3
00:11:00.000 : en:4
00:13:28.000 : en:5
00:17:27.000 : en:6
00:21:46.000 : en:7
00:26:36.000 : en:8
00:28:37.000 : en:9
00:30:50.000 : en:10
00:33:54.000 : en:11
00:35:26.000 : en:12
00:37:43.000 : en:13
00:41:24.000 : en:14
00:44:44.000 : en:15
00:48:12.000 : en:16
00:51:44.000 : en:17
00:54:52.000 : en:18
00:58:28.000 : en:19
01:00:44.000 : en:20
01:02:48.000 : en:21
01:04:34.000 : en:22
01:08:17.000 : en:23
01:11:08.000 : en:24
01:14:47.000 : en:25
01:20:21.000 : en:26
01:21:34.000 : en:27
01:22:33.000 : en:28
_________________________________________
Стою на раздаче до 5 дней.
Просьба скачавшим как можно дольше не покидать раздачу!ВСЕМ ПРИЯТНОГО ПРОСМОТРА!
_________________________________________

_________________
Подпись отключена за нарушение правил форума

Создавать темы 29-Июн-2014 08:44

[Профиль]  [ЛС] 
Показать сообщения:    
Ответить на тему

Текущее время: 13-Дек 02:41

Часовой пояс: UTC + 5



Вы не можете начинать темы
Вы не можете отвечать на сообщения
Вы не можете редактировать свои сообщения
Вы не можете удалять свои сообщения
Вы не можете голосовать в опросах
Вы не можете прикреплять файлы к сообщениям
Вы не можете скачивать файлы