Рио 2 / Rio 2 (Карлос Салдана / Carlos Saldanha) [2014, Мультфильм, комедия, приключения, семейный, BDRip 720p] Dub [чистый звук] + Original Eng + Sub eng

Ответить на тему
 

yusuf.0088 ®

Стаж: 3 года 11 месяцев

Сообщений: 116

Симпатии: 69

Рио 2 / Rio 2«It's on in the Amazon»-- Год выпуска: 2014
Страна: США
Жанр: Мультфильм, комедия, приключения, семейный
Продолжительность: 01:41:11--Перевод: Профессиональный (дублированный) [чистый звук]
Оригинальная аудиодорожка: Английский
Cубтитры: английские (форс)--Режиссер: Карлос Салдана / Carlos Saldanha--В ролях: Энн Хэтэуэй, Лесли Манн, Джейми Фокс, Джесси Айзенберг, Родриго Санторо, Энди Гарсиа, Трэйси Морган, Уилл Ай Эм, Джемейн Клемент, Кристин Ченоуэт--Описание:
Голубчик, Жемчужинка и их трое детей живут счастливой жизнью в волшебном городе Рио-де-Жанейро. Когда Жемчужинка решает, что их детям нужно научиться жить как настоящим птицам, она настаивает на авантюрной поездке в дебри реки Амазонки. Там, пытаясь вписаться в новое окружение, Голубчик начинает беспокоиться, что может потерять Жемчужинку и детей, идущих на зов дикой природы.--Качество: BDRip (720p)
Контейнер: MKV
Аудио кодек: AC3
Видео: MPEG-4 AVC / High Profile 4.1 / 1280x536 / 23.976 fps / 3118 kbps
Аудио 1: Русский / AC3 2ch / 48 KHz / 384 kbps |Дубляж|
Аудио 2: Английский / AC3 6ch / 48 KHz / 384 kbps |Original|
Сохранены оригинальные чаптеры как на Blu-ray

MediaInfo

Формат : Matroska
Версия формата : Version 4 / Version 2
Размер файла : 2,75 Гбайт
Продолжительность : 1 ч. 41 м.
Общий поток : 3888 Кбит/сек
Дата кодирования : UTC 2014-06-29 03:55:52
Программа кодирования : mkvmerge v6.0.0 ('Coming Up For Air') built on Jan 20 2013 09:52:00
Библиотека кодирования : libebml v1.3.0 + libmatroska v1.4.0
Видео
Идентификатор : 1
Формат : AVC
Формат/Информация : Advanced Video Codec
Профиль формата : High@L4.1
Параметр CABAC формата : Да
Параметр ReFrames формата : 5 кадров
Идентификатор кодека : V_MPEG4/ISO/AVC
Продолжительность : 1 ч. 41 м.
Битрейт : 3118 Кбит/сек
Ширина : 1280 пикселей
Высота : 536 пикселей
Соотношение сторон : 2,40:1
Режим частоты кадров : Постоянный
Частота кадров : 23,976 кадра/сек
Цветовое пространство : YUV
Субдискретизация насыщенности : 4:2:0
Битовая глубина : 8 бит
Тип развёртки : Прогрессивная
Бит/(Пиксели*Кадры) : 0.190
Размер потока : 2,15 Гбайт (78%)
Библиотека кодирования : x264 core 142 r2431 ac76440
Настройки программы : cabac=1 / ref=5 / deblock=1:0:0 / analyse=0x3:0x133 / me=umh / subme=8 / psy=1 / psy_rd=1.00:0.00 / mixed_ref=1 / me_range=16 / chroma_me=1 / trellis=1 / 8x8dct=1 / cqm=0 / deadzone=21,11 / fast_pskip=0 / chroma_qp_offset=-2 / threads=12 / lookahead_threads=2 / sliced_threads=0 / nr=0 / decimate=1 / interlaced=0 / bluray_compat=0 / constrained_intra=0 / bframes=3 / b_pyramid=2 / b_adapt=2 / b_bias=0 / direct=3 / weightb=1 / open_gop=0 / weightp=2 / keyint=250 / keyint_min=23 / scenecut=40 / intra_refresh=0 / rc_lookahead=50 / rc=2pass / mbtree=1 / bitrate=3118 / ratetol=1.0 / qcomp=0.60 / qpmin=0 / qpmax=69 / qpstep=4 / cplxblur=20.0 / qblur=0.5 / ip_ratio=1.40 / aq=1:1.00
Язык : English
Default : Да
Forced : Нет
Аудио #1
Идентификатор : 2
Формат : AC-3
Формат/Информация : Audio Coding 3
Расширение режима : CM (complete main)
Параметр Endianness формата : Big
Идентификатор кодека : A_AC3
Продолжительность : 1 ч. 41 м.
Вид битрейта : Постоянный
Битрейт : 384 Кбит/сек
Каналы : 2 канала
Расположение каналов : Front: L R
Частота : 48,0 КГц
Битовая глубина : 16 бит
Метод сжатия : С потерями
Размер потока : 278 Мбайт (10%)
Заголовок : Line
Язык : Russian
Default : Да
Forced : Нет
Аудио #2
Идентификатор : 3
Формат : AC-3
Формат/Информация : Audio Coding 3
Расширение режима : CM (complete main)
Параметр Endianness формата : Big
Идентификатор кодека : A_AC3
Продолжительность : 1 ч. 41 м.
Вид битрейта : Постоянный
Битрейт : 384 Кбит/сек
Каналы : 6 каналов
Расположение каналов : Front: L C R, Side: L R, LFE
Частота : 48,0 КГц
Битовая глубина : 16 бит
Метод сжатия : С потерями
Размер потока : 278 Мбайт (10%)
Язык : English
Default : Нет
Forced : Нет
Текст
Идентификатор : 4
Формат : UTF-8
Идентификатор кодека : S_TEXT/UTF8
Идентификатор кодека/Информация : UTF-8 Plain Text
Заголовок : Force Eng
Язык : English
Default : Да
Forced : Да
Меню
00:00:00.000 : en:00:00:00.000
00:03:10.816 : en:00:03:10.816
00:05:14.314 : en:00:05:14.314
00:08:49.362 : en:00:08:49.362
00:13:02.240 : en:00:13:02.240
00:17:36.305 : en:00:17:36.305
00:19:19.408 : en:00:19:19.408
00:22:30.349 : en:00:22:30.349
00:26:48.690 : en:00:26:48.690
00:29:00.155 : en:00:29:00.155
00:30:59.691 : en:00:30:59.691
00:33:46.566 : en:00:33:46.566
00:36:34.192 : en:00:36:34.192
00:39:20.233 : en:00:39:20.233
00:41:32.657 : en:00:41:32.657
00:45:05.119 : en:00:45:05.119
00:47:23.090 : en:00:47:23.090
00:49:58.162 : en:00:49:58.162
00:52:05.456 : en:00:52:05.456
00:55:38.919 : en:00:55:38.919
00:58:10.904 : en:00:58:10.904
01:02:11.394 : en:01:02:11.394
01:04:38.083 : en:01:04:38.083
01:07:03.937 : en:01:07:03.937
01:09:18.196 : en:01:09:18.196
01:10:21.342 : en:01:10:21.342
01:15:17.763 : en:01:15:17.763
01:17:00.157 : en:01:17:00.157
01:21:41.855 : en:01:21:41.855
01:25:24.619 : en:01:25:24.619
01:29:42.711 : en:01:29:42.711
01:32:27.959 : en:01:32:27.959

Скриншоты

Создавать темы 29-Июн-2014 10:04

[Профиль]  [ЛС] 

Hayit

Стаж: 3 года 7 месяцев

Сообщений: 11

Симпатии: 2

встал на раздачу, качайте люди я сегодня добрый

Создавать темы 29-Июн-2014 19:05

[Профиль]  [ЛС] 

zigger

Стаж: 4 года 8 месяцев

Сообщений: 15

Симпатии: 1

Спс

Создавать темы 30-Июн-2014 16:26

[Профиль]  [ЛС] 

slava0013

Стаж: 3 года 11 месяцев

Сообщений: 3

Симпатии: 1

спасибо

Создавать темы 02-Июл-2014 14:13

[Профиль]  [ЛС] 

yahooo

Стаж: 5 лет 8 месяцев

Сообщений: 72

Симпатии: 7

yusuf.0088, спасибо друг:)

Создавать темы 02-Июл-2014 21:52

[Профиль]  [ЛС] 

yusuf.0088 ®

Стаж: 3 года 11 месяцев

Сообщений: 116

Симпатии: 69

Пожалуйста

Создавать темы 03-Июл-2014 17:31

[Профиль]  [ЛС] 

DeFenDer007

Стаж: 4 года 2 месяца

Сообщений: 191

Симпатии: 9

что за трек в конце ? ( на риханну похож )

_________________
Подпись отключена за нарушение правил форума

Создавать темы 03-Июл-2014 21:22

[Профиль]  [ЛС] 

Sara

Стаж: 4 года 10 месяцев

Сообщений: 48

Симпатии: 10

850900что за трек в конце ? ( на риханну похож )
Это не Рианна

Создавать темы 04-Июл-2014 20:02

[Профиль]  [ЛС] 

D VS O

Стаж: 5 лет 8 месяцев

Сообщений: 19

Симпатии: 3

Могу раздавать 11 мб.с скачайте на здоровье

Создавать темы 04-Июл-2014 22:39

[Профиль]  [ЛС] 

dualblos

Стаж: 5 лет 4 месяца

Сообщений: 89

Симпатии: 4

ооооо наконец дождался качество

Создавать темы 09-Июл-2014 18:05

[Профиль]  [ЛС] 

X3JumperRaZ0R

Стаж: 5 лет 2 месяца

Сообщений: 177

Симпатии: 151

857520и это чистый свук?
Нормальный 3вук с лицензией не различиш

Создавать темы 23-Июл-2014 23:27

[Профиль]  [ЛС] 
Показать сообщения:    
Ответить на тему

Текущее время: 22-Сен 07:48

Часовой пояс: UTC + 5



Вы не можете начинать темы
Вы не можете отвечать на сообщения
Вы не можете редактировать свои сообщения
Вы не можете удалять свои сообщения
Вы не можете голосовать в опросах
Вы не можете прикреплять файлы к сообщениям
Вы не можете скачивать файлы