Убить священника / To Kill a Priest (Агнешка Холланд) [1988 г., триллер, драма, история, ..., DVDRip]

Ответить на тему
 

igor1968 ®

Стаж: 5 лет 6 месяцев

Сообщений: 366

Симпатии: 197

Убить священника / To Kill a Priest Год выпуска: 1988
Страна:
Жанр: триллер, драма, история, ...
Продолжительность: 01:52:12.200
Перевод: Профессиональный (многоголосый, закадровый)
Режиссер: Агнешка Холланд
В ролях: Кристофер Ламберт
Эд Харрис
Джосс Экленд
Тим Рот
Тимоти Сполл
Пит Постлетуэйт
Шери Лунги
Джоэнн Уэлли
Дэвид Суше
Чарли Кондо
...
Варшава, начало 1980-х. Профсоюзное движение «Солидарность», ставшее, по сути, параллельной властью в стране, берет курс на конфронтацию с официальной властью. Католический священник Отец Алек, связанный с организацией, всячески способствует сплочению ее членов. Агент тайной полиции Штефана получает задание убить священника.- -

Рецензии

Убить коммунизм
Золотой век антикоммунистических фильмов пришёлся на 80-е. Контрольный выстрел ещё не сделан, но агония СССР стала очевидной. Неудивительно, что первый англоязычный проект опального польского режиссёра Агнешки Холланд, ныне успешно работающей в жанровом Голливуде, снятый в 1988 году, оказался в «модной» теме».
«Убить священника» инспирирован реально произошедшими событиями, связанными с противоречивой страницей новейшей истории Польши начала 80-х. Общественное движение «Солидарность» сплотившее «несогласных» с коммунистическим террором официальной власти, набирает обороты и мешает правительству. Одной из икон движения становится отец Алек (Ламберт)- храбрый священник, пацифист, с явно выраженным комплексом Христа. Его «разработкой» занимается гэбист Стефан (Харрис). Обширное влияние отца Алека перечёркивает вся систему ценностей Стефана. Он и восхищается его бескомпромиссностью, и боится. Страх делает Стефана одержимым желанием устранить пастора. Суть конфликта не в служебном противостоянии чекиста и служителя культа, а в поиске общности атеизма и веры в Бога. Стефан настолько ненавидит Алека, что, в общем-то, его любит больше родной семьи. Ему не так важно убить священника, как дискредитировать его идеалы, заставить отступиться; сделать таким же трусом, как и он сам, его отец и отец его отца. Ведь юный сын Стефана (прообраз молодого поколения) уже испытывает сомнения в непоколебимой приверженности заветам классиков марксизма. И хотя рядовой сотрудник спецслужб выполняет всего лишь свою работу, чувствует он себя предателем, Иудой.
Тезис о крайней форме отрицания являющийся по сути тем же принятием высказан создателями внятно, но в выразительных средствах повествования до конца не раскрыт. Голливудская доктрина ангажированного пафоса сказывается. Мораль басни примитивна: коммунисты — сволочи; католики — молодцы. Что тут добавишь? Унылая цветовая палитра уличной съёмки и бытового уклада среднестатистического поляка не располагает к сочувствию режиму.
Министерские чиновники и агентура выглядят омерзительно. Куда им тягаться против блондинистого красавчика Алека с ликом херувима, у которого чуть ли не нимб над головой. Захлебнувшись в глумливости над деталями тенденциозного свойства, некоторые сюжетные линии остались незавершёнными, а характеры раскрыты не в полной мере. Кино потеряло в значимости. Возможно, за нарушение необходимого амбивалентного восприятия Холланд не несла ответственности, если не осуществляла окончательный монтаж, который редко доверяют новичкам на американской территории.
Будучи проходным проектом, «Убить священника» всё же получился. В основном, благодаря актёрским работам. Колоритные эпизоды интернационального состава грамотно оттеняют антагонизм двух основных действующих лиц. И если задача Ламберта свелась к смиренной улыбчивости и чтению проповедей, то Эд Харрис неоднозначностью образа и убедительной органикой привнёс, наличествующий в фильме, нерв.
Сотрудничество Холланд и Харриса окажется плодотворным и они ещё не раз пересекутся на съёмочной площадке. Да и режиссёр, в дальнейшем, частенько будет обращаться к излюбленным темам, о богоборческой основе тоталитаризма и религиозной подоплёке повседневности, заявленным в данной картине.
7 из 10
Качество: DVDRip
Формат: AVI
Видео кодек: DivX
Аудио кодек: AC3
Видео: 688x368 (1.87:1), 25 fps, DivX Codec 5.x or 6.x ~1345 kbps avg, 0.21 bit/pixel
Аудио: 1: 48 kHz, AC3 Dolby Digital, 2/0 (L,R) ch, ~192.00 kbps avg(rus)
Audio: 2: 48 kHz, AC3 Dolby Digital, 2/0 (L,R) ch, ~192.00 kbps avg (eng)-

MediaInfo

General
Complete name : Ubit.svyashchennika.1988.DivX.DVDRip.avi
Format : AVI
Format/Info : Audio Video Interleave
File size : 1.37 GiB
Duration : 1h 52mn
Overall bit rate : 1 745 Kbps
Writing application : FairUse Wizard - http://fairusewizard.com
Writing library : The best and REALLY easy backup tool
Video
ID : 0
Format : MPEG-4 Visual
Format settings, BVOP : Yes
Format settings, QPel : No
Format settings, GMC : No warppoints
Format settings, Matrix : Default (H.263)
Codec ID : DX50
Codec ID/Hint : DivX 5
Duration : 1h 52mn
Bit rate : 1 347 Kbps
Width : 688 pixels
Height : 368 pixels
Display aspect ratio : 1.85:1
Frame rate : 25.000 fps
Color space : YUV
Chroma subsampling : 4:2:0
Bit depth : 8 bits
Scan type : Progressive
Compression mode : Lossy
Bits/(Pixel*Frame) : 0.213
Stream size : 1.06 GiB (77%)
Writing library : DivX 6.8.5 (UTC 2009-08-20)
Audio #1
ID : 1
Format : AC-3
Format/Info : Audio Coding 3
Mode extension : CM (complete main)
Format settings, Endianness : Big
Codec ID : 2000
Duration : 1h 52mn
Bit rate mode : Constant
Bit rate : 192 Kbps
Channel count : 2 channels
Channel positions : Front: L R
Sampling rate : 48.0 KHz
Bit depth : 16 bits
Compression mode : Lossy
Stream size : 154 MiB (11%)
Alignment : Split accross interleaves
Interleave, duration : 40 ms (1.00 video frame)
Interleave, preload duration : 500 ms
Audio #2
ID : 2
Format : AC-3
Format/Info : Audio Coding 3
Mode extension : CM (complete main)
Format settings, Endianness : Big
Codec ID : 2000
Duration : 1h 52mn
Bit rate mode : Constant
Bit rate : 192 Kbps
Channel count : 2 channels
Channel positions : Front: L R
Sampling rate : 48.0 KHz
Bit depth : 16 bits
Compression mode : Lossy
Stream size : 154 MiB (11%)
Alignment : Split accross interleaves
Interleave, duration : 40 ms (1.00 video frame)
Interleave, preload duration : 500 ms
- - - -

Создавать темы 29-Июн-2014 10:51

[Профиль]  [ЛС] 

jetdevil2001

Стаж: 4 года 3 месяца

Сообщений: 8

Чистейшая про западная пропаганда снятая за деньги польских мигрантов

Создавать темы 29-Июн-2014 16:23

[Профиль]  [ЛС] 
Показать сообщения:    
Ответить на тему

Текущее время: 19-Сен 18:39

Часовой пояс: UTC + 5



Вы не можете начинать темы
Вы не можете отвечать на сообщения
Вы не можете редактировать свои сообщения
Вы не можете удалять свои сообщения
Вы не можете голосовать в опросах
Вы не можете прикреплять файлы к сообщениям
Вы не можете скачивать файлы