Маленькая Одесса / Little Odessa (Джеймс Грэй) [1994 г., драма, криминал, ..., DVDRip]

Ответить на тему
 

igor1968 ®

Стаж: 5 лет 7 месяцев

Сообщений: 366

Симпатии: 197

Маленькая Одесса / Little Odessa«Потерянные навсегда» Год выпуска: 1994
Страна:
Жанр: драма, криминал, ...
Продолжительность: 01:34:05.000
Перевод: Профессиональный (многоголосый, закадровый)
Режиссер: Джеймс Грэй
В ролях: Тим Рот
Эдвард Ферлонг
Мойра Келли
Ванесса Редгрейв
Пол Гилфойл
Наталья Андрейченко
Максимилиан Шелл
Давид Вадим
Мина Берн
Борис МакГайвер
...
Профессиональный убийца Йосиф Шапира получает задание «убрать» человека в своем родном районе, где живут его отец, умирающая мать и младший брат. Отец давно отказался от сына-убийцы, так как знает о роде его занятий, но брат и мать любят его. Да и отец не может окончательно вычеркнуть его из сердца.
Встреча членов этой семьи заканчивается трагедией. Йосифу приходится убить сына местного «авторитета», считавшего, что он мертв, так как тот увидел его на улице, а Йосиф ни в коем случае не мог допустить, чтобы об этом узнал папа покойного — это было бы равносильно смерти.- -Качество: DVDRip
Формат: AVI
Видео кодек: XviD
Аудио кодек: AC3
Видео: 720x384 (1.88:1), 25 fps, XviD build 47 ~1764 kbps avg, 0.26 bit/pixel
Аудио: 48 kHz, AC3 Dolby Digital, 3/2 (L,C,R,l,r) + LFE ch, ~448.00 kbps avg-

MediaInfo

General
Complete name : Malenkaja.Odessa.1994.XviD.DVDRip.avi
Format : AVI
Format/Info : Audio Video Interleave
File size : 1.46 GiB
Duration : 1h 34mn
Overall bit rate : 2 219 Kbps
Writing application : VirtualDubMod 1.5.4.1 (build 2178/release)
Writing library : VirtualDubMod build 2178/release
Video
ID : 0
Format : MPEG-4 Visual
Format profile : Advanced [email protected]
Format settings, BVOP : Yes
Format settings, QPel : No
Format settings, GMC : No warppoints
Format settings, Matrix : Custom
Codec ID : XVID
Codec ID/Hint : XviD
Duration : 1h 34mn
Bit rate : 1 764 Kbps
Width : 720 pixels
Height : 384 pixels
Display aspect ratio : 1.85:1
Frame rate : 25.000 fps
Color space : YUV
Chroma subsampling : 4:2:0
Bit depth : 8 bits
Scan type : Progressive
Compression mode : Lossy
Bits/(Pixel*Frame) : 0.255
Stream size : 1.16 GiB (80%)
Writing library : XviD 1.2.0.dev47 (UTC 2006-11-01)
Audio
ID : 1
Format : AC-3
Format/Info : Audio Coding 3
Mode extension : CM (complete main)
Format settings, Endianness : Big
Codec ID : 2000
Duration : 1h 34mn
Bit rate mode : Constant
Bit rate : 448 Kbps
Channel count : 6 channels
Channel positions : Front: L C R, Side: L R, LFE
Sampling rate : 48.0 KHz
Bit depth : 16 bits
Compression mode : Lossy
Stream size : 301 MiB (20%)
Alignment : Split accross interleaves
Interleave, duration : 96 ms (2.40 video frames)
Interleave, preload duration : 96 ms
Language : Russian
- - - -

Создавать темы 29-Июн-2014 11:17

[Профиль]  [ЛС] 

alexey.555

Стаж: 5 лет 6 месяцев

Сообщений: 137

Симпатии: 22

Спасибо, интересные фильмы выкладываете.

Создавать темы 30-Июн-2014 03:14

[Профиль]  [ЛС] 
Показать сообщения:    
Ответить на тему

Текущее время: 24-Окт 05:20

Часовой пояс: UTC + 5



Вы не можете начинать темы
Вы не можете отвечать на сообщения
Вы не можете редактировать свои сообщения
Вы не можете удалять свои сообщения
Вы не можете голосовать в опросах
Вы не можете прикреплять файлы к сообщениям
Вы не можете скачивать файлы