Epica - Live at Pinkpop festival (incl. 3 on Stage session) [2014 г., Gothic Metal, TVRip]

Ответить на тему
 

yarik ®

Стаж: 4 года 9 месяцев

Сообщений: 225

Симпатии: 123

Epica - Live at Pinkpop festival (incl. 3 on Stage session)

Страна: Netherlands
Жанр: Gothic Metal
Продолжительность: 51 мин 03 сек (main set) + 14 мин 41 сек (3 on Stage session)
Год выпуска: 2014 г.
Треклист:
1. The Essence of Silence
2. Unleashed
3. Storm the Sorrow
4. Unchain Utopia
5. Cry for the Moon
6. Reverence (Living in the Heart)
7. Victims of Contingency
8. Consign to Oblivion
+ 3 on Stage session
1. Dreamscape
2. Natural Corruption
3. Storm the Sorrow
Доп. информация: Live at Pinkpop festival, Landgraaf, The Netherlands, 7.06.2014
Источник: скачано из сети
Качество: TVRip
Контейнер: TS
Видео кодек: MPEG video
Аудио кодек: MPEG audio
Видео: 720x576, 4211kbps, 25,00fps
Аудио: 256 kbps, 48000 Hz, 2 Channels

Скриншоты

Epica - Pinkpop 2014

Epica - 3 on Stage session - Pinkpop 2014

Mediainfo main set

Общее
Идентификатор                            : 1 (0x1)
Полное имя                               : /123/Epica Pinkpop 2014/Epica - Pinkpop 2014.ts
Формат                                   : MPEG-TS
Размер файла                             : 1,70 Гбайт
Продолжительность                        : 51 м.
Режим общего битрейта                    : Переменный
Общий поток                              : 4757 Кбит/сек
Видео
Идентификатор                            : 921 (0x399)
Идентификатор меню                       : 1 (0x1)
Формат                                   : MPEG Video
Версия формата                           : Version 2
Профиль формата                          : [email protected]
Параметр BVOP формата                    : Да
Параметр матрицы формата                 : Выборочная
Параметр GOP формата                     : M=3, N=12
Идентификатор кодека                     : 2
Продолжительность                        : 51 м.
Вид битрейта                             : Переменный
Битрейт                                  : 4263 Кбит/сек
Максимальный битрейт                     : 10000 Кбит/сек
Ширина                                   : 720 пикселей
Высота                                   : 576 пикселей
Соотношение сторон                       : 16:9
Частота кадров                           : 25,000 кадров/сек
Стандарт вещания                         : PAL
Цветовое пространство                    : YUV
Субдискретизация насыщенности            : 4:2:0
Битовая глубина                          : 8 бит
Тип развёртки                            : Чересстрочная
Порядок развёртки                        : Верхнее поле первое
Метод сжатия                             : С потерями
Бит/(Пиксели*Кадры)                      : 0.411
Time code of first frame                 : 00:00:00:00
Time code source                         : Group of pictures header
Размер потока                            : 1,52 Гбайт (90%)
Аудио
Идентификатор                            : 922 (0x39A)
Идентификатор меню                       : 1 (0x1)
Формат                                   : MPEG Audio
Версия формата                           : Version 1
Профиль формата                          : Layer 2
Идентификатор кодека                     : 3
Продолжительность                        : 51 м.
Вид битрейта                             : Постоянный
Битрейт                                  : 256 Кбит/сек
Каналы                                   : 2 канала
Частота                                  : 48,0 КГц
Метод сжатия                             : С потерями
Размер потока                            : 93,5 Мбайт (5%)
Язык                                     : Dutch
Текст
Идентификатор                            : 929 (0x3A1)-100
Идентификатор меню                       : 1 (0x1)
Формат                                   : Teletext
Язык                                     : Dutch
Меню
Идентификатор                            : 920 (0x398)
Идентификатор меню                       : 1 (0x1)
Продолжительность                        : 51 м.
Список                                   : 921 (0x399) (MPEG Video) / 922 (0x39A) (MPEG Audio, Dutch) / 929 (0x3A1) ()
Язык                                     :  / Dutch

Mediainfo 3 on Stage session

Общее
Идентификатор                            : 1 (0x1)
Полное имя                               : /123/Epica Pinkpop 2014/Epica - 3 on Stage session - Pinkpop 2014.ts
Формат                                   : MPEG-TS
Размер файла                             : 494 Мбайт
Продолжительность                        : 14 м.
Режим общего битрейта                    : Переменный
Общий поток                              : 4702 Кбит/сек
Видео
Идентификатор                            : 921 (0x399)
Идентификатор меню                       : 1 (0x1)
Формат                                   : MPEG Video
Версия формата                           : Version 2
Профиль формата                          : [email protected]
Параметр BVOP формата                    : Да
Параметр матрицы формата                 : Выборочная
Параметр GOP формата                     : M=3, N=12
Идентификатор кодека                     : 2
Продолжительность                        : 14 м.
Вид битрейта                             : Переменный
Битрейт                                  : 4211 Кбит/сек
Максимальный битрейт                     : 10000 Кбит/сек
Ширина                                   : 720 пикселей
Высота                                   : 576 пикселей
Соотношение сторон                       : 16:9
Частота кадров                           : 25,000 кадров/сек
Стандарт вещания                         : PAL
Цветовое пространство                    : YUV
Субдискретизация насыщенности            : 4:2:0
Битовая глубина                          : 8 бит
Тип развёртки                            : Чересстрочная
Порядок развёртки                        : Верхнее поле первое
Метод сжатия                             : С потерями
Бит/(Пиксели*Кадры)                      : 0.406
Time code of first frame                 : 00:00:00:00
Time code source                         : Group of pictures header
Размер потока                            : 442 Мбайт (90%)
Аудио
Идентификатор                            : 922 (0x39A)
Идентификатор меню                       : 1 (0x1)
Формат                                   : MPEG Audio
Версия формата                           : Version 1
Профиль формата                          : Layer 2
Идентификатор кодека                     : 3
Продолжительность                        : 14 м.
Вид битрейта                             : Постоянный
Битрейт                                  : 256 Кбит/сек
Каналы                                   : 2 канала
Частота                                  : 48,0 КГц
Метод сжатия                             : С потерями
Размер потока                            : 26,9 Мбайт (5%)
Язык                                     : Dutch
Текст
Идентификатор                            : 929 (0x3A1)-100
Идентификатор меню                       : 1 (0x1)
Формат                                   : Teletext
Язык                                     : Dutch
Меню
Идентификатор                            : 920 (0x398)
Идентификатор меню                       : 1 (0x1)
Продолжительность                        : 14 м.
Список                                   : 921 (0x399) (MPEG Video) / 922 (0x39A) (MPEG Audio, Dutch) / 929 (0x3A1) ()
Язык                                     :  / Dutch

Создавать темы 01-Июл-2014 06:02

[Профиль]  [ЛС] 
Показать сообщения:    
Ответить на тему

Текущее время: 18-Ноя 09:45

Часовой пояс: UTC + 5



Вы не можете начинать темы
Вы не можете отвечать на сообщения
Вы не можете редактировать свои сообщения
Вы не можете удалять свои сообщения
Вы не можете голосовать в опросах
Вы не можете прикреплять файлы к сообщениям
Вы не можете скачивать файлы