Совместная поездка / Ride Along (Тим Стори / Tim Story) [2014, США, боевик, комедия, BDRip 720p] Dub [iTunes] + Original Eng + Sub eng

Ответить на тему
 

yusuf.0088 ®

Стаж: 4 года

Сообщений: 116

Симпатии: 69

Совместная поездка / Ride Along«Propose to this cop's sister? Rookie mistake»-- Год выпуска: 2014
Страна: США
Жанр: боевик, комедия
Продолжительность: 01:39:39--Перевод: Профессиональный (полное дублирование) [iTunes]
Оригинальная аудиодорожка: английский
Cубтитры: английские--Режиссер: Тим Стори / Tim Story--В ролях: Айс Кьюб, Кевин Харт, Лоренс Фишбёрн, Джон Легуизамо, Брюс МакГилл, Тика Самптер, Брайан Коллен, Драгош Букур, Гари Оуэн, Джейкоб Латимор--Описание:
Охранник Бен отправляется вместе со своим шурином Джеймсом в патруль по Атланте, чтобы доказать, что он достоин жениться на Анджеле, сестре Джеймса.-- --Качество: BDRip 720p
Контейнер: MKV
Аудио кодек: AC3--Видео: MPEG-4 AVC / High Profile 4.1 / 1280x534 / 23.976 fps / 4760 kbps
Аудио: Русский / AC3 6ch / 48 KHz / 384 kbps |Дубляж|
Аудио 2: Английский / AC3 6ch / 48 KHz / 384 kbps |Original|--Сохранены оригинальные чаптеры как на Blu-Ray

MediaInfo

Формат : Matroska
Версия формата : Version 4 / Version 2
Размер файла : 3,85 Гбайт
Продолжительность : 1 ч. 39 м.
Общий поток : 5528 Кбит/сек
Дата кодирования : UTC 2014-07-01 10:19:26
Программа кодирования : mkvmerge v6.0.0 ('Coming Up For Air') built on Jan 20 2013 09:52:00
Библиотека кодирования : libebml v1.3.0 + libmatroska v1.4.0
Видео
Идентификатор : 1
Формат : AVC
Формат/Информация : Advanced Video Codec
Профиль формата : [email protected]
Параметр CABAC формата : Да
Параметр ReFrames формата : 11 кадров
Идентификатор кодека : V_MPEG4/ISO/AVC
Продолжительность : 1 ч. 39 м.
Битрейт : 4760 Кбит/сек
Ширина : 1280 пикселей
Высота : 534 пикселя
Соотношение сторон : 2,40:1
Режим частоты кадров : Постоянный
Частота кадров : 23,976 кадра/сек
Цветовое пространство : YUV
Субдискретизация насыщенности : 4:2:0
Битовая глубина : 8 бит
Тип развёртки : Прогрессивная
Бит/(Пиксели*Кадры) : 0.290
Размер потока : 3,24 Гбайт (84%)
Библиотека кодирования : x264 core 138 r2356 a1d3d17
Настройки программы : cabac=1 / ref=11 / deblock=1:-3:-3 / analyse=0x3:0x113 / me=umh / subme=10 / psy=1 / psy_rd=1.00:0.05 / mixed_ref=1 / me_range=32 / chroma_me=1 / trellis=2 / 8x8dct=1 / cqm=0 / deadzone=21,11 / fast_pskip=0 / chroma_qp_offset=-2 / threads=18 / lookahead_threads=1 / sliced_threads=0 / nr=0 / decimate=1 / interlaced=0 / bluray_compat=0 / constrained_intra=0 / bframes=4 / b_pyramid=2 / b_adapt=2 / b_bias=0 / direct=3 / weightb=1 / open_gop=0 / weightp=2 / keyint=250 / keyint_min=23 / scenecut=40 / intra_refresh=0 / rc=2pass / mbtree=0 / bitrate=4760 / ratetol=1.0 / qcomp=0.70 / qpmin=0 / qpmax=69 / qpstep=4 / cplxblur=20.0 / qblur=0.5 / ip_ratio=1.40 / pb_ratio=1.30 / aq=2:0.90
Язык : English
Default : Да
Forced : Нет
Аудио #1
Идентификатор : 2
Формат : AC-3
Формат/Информация : Audio Coding 3
Расширение режима : CM (complete main)
Параметр Endianness формата : Big
Идентификатор кодека : A_AC3
Продолжительность : 1 ч. 39 м.
Вид битрейта : Постоянный
Битрейт : 384 Кбит/сек
Каналы : 6 каналов
Расположение каналов : Front: L C R, Side: L R, LFE
Частота : 48,0 КГц
Битовая глубина : 16 бит
Метод сжатия : С потерями
Размер потока : 274 Мбайт (7%)
Заголовок : iTunes
Язык : Russian
Default : Да
Forced : Нет
Аудио #2
Идентификатор : 3
Формат : AC-3
Формат/Информация : Audio Coding 3
Расширение режима : CM (complete main)
Параметр Endianness формата : Big
Идентификатор кодека : A_AC3
Продолжительность : 1 ч. 39 м.
Вид битрейта : Постоянный
Битрейт : 384 Кбит/сек
Каналы : 6 каналов
Расположение каналов : Front: L C R, Side: L R, LFE
Частота : 48,0 КГц
Битовая глубина : 16 бит
Метод сжатия : С потерями
Размер потока : 274 Мбайт (7%)
Язык : English
Default : Нет
Forced : Нет
Текст
Идентификатор : 4
Формат : UTF-8
Идентификатор кодека : S_TEXT/UTF8
Идентификатор кодека/Информация : UTF-8 Plain Text
Язык : English
Default : Нет
Forced : Нет
Меню
00:00:00.000 : en:00:00:00.000
00:05:09.184 : en:00:05:09.184
00:10:37.387 : en:00:10:37.387
00:14:40.922 : en:00:14:40.922
00:19:46.435 : en:00:19:46.435
00:25:03.419 : en:00:25:03.419
00:31:16.750 : en:00:31:16.750
00:35:46.394 : en:00:35:46.394
00:40:51.658 : en:00:40:51.658
00:44:31.085 : en:00:44:31.085
00:50:40.162 : en:00:50:40.162
00:54:49.995 : en:00:54:49.995
01:00:00.931 : en:01:00:00.931
01:06:13.136 : en:01:06:13.136
01:11:47.303 : en:01:11:47.303
01:18:44.553 : en:01:18:44.553
01:22:53.594 : en:01:22:53.594
01:26:27.974 : en:01:26:27.974
01:30:09.279 : en:01:30:09.279
01:35:27.347 : en:01:35:27.347

Скриншоты

Создавать темы 01-Июл-2014 16:43

[Профиль]  [ЛС] 
Показать сообщения:    
Ответить на тему

Текущее время: 22-Окт 11:39

Часовой пояс: UTC + 5



Вы не можете начинать темы
Вы не можете отвечать на сообщения
Вы не можете редактировать свои сообщения
Вы не можете удалять свои сообщения
Вы не можете голосовать в опросах
Вы не можете прикреплять файлы к сообщениям
Вы не можете скачивать файлы