Тихоокеанский рубеж / Pacific Rim (Гильермо дель Торо) [2013 г., фантастика, боевик, приключения, BDRip]

Страницы :  1, 2  След.

Ответить на тему
 

mr.sardorbek.97 ®

Стаж: 3 года 10 месяцев

Сообщений: 24

Симпатии: 4

Тихоокеанский рубеж / Pacific Rim
Год выпуска: 2013
Страна: США
Жанр: фантастика, боевик, приключения
Продолжительность: 02:11:17
Перевод: Профессиональный (полное дублирование)
Режиссер: Гильермо дель Торо
В ролях: Чарли Ханнэм, Рон Перлман, Идрис Эльба, Диего Клаттенхофф, Чарли Дэй, Берн Горман, Клифтон Коллинз мл., Ринко Кикучи, Роберт Мэйллет, Макс Мартини
Описание: Когда из морских глубин поднялись легионы чудовищ, известных как Кайдзу, началась война, которой суждено было забрать миллионы жизней и свести «человеческие ресурсы» почти к нулю всего за несколько лет. Чтобы сражаться с пришельцами, было создано специальное оружие: огромные роботы, названные Джегерами, они управлялись одновременно двумя пилотами, чьи сознания соединены с помощью нейронной связи. Но даже Джегеры оказываются почти бессильны перед лицом безжалостных Кайдзу. На грани поражения у защитников человечества нет выбора, кроме как обратиться к двум весьма сомнительным героям — никому не нужному бывшему пилоту и неопытному стажеру — которые объединились, чтобы повести в бой некогда легендарного, но сейчас устаревшего Джегера. Вместе они оказываются единственной надеждой человечества, последним препятствием перед надвигающимся апокалипсисом.
Доп. информация: Бюджет: $190 000 000
Премьера в мире: 2 июля 2013
Качество: BDRip
Формат: MKV
Видео кодек: H.265
Аудио кодек: AC3
Видео: HEVC (H265) at 3066 Кбит/сек, 1280 x 720 (1.778) at 23.976 fps
Аудио: AC-3 at 640 Кбит/сек, 6 каналов, 48,0 КГц

Важно

Релиз в фомате HEVC, в настоящее время не поддерживается аппаратными проигрывателями.
Для корректного воспроизведения может потребоваться обновление ПО ( проигрователь vlc-2.1.3)
Владельцам несовместимого железа просьба не беспокоить, на трекере есть альтернативные релизы

Скриншоты






Последний раз редактировалось: mr.sardorbek.97 (2014-07-05 07:46), всего редактировалось 3 раз(а)

Создавать темы 01-Июл-2014 22:12

[Профиль]  [ЛС] 

emir

Стаж: 4 года 8 месяцев

Сообщений: 48

Симпатии: 2

повтор

Создавать темы 02-Июл-2014 22:29

[Профиль]  [ЛС] 

mr.sardorbek.97 ®

Стаж: 3 года 10 месяцев

Сообщений: 24

Симпатии: 4

emir, качество видео и аудио как у меня ещё нету, какой повтор???

Создавать темы 03-Июл-2014 07:01

[Профиль]  [ЛС] 

Топик был перенесен из форума Зарубежное кино в форум Фильмы за 2013
Grock

Создавать темы 04-Июл-2014 10:06

 

mr.sardorbek.97 ®

Стаж: 3 года 10 месяцев

Сообщений: 24

Симпатии: 4

торрент обновлен

Создавать темы 05-Июл-2014 06:44

[Профиль]  [ЛС] 

Lion31

Стаж: 6 лет 10 месяцев

Сообщений: 83

Симпатии: 2

mr.sardorbek.97, этот литсуха

Создавать темы 05-Июл-2014 08:08

[Профиль]  [ЛС] 

emir

Стаж: 4 года 8 месяцев

Сообщений: 48

Симпатии: 2

mr.sardorbek.97, медия инфо залей под спойлер

Создавать темы 05-Июл-2014 19:21

[Профиль]  [ЛС] 

Топик был перенесен из форума Фильмы за 2013 в форум HD-AVC
ziyod

Создавать темы 06-Июл-2014 07:40

 

mr.sardorbek.97 ®

Стаж: 3 года 10 месяцев

Сообщений: 24

Симпатии: 4

emir,

media info

General
Complete name :Тихоокеанский рубеж.mkv
Format : Matroska
File size : 3.40 GiB
Duration : 2h 11mn
Overall bit rate : 3 705 Kbps
Movie name : релиз от mr.sardorbek.97 в TAS-IX.NET
Encoded date : UTC 2014-07-04 09:14:35
Writing application : mkvmerge v3.1.0
Writing library : libebml v0.7.9 + libmatroska v0.8.1
Video
ID : 1
Format : V_MPEGH/ISO/HEVC
Codec ID : V_MPEGH/ISO/HEVC
Duration : 2h 11mn
Bit rate : 2 992 Kbps
Width : 1 280 pixels
Height : 720 pixels
Display aspect ratio : 16:9
Frame rate : 23.976 fps
Bits/(Pixel*Frame) : 0.135
Stream size : 2.74 GiB (81%)
Audio
ID : 2
Format : AC-3
Format/Info : Audio Coding 3
Codec ID : A_AC3
Duration : 2h 11mn
Bit rate mode : Constant
Bit rate : 640 Kbps
Channel(s) : 6 channels
Channel positions : Front: L C R, Surround: L R, LFE
Sampling rate : 48.0 KHz
Stream size : 601 MiB (17%)
Title : Dub
Language : Russian
Text
ID : 3
Format : UTF-8
Codec ID : S_TEXT/UTF8
Codec ID/Info : UTF-8 Plain Text
Title : на места без перевода
Language : Russian

Создавать темы 06-Июл-2014 18:16

[Профиль]  [ЛС] 

mr.sardorbek.97 ®

Стаж: 3 года 10 месяцев

Сообщений: 24

Симпатии: 4

ну как вам фильм?

Создавать темы 28-Июл-2014 09:57

[Профиль]  [ЛС] 

aliyor-azizovich

Стаж: 4 года 1 месяц

Сообщений: 17

Симпатии: 12

У меня почему то изображения нет! попробовал на всех плеерах. Может подскажете, как лицезреть сие творение, которое, кстати, качал целых три недели?

Создавать темы 28-Июл-2014 18:30

[Профиль]  [ЛС] 

faceman

Стаж: 5 лет 11 месяцев

Сообщений: 27

Симпатии: 1

859568У меня почему то изображения нет! попробовал на всех плеерах. Может подскажете, как лицезреть сие творение, которое, кстати, качал целых три недели?
Сударь вы не имеете удовольствия лицезреть, ибо вам необходимо обновить богомерзкий пакет кодеков


Последний раз редактировалось: faceman (2014-07-29 09:22), всего редактировалось 1 раз

Создавать темы 28-Июл-2014 18:57

[Профиль]  [ЛС] 

mr.sardorbek.97 ®

Стаж: 3 года 10 месяцев

Сообщений: 24

Симпатии: 4

aliyor-azizovich, а вы использовали проигрователь vlc-2.1.3, на нем 100% будет показывать!!!

Создавать темы 28-Июл-2014 23:50

[Профиль]  [ЛС] 

mr.sardorbek.97 ®

Стаж: 3 года 10 месяцев

Сообщений: 24

Симпатии: 4

в проигрователе vlc 2.1.3 встроены все кодеки необходимые для просмотра этого фильма

Создавать темы 28-Июл-2014 23:56

[Профиль]  [ЛС] 

aliyor-azizovich

Стаж: 4 года 1 месяц

Сообщений: 17

Симпатии: 12

новый windows player помог. Слишком извилист этот путь единичных кодов для моих убогих извилин, как это наши родители без гугла обходились?))))

Создавать темы 29-Июл-2014 00:20

[Профиль]  [ЛС] 
Показать сообщения:    
Ответить на тему

Текущее время: 18-Дек 19:43

Часовой пояс: UTC + 5



Вы не можете начинать темы
Вы не можете отвечать на сообщения
Вы не можете редактировать свои сообщения
Вы не можете удалять свои сообщения
Вы не можете голосовать в опросах
Вы не можете прикреплять файлы к сообщениям
Вы не можете скачивать файлы