Пленники / Captives (Анджела Поуп) [1994 г., триллер, драма, мелодрама, криминал, DVDRip] Rus+Eng

Ответить на тему
 

igor1968 ®

Стаж: 5 лет 8 месяцев

Сообщений: 366

Симпатии: 197

Пленники / Captives Год выпуска: 1994
Страна:
Жанр: триллер, драма, мелодрама, криминал
Продолжительность: 01:39:49
Перевод: Профессиональный (многоголосый, закадровый)
Режиссер: Анджела Поуп
В ролях: Джулия Ормонд
Тим Рот
Кит Аллен
Шиван Редмонд
Питер Капальди
Колин Сэлмон
Ричард Хоули
Аннет Бэдленд
Джеф Нэттал
Кеннет Коуп
...- Красивая женщина, зубной врач, начинает работать в тюрьме, где знакомится с пришедшим на прием заключенным. Между ними завязывается роман, перерастающий в любовь. Но их отношения под угрозой. Возникшие серьезные неприятности у заключенного могут коснуться и ее: сокамерники пытаются заставить приносить им наркотики. Что делать женщине, влюбившейся не на шутку?- -Качество: DVDRip
Формат: AVI
Видео кодек: XviD
Аудио кодек: AC3
Видео: 720x448 (1.61:1), 23.976 fps, XviD build 47 ~2020 kbps avg, 0.26 bit/pixel
Audio #1: 48 kHz, AC3 Dolby Digital, 2/0 (L,R) ch, ~128.00 kbps avg (rus)
Audio #2: 48 kHz, AC3 Dolby Digital, 2/0 (L,R) ch, ~192.00 kbps avg (eng)-

MediaInfo

General
Complete name : Captives.avi
Format : AVI
Format/Info : Audio Video Interleave
File size : 1.64 GiB
Duration : 1h 39mn
Overall bit rate : 2 355 Kbps
Movie name : В западне.Заложники / Captives.(1994)
Writing application : VirtualDubMod 1.5.10.2 (build 2540/release)
Writing library : VirtualDubMod build 2540/release
Video
ID : 0
Format : MPEG-4 Visual
Format profile : Advanced [email protected]
Format settings, BVOP : No
Format settings, QPel : No
Format settings, GMC : No warppoints
Format settings, Matrix : Custom
Codec ID : XVID
Codec ID/Hint : XviD
Duration : 1h 39mn
Bit rate : 2 021 Kbps
Width : 720 pixels
Height : 448 pixels
Display aspect ratio : 16:10
Frame rate : 23.976 fps
Color space : YUV
Chroma subsampling : 4:2:0
Bit depth : 8 bits
Scan type : Progressive
Compression mode : Lossy
Bits/(Pixel*Frame) : 0.261
Stream size : 1.41 GiB (86%)
Writing library : XviD 1.2.0.dev47 (UTC 2006-11-01)
Audio #1
ID : 1
Format : AC-3
Format/Info : Audio Coding 3
Format profile : Dolby Digital
Mode extension : CM (complete main)
Format settings, Endianness : Big
Codec ID : 2000
Duration : 1h 39mn
Bit rate mode : Constant
Bit rate : 128 Kbps
Channel count : 2 channels
Channel positions : Front: L R
Sampling rate : 48.0 KHz
Bit depth : 16 bits
Compression mode : Lossy
Stream size : 91.4 MiB (5%)
Alignment : Split accross interleaves
Interleave, duration : 42 ms (1.00 video frame)
Interleave, preload duration : 500 ms
Audio #2
ID : 2
Format : AC-3
Format/Info : Audio Coding 3
Format profile : Dolby Digital
Mode extension : CM (complete main)
Format settings, Endianness : Big
Codec ID : 2000
Duration : 1h 39mn
Bit rate mode : Constant
Bit rate : 192 Kbps
Channel count : 2 channels
Channel positions : Front: L R
Sampling rate : 48.0 KHz
Bit depth : 16 bits
Compression mode : Lossy
Stream size : 137 MiB (8%)
Alignment : Split accross interleaves
Interleave, duration : 42 ms (1.00 video frame)
Interleave, preload duration : 500 ms
- - - -

Создавать темы 02-Июл-2014 12:56

[Профиль]  [ЛС] 
Показать сообщения:    
Ответить на тему

Текущее время: 25-Ноя 08:41

Часовой пояс: UTC + 5



Вы не можете начинать темы
Вы не можете отвечать на сообщения
Вы не можете редактировать свои сообщения
Вы не можете удалять свои сообщения
Вы не можете голосовать в опросах
Вы не можете прикреплять файлы к сообщениям
Вы не можете скачивать файлы