Хостел: Трилогия / Hostel: Trilogy (Элай Рот, Скотт Шпигель) [2005, 2008, 2011 гг., Ужасы, триллер, детектив, BDRip-AVC]

Ответить на тему
 

Akmal89 ®

Стаж: 5 лет 8 месяцев

Сообщений: 237

Симпатии: 99

--

Хостел / Hostel

-- Информация о фильме:
Год выпуска:2005
Страна: США
Жанр: Ужасы, триллер, детектив
Продолжительность: 01:33:36
Перевод: Профессиональный (полное дублирование)
Режиссер: Элай Рот
Субтитры: Russian, English--В ролях: Джей Эрнандез, Дерек Ричардсон, Эйтор Гудйонссон, Барбара Неделякова, Ян Власак, Яна Кадерабкова, Дженнифер Лим, Кейко Сеико, Любомир Буковы, Яна Хавличкова, Рик Хоффман, Петр Дженис, Такаши Миике, Патрик Зиго, Милда Хавлас, Мартин Кубачак, Мирослав Таборски, Паула Вайлд, Владимир Силхавецки, Барбора Обожненкова--Описание: Отправившись в секс-тур по Европе, два американских студента и их отмороженный исландский попутчик узнают, что самая сладкая клубничка и самый безбашенный экстрим поджидают их в старушке Братиславе, где восточноевропейские красотки готовы чуть ли ни даром исполнить все желания горячих янки! Вскоре перед туристами гостеприимно распахивает двери отель их грез. Но у любых развлечений есть своя цена, и в этом заведении прайс-лист написан кровью! Сюда часто наведываются любители совсем других забав, и когда они достают свои инструменты, самые больные фантазии меркнут перед их хирургическим мастерством…--Рейтинг:- --Файл:
Качество: BDRip-AVC
Формат: MKV
Видео: H.264, 1024x436 (2,35:1), 23,976 кадр/сек, 2448 Кбит/сек, 0.229 bit/pixel
Аудио#1: 48 kHz, AC3 Dolby Digital, 3/2 (L,C,R,l,r) + LFE ch, ~448.00 kbps avg | RUS
Аудио#2: 48 kHz, AC3 Dolby Digital, 3/2 (L,C,R,l,r) + LFE ch, ~448.00 kbps avg | ENG
--

Media Info

D:\Torrents Downloads\Ok\Hostel - Trilogy\Hostel.2005.D.BDRip.x264.mkv
General
Unique ID : 194449828990775953147472484618944280530 (0x9249ACC1E23D8836BE5E7041690E77D2)
Complete name : D:\Torrents Downloads\Ok\Hostel - Trilogy\Hostel.2005.D.BDRip.x264.mkv
Format : Matroska
Format version : Version 2
File size : 2.19 GiB
Duration : 1h 33mn
Overall bit rate : 3 345 Kbps
Movie name : -=POTROKS=-
Encoded date : UTC 2013-01-29 13:38:53
Writing application : mkvmerge v5.7.0 ('The Whirlwind') built on Jul 8 2012 20:08:51
Writing library : libebml v1.2.3 + libmatroska v1.3.0
Video #1
ID : 1
Format : AVC
Format/Info : Advanced Video Codec
Format profile : [email protected]
Format settings, CABAC : Yes
Format settings, ReFrames : 10 frames
Codec ID : V_MPEG4/ISO/AVC
Duration : 1h 33mn
Bit rate : 2 448 Kbps
Width : 1 024 pixels
Height : 436 pixels
Display aspect ratio : 2.35:1
Frame rate mode : Constant
Frame rate : 23.976 fps
Color space : YUV
Chroma subsampling : 4:2:0
Bit depth : 8 bits
Scan type : Progressive
Bits/(Pixel*Frame) : 0.229
Stream size : 1.56 GiB (71%)
Title : Hostel
Writing library : x264 core 125 r2208 d9d2288
Encoding settings : cabac=1 / ref=10 / deblock=1:-2:-1 / analyse=0x3:0x133 / me=umh / subme=11 / psy=1 / psy_rd=1.03:0.05 / mixed_ref=1 / me_range=32 / chroma_me=1 / trellis=2 / 8x8dct=1 / cqm=0 / deadzone=21,11 / fast_pskip=0 / chroma_qp_offset=-3 / threads=6 / lookahead_threads=1 / sliced_threads=0 / nr=0 / decimate=1 / interlaced=0 / bluray_compat=0 / constrained_intra=0 / bframes=11 / b_pyramid=2 / b_adapt=2 / b_bias=0 / direct=3 / weightb=1 / open_gop=0 / weightp=2 / keyint=240 / keyint_min=23 / scenecut=40 / intra_refresh=0 / rc_lookahead=150 / rc=2pass / mbtree=1 / bitrate=2448 / ratetol=1.0 / qcomp=0.70 / qpmin=0 / qpmax=69 / qpstep=4 / cplxblur=20.0 / qblur=0.5 / vbv_maxrate=20000 / vbv_bufsize=25000 / nal_hrd=none / ip_ratio=1.35 / aq=1:0.70
Language : English
Default : Yes
Forced : No
Audio #2
ID : 2
Format : AC-3
Format/Info : Audio Coding 3
Mode extension : CM (complete main)
Format settings, Endianness : Big
Codec ID : A_AC3
Duration : 1h 33mn
Bit rate mode : Constant
Bit rate : 448 Kbps
Channel(s) : 6 channels
Channel positions : Front: L C R, Side: L R, LFE
Sampling rate : 48.0 KHz
Bit depth : 16 bits
Compression mode : Lossy
Stream size : 300 MiB (13%)
Title : Dub | DD 5.1 @ 448 kbps
Language : Russian
Default : Yes
Forced : Yes
Audio #3
ID : 3
Format : AC-3
Format/Info : Audio Coding 3
Mode extension : CM (complete main)
Format settings, Endianness : Big
Codec ID : A_AC3
Duration : 1h 33mn
Bit rate mode : Constant
Bit rate : 448 Kbps
Channel(s) : 6 channels
Channel positions : Front: L C R, Side: L R, LFE
Sampling rate : 48.0 KHz
Bit depth : 16 bits
Compression mode : Lossy
Stream size : 300 MiB (13%)
Title : Original | DD 5.1 @ 448 kbps
Language : English
Default : No
Forced : No
Text #4
ID : 4
Format : UTF-8
Codec ID : S_TEXT/UTF8
Codec ID/Info : UTF-8 Plain Text
Language : English
Default : No
Forced : No
Text #5
ID : 5
Format : UTF-8
Codec ID : S_TEXT/UTF8
Codec ID/Info : UTF-8 Plain Text
Title : v1
Language : Russian
Default : No
Forced : No
Text #6
ID : 6
Format : UTF-8
Codec ID : S_TEXT/UTF8
Codec ID/Info : UTF-8 Plain Text
Title : v2
Language : Russian
Default : No
Forced : No

Скриншоты

Хостел 2 / Hostel Part 2

Информация о фильме:
Год выпуска:2008
Страна: США
Жанр: Ужасы, триллер, детектив
Продолжительность: 01:35:09
Перевод: Профессиональный (полное дублирование)
Режиссер: Элай Рот--В ролях: Лоурен Герман, Роджер Барт, Хизер Матараццо, Бижу Филлипс, Ричард Берджи, Вера Йорданова, Джей Эрнандез, Джордан Лэдд, Эдвиг Фенеч, Станислав Яневский--Описание: Три девушки-студентки, путешествуя по Европе, решили подольше задержаться в Братиславе (Словакия). Сами того не ведая, они попадают в царство мяса и крови. Ведь одна из здешних гостиниц, в которую приезжают наши героини, таит мрачный секрет — таинственную организацию, которая занимается пытками и убийствами. Сумеют ли девушки выбраться из этого кровавого ада живыми?--Рейтинг:- --Файл:
Качество: BDRip-AVC
Формат: MKV
Видео: H.264, 1024x436 (2,35:1), 23,976 кадр/сек, 2400 Кбит/сек, 0.224 bit/pixel
Аудио#1: 48 kHz, AC3 Dolby Digital, 3/2 (L,C,R,l,r) + LFE ch, ~448.00 kbps avg | RUS
Аудио#2: 48 kHz, AC3 Dolby Digital, 3/2 (L,C,R,l,r) + LFE ch, ~448.00 kbps avg | ENG
--

Media Info

D:\Torrents Downloads\Ok\Hostel - Trilogy\Hostel.Part.II.2007.D.BDRip.x264.mkv
General
Unique ID : 220312662596446658581608066005949567458 (0xA5BEACE728E5416FBE860A9CC7D151E2)
Complete name : D:\Torrents Downloads\Ok\Hostel - Trilogy\Hostel.Part.II.2007.D.BDRip.x264.mkv
Format : Matroska
Format version : Version 2
File size : 2.19 GiB
Duration : 1h 35mn
Overall bit rate : 3 289 Kbps
Movie name : -=POTROKS=-
Encoded date : UTC 2013-02-18 10:33:04
Writing application : mkvmerge v5.7.0 ('The Whirlwind') built on Jul 8 2012 20:08:51
Writing library : libebml v1.2.3 + libmatroska v1.3.0
Video #1
ID : 1
Format : AVC
Format/Info : Advanced Video Codec
Format profile : [email protected]
Format settings, CABAC : Yes
Format settings, ReFrames : 10 frames
Codec ID : V_MPEG4/ISO/AVC
Duration : 1h 35mn
Bit rate : 2 400 Kbps
Width : 1 024 pixels
Height : 436 pixels
Display aspect ratio : 2.35:1
Frame rate mode : Constant
Frame rate : 23.976 fps
Color space : YUV
Chroma subsampling : 4:2:0
Bit depth : 8 bits
Scan type : Progressive
Bits/(Pixel*Frame) : 0.224
Stream size : 1.55 GiB (71%)
Title : Hostel. Part 2
Writing library : x264 core 125 r2208 d9d2288
Encoding settings : cabac=1 / ref=10 / deblock=1:-2:-1 / analyse=0x3:0x133 / me=umh / subme=11 / psy=1 / psy_rd=1.00:0.00 / mixed_ref=1 / me_range=32 / chroma_me=1 / trellis=2 / 8x8dct=1 / cqm=0 / deadzone=21,11 / fast_pskip=0 / chroma_qp_offset=-2 / threads=6 / lookahead_threads=1 / sliced_threads=0 / nr=0 / decimate=1 / interlaced=0 / bluray_compat=0 / constrained_intra=0 / bframes=11 / b_pyramid=2 / b_adapt=2 / b_bias=0 / direct=3 / weightb=1 / open_gop=0 / weightp=2 / keyint=240 / keyint_min=23 / scenecut=40 / intra_refresh=0 / rc_lookahead=150 / rc=2pass / mbtree=1 / bitrate=2400 / ratetol=1.0 / qcomp=0.70 / qpmin=0 / qpmax=69 / qpstep=4 / cplxblur=20.0 / qblur=0.5 / vbv_maxrate=20000 / vbv_bufsize=25000 / nal_hrd=none / ip_ratio=1.35 / aq=1:0.70
Language : English
Default : Yes
Forced : No
Audio #2
ID : 2
Format : AC-3
Format/Info : Audio Coding 3
Mode extension : CM (complete main)
Format settings, Endianness : Big
Codec ID : A_AC3
Duration : 1h 35mn
Bit rate mode : Constant
Bit rate : 448 Kbps
Channel(s) : 6 channels
Channel positions : Front: L C R, Side: L R, LFE
Sampling rate : 48.0 KHz
Bit depth : 16 bits
Compression mode : Lossy
Stream size : 305 MiB (14%)
Title : Dub | DD 5.1 @ 448 kbps
Language : Russian
Default : Yes
Forced : Yes
Audio #3
ID : 3
Format : AC-3
Format/Info : Audio Coding 3
Mode extension : CM (complete main)
Format settings, Endianness : Big
Codec ID : A_AC3
Duration : 1h 35mn
Bit rate mode : Constant
Bit rate : 448 Kbps
Channel(s) : 6 channels
Channel positions : Front: L C R, Side: L R, LFE
Sampling rate : 48.0 KHz
Bit depth : 16 bits
Compression mode : Lossy
Stream size : 305 MiB (14%)
Title : Original | DD 5.1 @ 448 kbps
Language : English
Default : No
Forced : No
Text #4
ID : 4
Format : UTF-8
Codec ID : S_TEXT/UTF8
Codec ID/Info : UTF-8 Plain Text
Language : English
Default : No
Forced : No
Text #5
ID : 5
Format : UTF-8
Codec ID : S_TEXT/UTF8
Codec ID/Info : UTF-8 Plain Text
Language : Russian
Default : No
Forced : No

Скриншоты

Хостел 3 / Hostel: Part III

Информация о фильме:
Год выпуска:2011
Страна: США
Жанр: Ужасы, триллер, детектив
Продолжительность: 01:27:45
Перевод: Профессиональный (многоголосый)
Режиссер: Скотт Шпигель
Субтитры: Russian, English--В ролях: Томас Кречманн, Кип Парду, Джон Хенсли, Сара Хабель, Бэрри Ливингстон, Брайан Хэллисей, Келли Тибо, Скайлер Стоун, Дэнни Джейкобс--Описание: Мальчишники в Лас-Вегасе необязательно заканчиваются похмельем: финал может оказаться куда более мрачным. В разгар холостяцкого кутежа четверо друзей получают соблазнительное предложение — отправиться с двумя сексапильными красавицами на частную вечеринку. Там тоже делают ставки, но только… на человеческие жизни.--Рейтинг:- --Файл:
Качество: BDRip-AVC
Формат: MKV
Видео: H.264, 1036x584 (16:9), 23,976 кадр/сек, 2674 Кбит/сек, 0.184 bit/pixel
Аудио#1: 48 kHz, AC3 Dolby Digital, 3/2 (L,C,R,l,r) + LFE ch, ~448.00 kbps avg | RUS
Аудио#2: 48 kHz, AC3 Dolby Digital, 3/2 (L,C,R,l,r) + LFE ch, ~448.00 kbps avg | ENG
--

Media Info

D:\Torrents Downloads\Ok\Hostel - Trilogy\Hostel.Part.III.2011.P.BDRip.x264.mkv
General
Unique ID : 205585252003601393316520987963714788338 (0x9AAA477FEE2F8F8583AA6D2701895BF2)
Complete name : D:\Torrents Downloads\Ok\Hostel - Trilogy\Hostel.Part.III.2011.P.BDRip.x264.mkv
Format : Matroska
Format version : Version 2
File size : 2.19 GiB
Duration : 1h 27mn
Overall bit rate : 3 568 Kbps
Movie name : -=POTROKS=-
Encoded date : UTC 2013-02-19 16:52:45
Writing application : mkvmerge v5.7.0 ('The Whirlwind') built on Jul 8 2012 20:08:51
Writing library : libebml v1.2.3 + libmatroska v1.3.0
Video #1
ID : 1
Format : AVC
Format/Info : Advanced Video Codec
Format profile : Hi[email protected]
Format settings, CABAC : Yes
Format settings, ReFrames : 13 frames
Codec ID : V_MPEG4/ISO/AVC
Duration : 1h 27mn
Bit rate : 2 674 Kbps
Width : 1 036 pixels
Height : 584 pixels
Display aspect ratio : 16:9
Frame rate mode : Constant
Frame rate : 23.976 fps
Color space : YUV
Chroma subsampling : 4:2:0
Bit depth : 8 bits
Scan type : Progressive
Bits/(Pixel*Frame) : 0.184
Stream size : 1.59 GiB (73%)
Title : Hostel: Part III
Writing library : x264 core 125 r2208 d9d2288
Encoding settings : cabac=1 / ref=13 / deblock=1:-3:-3 / analyse=0x3:0x133 / me=umh / subme=11 / psy=1 / psy_rd=0.96:0.00 / mixed_ref=1 / me_range=32 / chroma_me=1 / trellis=2 / 8x8dct=1 / cqm=0 / deadzone=21,11 / fast_pskip=0 / chroma_qp_offset=-2 / threads=6 / lookahead_threads=1 / sliced_threads=0 / nr=0 / decimate=1 / interlaced=0 / bluray_compat=0 / constrained_intra=0 / bframes=14 / b_pyramid=2 / b_adapt=2 / b_bias=0 / direct=3 / weightb=1 / open_gop=0 / weightp=2 / keyint=240 / keyint_min=23 / scenecut=40 / intra_refresh=0 / rc_lookahead=150 / rc=2pass / mbtree=1 / bitrate=2674 / ratetol=1.0 / qcomp=0.70 / qpmin=0 / qpmax=69 / qpstep=4 / cplxblur=20.0 / qblur=0.5 / vbv_maxrate=20000 / vbv_bufsize=25000 / nal_hrd=none / ip_ratio=1.35 / aq=1:0.90
Language : English
Default : Yes
Forced : No
Audio #2
ID : 2
Format : AC-3
Format/Info : Audio Coding 3
Mode extension : CM (complete main)
Format settings, Endianness : Big
Codec ID : A_AC3
Duration : 1h 27mn
Bit rate mode : Constant
Bit rate : 448 Kbps
Channel(s) : 6 channels
Channel positions : Front: L C R, Side: L R, LFE
Sampling rate : 48.0 KHz
Bit depth : 16 bits
Compression mode : Lossy
Stream size : 281 MiB (13%)
Title : MVO | DD 5.1 @ 448 kbps
Language : Russian
Default : Yes
Forced : Yes
Audio #3
ID : 3
Format : AC-3
Format/Info : Audio Coding 3
Mode extension : CM (complete main)
Format settings, Endianness : Big
Codec ID : A_AC3
Duration : 1h 27mn
Bit rate mode : Constant
Bit rate : 448 Kbps
Channel(s) : 6 channels
Channel positions : Front: L C R, Side: L R, LFE
Sampling rate : 48.0 KHz
Bit depth : 16 bits
Compression mode : Lossy
Stream size : 281 MiB (13%)
Title : Original | DD 5.1 @ 448 kbps
Language : English
Default : No
Forced : No
Text #4
ID : 4
Format : UTF-8
Codec ID : S_TEXT/UTF8
Codec ID/Info : UTF-8 Plain Text
Language : English
Default : No
Forced : No
Text #5
ID : 5
Format : UTF-8
Codec ID : S_TEXT/UTF8
Codec ID/Info : UTF-8 Plain Text
Title : Forced
Language : Russian
Default : Yes
Forced : Yes

Скриншоты

Создавать темы 04-Июл-2014 13:32

[Профиль]  [ЛС] 

scartown

Стаж: 5 лет 3 месяца

Сообщений: 8

Симпатии: 1

будте так любезны люди не сходите с раздачи плизззззз

Создавать темы 03-Авг-2014 14:48

[Профиль]  [ЛС] 

umeka

Стаж: 5 лет 6 месяцев

Сообщений: 15

Сидов: 1 [ 0 KB/s ] Личеров: 3 [ 0 KB/s ]

Создавать темы 20-Окт-2014 22:14

[Профиль]  [ЛС] 

artem2010

Стаж: 7 лет 1 месяц

Сообщений: 89

Симпатии: 7

Брат, помоги скачать эти фильмы, пожалуйста.))

Создавать темы 09-Ноя-2014 22:13

[Профиль]  [ЛС] 

artem2010

Стаж: 7 лет 1 месяц

Сообщений: 89

Симпатии: 7

Спасибо. Не уходите только с раздачи.)))

Создавать темы 10-Ноя-2014 08:46

[Профиль]  [ЛС] 

artem2010

Стаж: 7 лет 1 месяц

Сообщений: 89

Симпатии: 7

Люди, помогите скачать. Давно искал эти фильмы. 15% только скачал.)))

Создавать темы 16-Ноя-2014 18:37

[Профиль]  [ЛС] 

artem2010

Стаж: 7 лет 1 месяц

Сообщений: 89

Симпатии: 7

А что случилось с раздачей? На 15% встала три дня уже. Помогите скачать, пожалуйста.

Создавать темы 20-Ноя-2014 08:35

[Профиль]  [ЛС] 

artem2010

Стаж: 7 лет 1 месяц

Сообщений: 89

Симпатии: 7

Помогите докачать, пожалуйста. Уже 43%.

Создавать темы 29-Ноя-2014 22:04

[Профиль]  [ЛС] 

vova

Стаж: 4 года 5 месяцев

Сообщений: 1

помогите докачать, на 65% остановилась

Создавать темы 03-Дек-2014 21:50

[Профиль]  [ЛС] 
Показать сообщения:    
Ответить на тему

Текущее время: 17-Дек 19:00

Часовой пояс: UTC + 5



Вы не можете начинать темы
Вы не можете отвечать на сообщения
Вы не можете редактировать свои сообщения
Вы не можете удалять свои сообщения
Вы не можете голосовать в опросах
Вы не можете прикреплять файлы к сообщениям
Вы не можете скачивать файлы