Брюс Ли: Коллекция (Вэй Ло, Брюс Ли, Роберт Клауз, Саммо Хунг Кам-Бо) [1971-2012 г., боевик, триллер, драма, комедия, криминал, BDRip-AVC]

Ответить на тему
 

Akmal89 ®

Стаж: 5 лет 5 месяцев

Сообщений: 237

Симпатии: 99

-- --

Большой Босс / Tang shan da xiong

-- Информация о фильме:
Год выпуска:1971
Страна: Гонконг / Golden Harvest Company Ltd.
Жанр: боевик, триллер, драма, криминал
Продолжительность: 01:39:41
Перевод: Профессиональный многоголосый + авторский
Субтитры: Russian, English
Режиссер: Ло Вэй--В ролях: Брюс Ли, Мария Йи, Джеймс Тьен, Инь-Чиэ Хань, Малален, Тони Лю, Куин Ли, Нора Миао, Сань Чинь, Чи Чен--Описание: Скромный паренёк из Гонконга Чен Чао-Ан приезжает в Таиланд к своим родственникам, чтобы те помогли ему с работой. Он устраивается на фабрику по производству льда.--Рейтинг:- --Файл:
Качество: BDRip-AVC
Формат: MKV
Видео: MPEG-4 AVC, 3100 Кбит/с, 1024x436, 23.976 кадр/с
Аудио#1: Russian (AC3, 6 ch, 448 Кбит/с) | Профессиональный многоголосый (SUPERBIT)
Аудио#2: Russian, (AC3, 2 ch, 192 Кбит/с) | Профессиональный многоголосый
Аудио#3: Russian, (AC3, 2 ch, 192 Кбит/с) | Авторский (В.Горчаков)
Аудио#4: Russian, (AC3, 2 ch, 192 Кбит/с) | Авторский (Ю.Живов)
Аудио#5: English, (AC3, 6 ch, 448 Кбит/с) | Авторский (В.Королёв)
--

Media Info

N:\Filmi\Блюс Ли Коллекция\Большой Босс.1971.x264.BDRip.mkv
General
Unique ID : 233307299753319942082354546788288803327 (0xAF8559FAD9640840A843F07A81FDB1FF)
Complete name : N:\Filmi\Блюс Ли Коллекция\Большой Босс.1971.x264.BDRip.mkv
Format : Matroska
Format version : Version 4 / Version 2
File size : 3.19 GiB
Duration : 1h 39mn
Overall bit rate : 4 575 Kbps
Movie name : = MediaClub = rip by Painter
Encoded date : UTC 2013-07-04 14:28:30
Writing application : mkvmerge v6.1.0 ('Old Devil') built on Mar 2 2013 14:32:37
Writing library : libebml v1.3.0 + libmatroska v1.4.0
Video #1
ID : 1
Format : AVC
Format/Info : Advanced Video Codec
Format profile : [email protected]
Format settings, CABAC : Yes
Format settings, ReFrames : 9 frames
Codec ID : V_MPEG4/ISO/AVC
Duration : 1h 39mn
Bit rate : 3 100 Kbps
Width : 1 024 pixels
Height : 436 pixels
Display aspect ratio : 2.35:1
Frame rate mode : Constant
Frame rate : 23.976 fps
Color space : YUV
Chroma subsampling : 4:2:0
Bit depth : 8 bits
Scan type : Progressive
Bits/(Pixel*Frame) : 0.290
Stream size : 2.10 GiB (66%)
Writing library : x264 core 130 r2273 b3065e6
Encoding settings : cabac=1 / ref=9 / deblock=1:-2:-2 / analyse=0x3:0x133 / me=umh / subme=11 / psy=1 / psy_rd=1.00:0.20 / mixed_ref=1 / me_range=48 / chroma_me=1 / trellis=2 / 8x8dct=1 / cqm=0 / deadzone=21,11 / fast_pskip=0 / chroma_qp_offset=-3 / threads=6 / lookahead_threads=1 / sliced_threads=0 / nr=0 / decimate=0 / interlaced=0 / bluray_compat=0 / constrained_intra=0 / bframes=8 / b_pyramid=2 / b_adapt=2 / b_bias=0 / direct=3 / weightb=1 / open_gop=0 / weightp=2 / keyint=240 / keyint_min=23 / scenecut=40 / intra_refresh=0 / rc=2pass / mbtree=0 / bitrate=3100 / ratetol=1.0 / qcomp=0.60 / qpmin=0 / qpmax=69 / qpstep=4 / cplxblur=20.0 / qblur=0.5 / ip_ratio=1.40 / pb_ratio=1.30 / aq=1:1.00
Language : Chinese
Default : Yes
Forced : No
Audio #2
ID : 2
Format : AC-3
Format/Info : Audio Coding 3
Mode extension : CM (complete main)
Format settings, Endianness : Big
Codec ID : A_AC3
Duration : 1h 39mn
Bit rate mode : Constant
Bit rate : 448 Kbps
Channel(s) : 6 channels
Channel positions : Front: L C R, Side: L R, LFE
Sampling rate : 48.0 KHz
Bit depth : 16 bits
Compression mode : Lossy
Stream size : 319 MiB (10%)
Title : Многоголосый (SUPERBIT)
Language : Russian
Default : Yes
Forced : No
Audio #3
ID : 3
Format : AC-3
Format/Info : Audio Coding 3
Mode extension : CM (complete main)
Format settings, Endianness : Big
Codec ID : A_AC3
Duration : 1h 39mn
Bit rate mode : Constant
Bit rate : 192 Kbps
Channel(s) : 2 channels
Channel positions : Front: L R
Sampling rate : 48.0 KHz
Bit depth : 16 bits
Compression mode : Lossy
Stream size : 137 MiB (4%)
Title : Многоголосый
Language : Russian
Default : No
Forced : No
Audio #4
ID : 4
Format : AC-3
Format/Info : Audio Coding 3
Mode extension : CM (complete main)
Format settings, Endianness : Big
Codec ID : A_AC3
Duration : 1h 39mn
Bit rate mode : Constant
Bit rate : 192 Kbps
Channel(s) : 2 channels
Channel positions : Front: L R
Sampling rate : 48.0 KHz
Bit depth : 16 bits
Compression mode : Lossy
Stream size : 137 MiB (4%)
Title : Горчаков
Language : Russian
Default : No
Forced : No
Audio #5
ID : 5
Format : AC-3
Format/Info : Audio Coding 3
Mode extension : CM (complete main)
Format settings, Endianness : Big
Codec ID : A_AC3
Duration : 1h 39mn
Bit rate mode : Constant
Bit rate : 192 Kbps
Channel(s) : 2 channels
Channel positions : Front: L R
Sampling rate : 48.0 KHz
Bit depth : 16 bits
Compression mode : Lossy
Stream size : 137 MiB (4%)
Title : Живов
Language : Russian
Default : No
Forced : No
Audio #6
ID : 6
Format : AC-3
Format/Info : Audio Coding 3
Mode extension : CM (complete main)
Format settings, Endianness : Big
Codec ID : A_AC3
Duration : 1h 39mn
Bit rate mode : Constant
Bit rate : 448 Kbps
Channel(s) : 6 channels
Channel positions : Front: L C R, Side: L R, LFE
Sampling rate : 48.0 KHz
Bit depth : 16 bits
Compression mode : Lossy
Stream size : 319 MiB (10%)
Title : Королев
Language : Russian
Default : No
Forced : No
Text #7
ID : 7
Format : UTF-8
Codec ID : S_TEXT/UTF8
Codec ID/Info : UTF-8 Plain Text
Language : Russian
Default : No
Forced : No
Text #8
ID : 8
Format : UTF-8
Codec ID : S_TEXT/UTF8
Codec ID/Info : UTF-8 Plain Text
Language : English
Default : No
Forced : No

Скриншоты

Путь дракона / Meng long guo jiang

-- Информация о фильме:
Год выпуска:1972
Страна: Гонконг / Golden Harvest Company Ltd. Concord Productions Inc.
Жанр: боевик, триллер, драма, комедия, криминал
Продолжительность: 01:38:40
Перевод: Профессиональный (многоголосый закадровый)
Режиссер: Брюс Ли--В ролях: Брюс Ли, Нора Миао, Чун Синь Хуан, Вэй Пинао, Чак Норрис, Роберт Уолл, Инг-Сик Вэнг, Чин Ти, Тони Лю, Юникорн Чан--Описание: Тан приезжает из Гонконга в Рим, чтобы помочь друзьям семьи, чей ресторан задумали отобрать местные мафиози. Привыкшие всегда получать то, что захотят и не останавливаться ни перед чем, бандиты совершили большую ошибку, недооценив с виду скромного молодого человека.
Не сумев справиться с ним своими силами, мафиози нанимают лучших европейских и японских мастеров боевых искусств, но Тан с легкостью побеждает всех. И тогда против него на арену древнего Колизея выходит «крутой и смертоносный» американец Колт.--Рейтинг:- --Файл:
Качество: BDRip-AVC
Формат: MKV
Видео: x264, 4105 Кбит/с, 1024x436, 23.976 кадр/с
Аудио: Russian, AC3, 2 ch, 448 Кбит/с
--

Media Info

N:\Filmi\Блюс Ли Коллекция\Путь дракона.1972.x264.BDRip.mkv
General
Unique ID : 168348648403719580577546155723716462494 (0x7EA6C532C2870C1E037BA147C20E879E)
Complete name : N:\Filmi\Блюс Ли Коллекция\Путь дракона.1972.x264.BDRip.mkv
Format : Matroska
Format version : Version 2
File size : 3.20 GiB
Duration : 1h 38mn
Overall bit rate mode : Variable
Overall bit rate : 4 646 Kbps
Writing application : Lavf51.12.1
Writing library : Lavf51.12.1
Video #1
ID : 1
Format : AVC
Format/Info : Advanced Video Codec
Format profile : [email protected]
Format settings, CABAC : No
Format settings, ReFrames : 1 frame
Format settings, GOP : M=1, N=12
Codec ID : V_MPEG4/ISO/AVC
Duration : 1h 38mn
Bit rate mode : Variable
Bit rate : 4 105 Kbps
Maximum bit rate : 6 300 Kbps
Width : 1 024 pixels
Height : 436 pixels
Display aspect ratio : 2.35:1
Original display aspect ratio : 2.35:1
Frame rate mode : Constant
Frame rate : 23.976 fps
Original frame rate : 24.000 fps
Color space : YUV
Chroma subsampling : 4:2:0
Bit depth : 8 bits
Scan type : Progressive
Bits/(Pixel*Frame) : 0.384
Stream size : 2.83 GiB (88%)
Language : Chinese
Default : Yes
Forced : No
Audio #2
ID : 2
Format : AC-3
Format/Info : Audio Coding 3
Mode extension : CM (complete main)
Format settings, Endianness : Big
Codec ID : A_AC3
Duration : 1h 38mn
Bit rate mode : Constant
Bit rate : 448 Kbps
Channel(s) : 2 channels
Channel positions : Front: L R
Sampling rate : 48.0 KHz
Bit depth : 16 bits
Compression mode : Lossy
Stream size : 316 MiB (10%)
Language : Russian
Default : Yes
Forced : No

Скриншоты

Кулак ярости / Jing wu men

-- Информация о фильме:
Год выпуска:1972
Страна: Гонконг / Golden Harvest Company Ltd.
Жанр: боевик, триллер, драма, мелодрама
Продолжительность: 01:46:50
Перевод: Профессиональный многоголосый + авторский одноголосый + оригинал
Субтитры: Russian, English
Режиссер: Ло Вэй--В ролях: Брюс Ли, Нора Миао, Мария Йи, Джеймс Тьен, Фенг Тиен, Инь-Чиэ Хань, Роберт Бейкер, Фу Чинг Чен, Сань Чинь, Рики Хашимото--Описание: Искусный и быстрый, как молния, мастер восточных боевых искусств Чен Жен возвращается в свою бывшую школу, где его ждет страшная новость. Зверски убит глубоко почитаемый наставник, преподававший кун-фу и карате. Действие фильма происходит в 1908 году в оккупированном японцами Шанхае. Нападение на школу и убийство учителя было организовано одной из японских школ бушидо. Зная, что власти и пальцем не пошевелят, чтобы привлечь преступников к ответственности, Чен Жен обрушивает на злодеев свой кулак ярости.--Рейтинг:- --Файл:
Качество: BDRip-AVC
Формат: MKV
Видео: MPEG-4 AVC, 2700 Кбит/с, 1024x436, 23.976 кадр/с
Аудио#1: Russian (AC3, 6 ch, 448 Кбит/с) | Профессиональный многоголосый (Superbit)
Аудио#2: Russian, (AC3, 2 ch, 192 Кбит/с) | Профессиональный многоголосый
Аудио#3: Russian, (AC3, 6 ch, 448 Кбит/с) | Авторский одноголосый (В.Королёв)
Аудио#4: Russian, (AC3, 2 ch, 192 Кбит/с) | Авторский одноголосый (В.Горчаков)
Аудио#5: Russian, (AC3, 2 ch, 192 Кбит/с) | Авторский одноголосый (Ю.Живов)
Аудио#5: China, (AC3, 6 ch, 448 Кбит/с)
--

Media Info

N:\Filmi\Блюс Ли Коллекция\Кулак ярости.1972.x264.BDRip.mkv
General
Unique ID : 187655178731335556292852829860479807749 (0x8D2D12A29D5609449A6A8FEE704EB105)
Complete name : N:\Filmi\Блюс Ли Коллекция\Кулак ярости.1972.x264.BDRip.mkv
Format : Matroska
Format version : Version 4 / Version 2
File size : 3.45 GiB
Duration : 1h 46mn
Overall bit rate : 4 621 Kbps
Movie name : = MediaClub = rip by Painter
Encoded date : UTC 2013-05-07 11:20:38
Writing application : mkvmerge v6.1.0 ('Old Devil') built on Mar 2 2013 14:32:37
Writing library : libebml v1.3.0 + libmatroska v1.4.0
Video #1
ID : 1
Format : AVC
Format/Info : Advanced Video Codec
Format profile : [email protected]
Format settings, CABAC : Yes
Format settings, ReFrames : 9 frames
Codec ID : V_MPEG4/ISO/AVC
Duration : 1h 46mn
Bit rate : 2 700 Kbps
Width : 1 024 pixels
Height : 436 pixels
Display aspect ratio : 2.35:1
Frame rate mode : Constant
Frame rate : 23.976 fps
Color space : YUV
Chroma subsampling : 4:2:0
Bit depth : 8 bits
Scan type : Progressive
Bits/(Pixel*Frame) : 0.252
Stream size : 1.95 GiB (56%)
Writing library : x264 core 130 r2273 b3065e6
Encoding settings : cabac=1 / ref=9 / deblock=1:-2:-2 / analyse=0x3:0x133 / me=umh / subme=11 / psy=1 / psy_rd=1.00:0.20 / mixed_ref=1 / me_range=48 / chroma_me=1 / trellis=2 / 8x8dct=1 / cqm=0 / deadzone=21,11 / fast_pskip=0 / chroma_qp_offset=-3 / threads=6 / lookahead_threads=1 / sliced_threads=0 / nr=0 / decimate=0 / interlaced=0 / bluray_compat=0 / constrained_intra=0 / bframes=8 / b_pyramid=2 / b_adapt=2 / b_bias=0 / direct=3 / weightb=1 / open_gop=0 / weightp=2 / keyint=240 / keyint_min=23 / scenecut=40 / intra_refresh=0 / rc=2pass / mbtree=0 / bitrate=2700 / ratetol=1.0 / qcomp=0.60 / qpmin=0 / qpmax=69 / qpstep=4 / cplxblur=20.0 / qblur=0.5 / ip_ratio=1.40 / pb_ratio=1.30 / aq=1:1.00
Language : Chinese
Default : Yes
Forced : No
Audio #2
ID : 2
Format : AC-3
Format/Info : Audio Coding 3
Mode extension : CM (complete main)
Format settings, Endianness : Big
Codec ID : A_AC3
Duration : 1h 46mn
Bit rate mode : Constant
Bit rate : 448 Kbps
Channel(s) : 6 channels
Channel positions : Front: L C R, Side: L R, LFE
Sampling rate : 48.0 KHz
Bit depth : 16 bits
Compression mode : Lossy
Stream size : 342 MiB (10%)
Title : Многоголосый (Superbit)
Language : Russian
Default : Yes
Forced : No
Audio #3
ID : 3
Format : AC-3
Format/Info : Audio Coding 3
Mode extension : CM (complete main)
Format settings, Endianness : Big
Codec ID : A_AC3
Duration : 1h 46mn
Bit rate mode : Constant
Bit rate : 192 Kbps
Channel(s) : 2 channels
Channel positions : Front: L R
Sampling rate : 48.0 KHz
Bit depth : 16 bits
Compression mode : Lossy
Stream size : 147 MiB (4%)
Title : Многоголосый
Language : Russian
Default : No
Forced : No
Audio #4
ID : 4
Format : AC-3
Format/Info : Audio Coding 3
Mode extension : CM (complete main)
Format settings, Endianness : Big
Codec ID : A_AC3
Duration : 1h 46mn
Bit rate mode : Constant
Bit rate : 448 Kbps
Channel(s) : 6 channels
Channel positions : Front: L C R, Side: L R, LFE
Sampling rate : 48.0 KHz
Bit depth : 16 bits
Compression mode : Lossy
Stream size : 342 MiB (10%)
Title : Королев
Language : Russian
Default : No
Forced : No
Audio #5
ID : 5
Format : AC-3
Format/Info : Audio Coding 3
Mode extension : CM (complete main)
Format settings, Endianness : Big
Codec ID : A_AC3
Duration : 1h 46mn
Bit rate mode : Constant
Bit rate : 192 Kbps
Channel(s) : 2 channels
Channel positions : Front: L R
Sampling rate : 48.0 KHz
Bit depth : 16 bits
Compression mode : Lossy
Stream size : 147 MiB (4%)
Title : Горчаков
Language : Russian
Default : No
Forced : No
Audio #6
ID : 6
Format : AC-3
Format/Info : Audio Coding 3
Mode extension : CM (complete main)
Format settings, Endianness : Big
Codec ID : A_AC3
Duration : 1h 46mn
Bit rate mode : Constant
Bit rate : 192 Kbps
Channel(s) : 2 channels
Channel positions : Front: L R
Sampling rate : 48.0 KHz
Bit depth : 16 bits
Compression mode : Lossy
Stream size : 147 MiB (4%)
Title : Живов
Language : Russian
Default : No
Forced : No
Audio #7
ID : 7
Format : AC-3
Format/Info : Audio Coding 3
Mode extension : CM (complete main)
Format settings, Endianness : Big
Codec ID : A_AC3
Duration : 1h 46mn
Bit rate mode : Constant
Bit rate : 448 Kbps
Channel(s) : 6 channels
Channel positions : Front: L C R, Side: L R, LFE
Sampling rate : 48.0 KHz
Bit depth : 16 bits
Compression mode : Lossy
Stream size : 342 MiB (10%)
Language : Chinese
Default : No
Forced : No
Text #8
ID : 8
Format : UTF-8
Codec ID : S_TEXT/UTF8
Codec ID/Info : UTF-8 Plain Text
Language : Russian
Default : No
Forced : No
Text #9
ID : 9
Format : UTF-8
Codec ID : S_TEXT/UTF8
Codec ID/Info : UTF-8 Plain Text
Language : English
Default : No
Forced : No
Menu
00:00:00.000 : :Chapter 01
00:04:18.466 : :Chapter 02
00:06:05.655 : :Chapter 03
00:08:52.196 : :Chapter 04
00:15:57.373 : :Chapter 05
00:26:17.826 : :Chapter 06
00:29:33.896 : :Chapter 07
00:39:04.675 : :Chapter 08
00:45:18.925 : :Chapter 09
00:49:08.862 : :Chapter 10
00:56:56.579 : :Chapter 11
01:01:14.753 : :Chapter 12
01:09:23.368 : :Chapter 13
01:16:25.037 : :Chapter 14
01:23:20.662 : :Chapter 15
01:28:38.521 : :Chapter 16
01:36:37.750 : :Chapter 17
01:41:55.150 : :Chapter 18

Скриншоты

Выход Дракона / Остров Дракона / Enter the Dragon

-- Информация о фильме:
Год выпуска:1973
Страна: Гонконг, США, Concord Productions Inc., Sequoia Productions, Warner Bros. Pictures Co.
Жанр: боевик, триллер, драма, криминал
Продолжительность: 01:42:33
Перевод: Дублированный, профессиональный (многоголосый закадровый), авторский (одноголосый закадровый)
Субтитры: Russian, English
Режиссер: Роберт Клауз--В ролях: Брюс Ли, Кьень Ши, Джон Сэксон, Джим Келли, Боло Йенг, Ана Капри, Анджела Мао, Роберт Уолл, Бетти Чюн, Джефри Уикс--Описание: События переносят нас на остров, превращенный в крепость главарем боевиков, открывшим там школу боевых искусств, которая является лишь ширмой, маскирующей контрабандный бизнес. В эту цитадель проникает герой Брюса Ли и становится участником жестокого турнира…--Рейтинг:- --Файл:
Качество: BDRip-AVC
Формат: MKV
Видео: x264, 2776 Кбит/с, 1024x426, 23.976 кадр/с
Аудио#1: Russian (AC3, 6 ch, 384 Кбит/с) / Дублированный
Аудио#2: Russian, (AC3, 6 ch, 384 Кбит/с) / Профессиональный многоголосый (Superbit)
Аудио#3: Russian, (AC3, 2 ch, 192 Кбит/с) / Авторский одноголосый (Алексей Михалев)
Аудио#4: English, (AC3, 6 ch, 384 Кбит/с)
--

Media Info

N:\Filmi\Блюс Ли Коллекция\Остров дракона.1973.x264.BDRip.mkv
General
Unique ID : 192699528199414953505416747497917161657 (0x90F89444044F7DC697318EB7DA46A0B9)
Complete name : N:\Filmi\Блюс Ли Коллекция\Остров дракона.1973.x264.BDRip.mkv
Format : Matroska
Format version : Version 4 / Version 2
File size : 2.95 GiB
Duration : 1h 42mn
Overall bit rate : 4 123 Kbps
Movie name : Выход Дракона (Остров Дракона) | Enter the Dragon [1973] -=BDRip (AVC) by 0ptimus=-
Encoded date : UTC 2013-06-17 13:57:21
Writing application : mkvmerge v6.1.0 ('Old Devil') built on Mar 2 2013 14:32:37
Writing library : libebml v1.3.0 + libmatroska v1.4.0
Video #1
ID : 1
Format : AVC
Format/Info : Advanced Video Codec
Format profile : [email protected]
Format settings, CABAC : Yes
Format settings, ReFrames : 9 frames
Codec ID : V_MPEG4/ISO/AVC
Duration : 1h 42mn
Bit rate : 2 776 Kbps
Width : 1 024 pixels
Height : 426 pixels
Display aspect ratio : 2.40:1
Frame rate mode : Constant
Frame rate : 23.976 fps
Color space : YUV
Chroma subsampling : 4:2:0
Bit depth : 8 bits
Scan type : Progressive
Bits/(Pixel*Frame) : 0.265
Stream size : 1.93 GiB (65%)
Title : Rip by 0ptimus
Writing library : x264 core 133 r2334 a3ac64b
Encoding settings : cabac=1 / ref=9 / deblock=1:-3:-3 / analyse=0x3:0x113 / me=umh / subme=11 / psy=1 / psy_rd=1.00:0.20 / mixed_ref=1 / me_range=32 / chroma_me=1 / trellis=2 / 8x8dct=1 / cqm=0 / deadzone=21,11 / fast_pskip=0 / chroma_qp_offset=-3 / threads=3 / lookahead_threads=1 / sliced_threads=0 / nr=0 / decimate=0 / interlaced=0 / bluray_compat=0 / constrained_intra=0 / bframes=8 / b_pyramid=2 / b_adapt=2 / b_bias=0 / direct=3 / weightb=1 / open_gop=0 / weightp=2 / keyint=240 / keyint_min=23 / scenecut=40 / intra_refresh=0 / rc_lookahead=40 / rc=2pass / mbtree=0 / bitrate=2776 / ratetol=1.0 / qcomp=0.60 / qpmin=0 / qpmax=69 / qpstep=4 / cplxblur=20.0 / qblur=0.5 / vbv_maxrate=50000 / vbv_bufsize=50000 / nal_hrd=none / ip_ratio=1.40 / pb_ratio=1.30 / aq=1:1.00
Language : English
Default : Yes
Forced : Yes
Audio #2
ID : 2
Format : AC-3
Format/Info : Audio Coding 3
Mode extension : CM (complete main)
Format settings, Endianness : Big
Codec ID : A_AC3
Duration : 1h 42mn
Bit rate mode : Constant
Bit rate : 384 Kbps
Channel(s) : 6 channels
Channel positions : Front: L C R, Side: L R, LFE
Sampling rate : 48.0 KHz
Bit depth : 16 bits
Compression mode : Lossy
Stream size : 282 MiB (9%)
Title : Дублироованный AC3 5.1 384 kbps
Language : Russian
Default : Yes
Forced : Yes
Audio #3
ID : 3
Format : AC-3
Format/Info : Audio Coding 3
Mode extension : CM (complete main)
Format settings, Endianness : Big
Codec ID : A_AC3
Duration : 1h 42mn
Bit rate mode : Constant
Bit rate : 384 Kbps
Channel(s) : 6 channels
Channel positions : Front: L C R, Side: L R, LFE
Sampling rate : 48.0 KHz
Bit depth : 16 bits
Compression mode : Lossy
Stream size : 282 MiB (9%)
Title : Многоголосый закадровый [Superbit] AC3 5.1 384 kbps
Language : Russian
Default : No
Forced : No
Audio #4
ID : 4
Format : AC-3
Format/Info : Audio Coding 3
Mode extension : CM (complete main)
Format settings, Endianness : Big
Codec ID : A_AC3
Duration : 1h 42mn
Bit rate mode : Constant
Bit rate : 192 Kbps
Channel(s) : 2 channels
Channel positions : Front: L R
Sampling rate : 48.0 KHz
Bit depth : 16 bits
Compression mode : Lossy
Stream size : 141 MiB (5%)
Title : Авторский [Алексей Михалев] AC3 2.0 192 kbps
Language : Russian
Default : No
Forced : No
Audio #5
ID : 5
Format : AC-3
Format/Info : Audio Coding 3
Mode extension : CM (complete main)
Format settings, Endianness : Big
Codec ID : A_AC3
Duration : 1h 42mn
Bit rate mode : Constant
Bit rate : 384 Kbps
Channel(s) : 6 channels
Channel positions : Front: L C R, Side: L R, LFE
Sampling rate : 48.0 KHz
Bit depth : 16 bits
Compression mode : Lossy
Stream size : 282 MiB (9%)
Title : AC3 5.1 384 kbps
Language : English
Default : No
Forced : No
Text #6
ID : 6
Format : UTF-8
Codec ID : S_TEXT/UTF8
Codec ID/Info : UTF-8 Plain Text
Language : Russian
Default : No
Forced : No
Text #7
ID : 7
Format : UTF-8
Codec ID : S_TEXT/UTF8
Codec ID/Info : UTF-8 Plain Text
Language : English
Default : No
Forced : No
Menu
00:00:00.000 : en:The Winner
00:02:29.316 : en:A Martial Artist's Responsibility
00:05:28.495 : en:Emotional Content
00:08:26.339 : en:Honk Kong Arrivals
00:10:40.640 : en:Background on Han
00:14:39.212 : en:Su Lin's Tragedy
00:20:16.215 : en:Roper: A Betting Man
00:25:08.340 : en:Williams on the Run
00:27:40.993 : en:Odds on Insects
00:31:34.059 : en:Parsons Takes a Ride
00:34:03.875 : en:Han's Hospitalit
00:39:00.171 : en:Fattened for the Kill?
00:41:53.678 : en:After-Hours Menu
00:45:21.052 : en:Morning Ritual
00:46:35.459 : en:"Let the Tournament Begin"
00:50:48.212 : en:Midnight Exploration
00:55:11.475 : en:Caught in the Act
00:57:56.306 : en:Punishment
01:00:36.132 : en:Lee vs. Oharra
01:05:27.924 : en:Willams vs. Han
01:09:00.303 : en:Roper's Limit
01:11:25.281 : en:Clear Understanding
01:16:01.056 : en:Radio Room Raid
01:20:09.972 : en:Cavern Combat
01:25:09.104 : en:Roper vs. Bolo
01:28:51.660 : en:Fighting Frenzy
01:31:37.158 : en:Lee vs. Han
01:35:14.542 : en:Reflection of Death
01:40:24.018 : en:Thumbs Up

Скриншоты

Игра смерти / Game of Death

-- Информация о фильме:
Год выпуска:1978
Страна: Гонконг, США
Жанр: боевик, триллер, драма, криминал
Продолжительность: 01:40:19
Перевод: многоголосый
Режиссер: Роберт Клауз, Саммо Хунг Кам-Бо, Брюс Ли--В ролях: Брюс Ли, Коллин Кэмп, Дин Джэггер, Гиг Янг, Таи Чунг Ким, Юэнь Бяо, Роберт Уолл, Карим Абдул-Джаббар, Мел Новак, Хью О’Брайан--Описание: Преступный синдикат зловещего доктора Лэнда контролирует гонконгский шоу-бизнес: все артисты обязаны отчислять мафии немалые суммы со всех своих доходов. Молодой актер Билли Ло вступает в борьбу с преступным синдикатом.--Рейтинг:- --Файл:
Качество: BDRip-AVC
Формат: MKV
Видео: MPEG-4 AVC, 3714 Кбит/с, 1024x436, 23.976 кадра/сек
Аудио: AC3, 2 ch, 320 Кбит/с
--

Media Info

N:\Filmi\Блюс Ли Коллекция\Игра смерти.1978.x264.BDRip.mkv
General
Unique ID : 168348648403719580577546155723716462494 (0x7EA6C532C2870C1E037BA147C20E879E)
Complete name : N:\Filmi\Блюс Ли Коллекция\Игра смерти.1978.x264.BDRip.mkv
Format : Matroska
Format version : Version 2
File size : 2.88 GiB
Duration : 1h 40mn
Overall bit rate mode : Variable
Overall bit rate : 4 116 Kbps
Writing application : Lavf51.12.1
Writing library : Lavf51.12.1
Video #1
ID : 1
Format : AVC
Format/Info : Advanced Video Codec
Format profile : [email protected]
Format settings, CABAC : No
Format settings, ReFrames : 1 frame
Format settings, GOP : M=1, N=12
Codec ID : V_MPEG4/ISO/AVC
Duration : 1h 40mn
Bit rate mode : Variable
Bit rate : 3 714 Kbps
Maximum bit rate : 5 700 Kbps
Width : 1 024 pixels
Height : 436 pixels
Display aspect ratio : 2.35:1
Original display aspect ratio : 2.35:1
Frame rate mode : Constant
Frame rate : 23.976 fps
Original frame rate : 24.000 fps
Color space : YUV
Chroma subsampling : 4:2:0
Bit depth : 8 bits
Scan type : Progressive
Bits/(Pixel*Frame) : 0.347
Stream size : 2.60 GiB (90%)
Language : English
Default : Yes
Forced : No
Audio #2
ID : 2
Format : AC-3
Format/Info : Audio Coding 3
Mode extension : CM (complete main)
Format settings, Endianness : Big
Codec ID : A_AC3
Duration : 1h 40mn
Bit rate mode : Constant
Bit rate : 320 Kbps
Channel(s) : 2 channels
Channel positions : Front: L R
Sampling rate : 44.1 KHz
Bit depth : 16 bits
Compression mode : Lossy
Stream size : 230 MiB (8%)
Language : Russian
Default : Yes
Forced : No

Скриншоты

Я - Брюс Ли / I Am Bruce Lee

-- Информация о фильме:
Год выпуска:2012
Страна: Канада, Network Entertainment
Жанр: Документальный, биография
Продолжительность: 01:34:06
Перевод: Дублированный
Режиссер: Пит МакКормак--В ролях: Даниэль Болелли, Пол Боуман, Ричард Бустилло, Стэфан Боннар, Коби Брайант, Линда Ли Кэдуэлл, Джина Карано, Реджинальд Хадлин, Дэн Иносанто, Диана Ли Иносанто--Описание: Этот документальный фильм содержит множество редких фотографий и интервью Брюса Ли. Великие атлеты, актёры, режиссёры и продюсеры делятся своими воспоминаниями о нём.--Рейтинг:- --Файл:
Качество: BDRip-AVC
Формат: MKV
Видео: х264, 2499 Кбит/с, 1024x576, 23.970 кадр/с
Аудио#1: Russian (AC3, 2 ch, 192 Кбит/с)
Аудио#2: English, (AC3, 6 ch, 384 Кбит/с)
--

Media Info

N:\Filmi\Блюс Ли Коллекция\Я Брюс Ли.2012.x264.BDRip.mkv
General
Unique ID : 226397274201537496604700830516735063395 (0xAA52876AA8BB8E5183ED6685F4AF3563)
Complete name : N:\Filmi\Блюс Ли Коллекция\Я Брюс Ли.2012.x264.BDRip.mkv
Format : Matroska
Format version : Version 1
File size : 2.02 GiB
Duration : 1h 34mn
Overall bit rate : 3 077 Kbps
Encoded date : UTC 2013-03-02 15:43:07
Writing application : mkvmerge v2.1.0 ('Another Place To Fall') built on Aug 19 2007 13:40:07
Writing library : libebml v0.7.7 + libmatroska v0.8.1
Video #1
ID : 1
Format : AVC
Format/Info : Advanced Video Codec
Format profile : [email protected]
Format settings, CABAC : Yes
Format settings, ReFrames : 8 frames
Codec ID : V_MPEG4/ISO/AVC
Duration : 1h 34mn
Bit rate : 2 499 Kbps
Width : 1 024 pixels
Height : 576 pixels
Display aspect ratio : 16:9
Frame rate mode : Constant
Frame rate : 29.970 fps
Color space : YUV
Chroma subsampling : 4:2:0
Bit depth : 8 bits
Scan type : Progressive
Bits/(Pixel*Frame) : 0.141
Stream size : 1.60 GiB (79%)
Title : I Am Bruce Lee
Writing library : x264 core 129 r2245 bc13772
Encoding settings : cabac=1 / ref=8 / deblock=1:-3:-3 / analyse=0x3:0x133 / me=umh / subme=10 / psy=1 / psy_rd=1.00:0.10 / mixed_ref=1 / me_range=32 / chroma_me=1 / trellis=2 / 8x8dct=1 / cqm=0 / deadzone=21,11 / fast_pskip=0 / chroma_qp_offset=-3 / threads=7 / lookahead_threads=1 / sliced_threads=0 / nr=0 / decimate=1 / interlaced=0 / bluray_compat=0 / constrained_intra=0 / bframes=8 / b_pyramid=2 / b_adapt=2 / b_bias=0 / direct=3 / weightb=1 / open_gop=0 / weightp=2 / keyint=300 / keyint_min=29 / scenecut=40 / intra_refresh=0 / rc_lookahead=40 / rc=2pass / mbtree=1 / bitrate=2499 / ratetol=1.0 / qcomp=0.60 / qpmin=10 / qpmax=51 / qpstep=4 / cplxblur=20.0 / qblur=0.5 / ip_ratio=1.40 / aq=1:1.00
Default : Yes
Forced : No
Audio #2
ID : 2
Format : AC-3
Format/Info : Audio Coding 3
Mode extension : CM (complete main)
Format settings, Endianness : Big
Codec ID : A_AC3
Duration : 1h 34mn
Bit rate mode : Constant
Bit rate : 192 Kbps
Channel(s) : 2 channels
Channel positions : Front: L R
Sampling rate : 48.0 KHz
Bit depth : 16 bits
Compression mode : Lossy
Stream size : 129 MiB (6%)
Title : Дубляж
Language : Russian
Default : No
Forced : No
Audio #3
ID : 3
Format : AC-3
Format/Info : Audio Coding 3
Mode extension : CM (complete main)
Format settings, Endianness : Big
Codec ID : A_AC3
Duration : 1h 34mn
Bit rate mode : Constant
Bit rate : 384 Kbps
Channel(s) : 6 channels
Channel positions : Front: L C R, Side: L R, LFE
Sampling rate : 48.0 KHz
Bit depth : 16 bits
Compression mode : Lossy
Stream size : 258 MiB (12%)
Title : Оригинал
Language : English
Default : No
Forced : No
Menu
00:00:00.000 : :Chapter 01
00:02:24.409 : :Chapter 02
00:06:05.464 : :Chapter 03
00:13:20.633 : :Chapter 04
00:18:51.663 : :Chapter 05
00:28:36.648 : :Chapter 06
00:38:51.094 : :Chapter 07
00:45:57.054 : :Chapter 08
00:56:06.129 : :Chapter 09
01:15:21.350 : :Chapter 10
01:20:17.479 : :Chapter 11
01:30:43.970 : :Chapter 12

Скриншоты



Последний раз редактировалось: Akmal89 (2014-07-04 16:31), всего редактировалось 1 раз

Создавать темы 04-Июл-2014 16:25

[Профиль]  [ЛС] 

Страх

Стаж: 3 года 10 месяцев

Сообщений: 1131

Симпатии: 448

хорошо, можно второй постер в середине убрать, пусть один черный постер остается, так эстетичнее. Хорошая коллекция.

Создавать темы 04-Июл-2014 16:28

[Профиль]  [ЛС] 

Akmal89 ®

Стаж: 5 лет 5 месяцев

Сообщений: 237

Симпатии: 99

как?

Создавать темы 04-Июл-2014 16:31

[Профиль]  [ЛС] 

Grock

Стаж: 6 лет 6 месяцев

Сообщений: 637

Симпатии: 113

Akmal89, После того как начнете раздачу, повешу монетку

Создавать темы 04-Июл-2014 17:36

[Профиль]  [ЛС] 

Азим

Стаж: 4 года 3 месяца

Сообщений: 29

Симпатии: 6

cb
851153как?

Создавать темы 04-Июл-2014 17:39

[Профиль]  [ЛС] 

DeFenDer007

Стаж: 4 года 1 месяц

Сообщений: 191

Симпатии: 9

красава давно искал )

_________________
Подпись отключена за нарушение правил форума

Создавать темы 04-Июл-2014 18:34

[Профиль]  [ЛС] 

superme

Стаж: 5 лет 7 месяцев

Сообщений: 13

Симпатии: 2

Золотая раздача, сенк ю!

Создавать темы 05-Июл-2014 14:23

[Профиль]  [ЛС] 

soxa

Стаж: 4 года 10 месяцев

Сообщений: 155

Симпатии: 21

СПС автору

Создавать темы 26-Июл-2014 18:21

[Профиль]  [ЛС] 

uzaynutdinov

Стаж: 4 года

Сообщений: 12

Симпатии: 3

Ребят уже несколько недель у меня не скачивается, помогите !

Создавать темы 13-Сен-2014 10:26

[Профиль]  [ЛС] 

Flatonfloor

Стаж: 4 года 5 месяцев

Сообщений: 179

Симпатии: 30

Вот за «I am Bruce Lee», отдельно спасибо автору! Давно хотел посмотреть этот фильм.
Be water my friend =)

Создавать темы 13-Сен-2014 11:06

[Профиль]  [ЛС] 

Ахмад салих

Стаж: 4 года 2 месяца

Сообщений: 117

Симпатии: 26

встаньте на Раздачу не могу Скачать который день

Создавать темы 26-Июн-2015 18:08

[Профиль]  [ЛС] 

Suhrob1995

Стаж: 6 лет 11 месяцев

Сообщений: 5

Симпатии: 1

Встаньте пожалуйста на раздачу

Создавать темы 01-Июл-2017 07:27

[Профиль]  [ЛС] 
Показать сообщения:    
Ответить на тему

Текущее время: 21-Авг 00:19

Часовой пояс: UTC + 5



Вы не можете начинать темы
Вы не можете отвечать на сообщения
Вы не можете редактировать свои сообщения
Вы не можете удалять свои сообщения
Вы не можете голосовать в опросах
Вы не можете прикреплять файлы к сообщениям
Вы не можете скачивать файлы