Наруто Ураганные хроники 367 / Naruto Shippuuden 367 (Датэ Хаято) [2014 г., Приключения, комедия, боевые искусства, сёнэн, HDTVRip]

Ответить на тему
 

sharof1 ®

Стаж: 4 года 7 месяцев

Сообщений: 26

Наруто Ураганные хроники 367 / Naruto Shippuuden 367
Год выпуска: 2014
Страна: Япония
Жанр: Приключения, комедия, боевые искусства, сёнэн
Продолжительность: 00:23:24
Перевод: Любительский (одноголосый)
Режиссер: Датэ Хаято
В ролях: акэути Дзюнко, Накамура Тиэ, Иноэ Кадзухико, Оцука Хотю, Кацуки Масако, Нэмото Кэйко, Морикубо Сётаро, Сэки Тосихико, Тобита Нобуо, Цубой Томохиро, Отани Икуэ, Паку Роми, Мидзуки Нана
Описание: Второе пришествие популярного аниме-сериала «Наруто».
Это аниме покроет вторую часть сюжетной линии манги, после событий в конце памятной арки о попытки вернуть Саске в деревню Скрытого Листа (серии 107-135).
История вращается в основном вокруг новых приключений Узумаки Наруто, Харуно Сакуры и их поиска Учиха Саске после того как тот покинул родную деревню чтобы обрести силу у Орочимару. Сюжет также покажет большую ативность, чем прежде Акатсуки в продвижении их плана по захвату всех «хвостатых» монстров.
Качество: HDTVRip
Формат: MKV
Видео кодек: XviD
Аудио кодек: MP3
Видео: MPEG4 Video (H264), 1280x720, 23.976fps
Аудио: MP3 44100Hz, stereo 128kbps

MediaInfo

Video
ID : 2
Format : AVC
Format/Info : Advanced Video Codec
Format profile : [email protected]
Format settings, CABAC : Yes
Format settings, ReFrames : 6 frames
Codec ID : V_MPEG4/ISO/AVC
Duration : 23mn 24s
Bit rate : 1 519 Kbps
Width : 1 280 pixels
Height : 720 pixels
Display aspect ratio : 16:9
Frame rate mode : Constant
Frame rate : 23.976 fps
Color space : YUV
Chroma subsampling : 4:2:0
Bit depth : 8 bits
Scan type : Progressive
Bits/(Pixel*Frame) : 0.069
Stream size : 254 MiB (90%)
Writing library : x264 core 142 r2431+42 c69a006 tMod [[email protected] X86_64]
Default : Yes
Forced : No
Color primaries : BT.709
Transfer characteristics : BT.709
Matrix coefficients : BT.709
Audio
ID : 1
Format : MPEG Audio
Format version : Version 1
Format profile : Layer 3
Mode : Joint stereo
Mode extension : MS Stereo
Codec ID : A_MPEG/L3
Codec ID/Hint : MP3
Duration : 23mn 24s
Bit rate mode : Constant
Bit rate : 128 Kbps
Channel(s) : 2 channels
Sampling rate : 44.1 KHz
Compression mode : Lossy
Stream size : 21.4 MiB (8%)
Default : Yes
Forced : No

Скриншоты




Создавать темы 04-Июл-2014 22:53

[Профиль]  [ЛС] 

Azizbuhhh

Стаж: 5 лет 1 месяц

Сообщений: 11

Симпатии: 1

качество как?

Комментарий от SNIL


А по скриншотам не ясно?

Создавать темы 05-Июл-2014 10:00

[Профиль]  [ЛС] 

Sanau

Стаж: 5 лет 2 месяца

Сообщений: 11

Симпатии: 1

368-371 будут выкладываться, если да, то обновление скоро ли?

Создавать темы 08-Июл-2014 18:37

[Профиль]  [ЛС] 
Показать сообщения:    
Ответить на тему

Текущее время: 14-Дек 18:15

Часовой пояс: UTC + 5



Вы не можете начинать темы
Вы не можете отвечать на сообщения
Вы не можете редактировать свои сообщения
Вы не можете удалять свои сообщения
Вы не можете голосовать в опросах
Вы не можете прикреплять файлы к сообщениям
Вы не можете скачивать файлы