BBC - The Wildest Dream - Conquest of Everest / BBC - Самая дикая мечта - Покорение Эвереста (Энтони Геффен) [2011 г., документальный, альпинизм, биография, приключения, BDRip, ENG/RUS Subtitles]

Ответить на тему
 

IQBOT ®

Стаж: 6 лет 9 месяцев

Сообщений: 449

Симпатии: 81

- - - -Год выпуска: 2011
Страна: США
Жанр: документальный, альпинизм, биография, приключения
Продолжительность: 01:28:10
Перевод: Субтитры [!]
Субтитры: English by BBC Subtitling / Русские от Penny Wiseman-Режиссер: Энтони Геффен-В ролях: Конрад Энкер, Хью Дэнси, Рэйф Файнс, Лео Хоулдинг, Лиам Нисон, Наташа Ричардсон, Алан Рикман-Описание:
Джордж Меллори был одержим мечтой стать первым человеком, покорившим неприступную гору Эверест. Последний раз его видели в 800-стах футах от вершины в 1924 году, после чего его поглотили облака и он исчез навсегда. Его смерть потрясла весь мир.
75 лет спустя, жизнь еще одного альпиниста Конрада Энкера тесно переплелась с историей Мэлори после того, как он обнаружил его останки с неповрежденным снаряжением. Единственной вещи, которой не хватало, была фотография его жены Рут, которую Меллори пообещал оставить на вершине Эвереста.
Попав в самое сердце этой истории, Конрад возвращается на Эверест, чтобы разгадать тайну загадочного исчезновения Меллори…-Качество: BDRip
Формат: MKV
Видео кодек: AVC
Аудио кодек: AC3
Видео: 1280*720 / 16:9 / CBR / 4 000 Kbps / 25.000 fps
Аудио: CBR / 192 Kbps / 48.0 KHz / Stereo
-

Отчет MediaInfo

BBC - The Wildest Dream - Conquest of Everest (2011).mkv
General
Format: Matroska
Format version: Version 2
File size: 2.58 GiB
Duration: 1h 28mn
Overall bit rate: 4 188 Kbps
Encoded date: UTC 2011-12-05 17:32:52
Writing application: mkvmerge v3.2.0 ('Beginnings') built on Feb 12 2010 16:46:17
Writing library: libebml v0.7.9 + libmatroska v0.8.1
Video
ID: 1
Format: AVC
Format/Info: Advanced Video Codec
Format profile: [email protected]
Format settings, CABAC: Yes
Format settings, ReFrames: 4 frames
Codec ID: V_MPEG4/ISO/AVC
Duration: 1h 28mn
Bit rate: 4 000 Kbps
Width: 1 280 pixels
Height: 720 pixels
Display aspect ratio: 16:9
Frame rate: 25.000 fps
Color space: YUV
Chroma subsampling: 4:2:0
Bit depth: 8 bits
Scan type: Progressive
Bits/(Pixel*Frame): 0.174
Stream size: 2.41 GiB (93%)
Writing library: x264 core 116 r2057 0ba8a9c
Language: English
Audio
ID: 2
Format: AC-3
Format/Info: Audio Coding 3
Mode extension: CM (complete main)
Codec ID: A_AC3
Duration: 1h 28mn
Bit rate mode: Constant
Bit rate: 192 Kbps
Channel(s): 2 channels
Channel positions: Front: L R
Sampling rate: 48.0 KHz
Bit depth: 16 bits
Compression mode: Lossy
Stream size: 121 MiB (5%)
Language: English
Text #1
ID: 3
Format: UTF-8
Codec ID: S_TEXT/UTF8
Codec ID/Info: UTF-8 Plain Text
Title: English by BBC Subtitling
Language: English
Text #2
ID: 4
Format: UTF-8
Codec ID: S_TEXT/UTF8
Codec ID/Info: UTF-8 Plain Text
Title: Russian by Penny Wiseman
Language: Russian

Скриншоты




Покорить Эверест в одежде 1920-х годов не удалось

Покорить Эверест в одежде 1920-х годов не удалось-Альпинисты Конрад Энкер и Лео Хоулдинг взошли на Эверест, используя снаряжение 20-х годов прошлого века, но из-за холода им пришлось облачиться в современную одежду.
Холод все-таки заставил двух альпинистов, совершавших восхождение на Эверест в стиле 20-х годов прошлого столетия, надеть современную одежду. Об этом сообщает агентство Reuters.
Американец Конрад Энкер и британец Лео Хоулдинг решили покорить самую высокую гору в мире, пройдя по маршруту легендарного Джорджа Мэллори. Мэллори и его напарник Эндрю Ирвин погибли при восхождении на Эверест в 1924 году, и до сих пор остается неизвестным, удалось ли им добраться до вершины. В последний раз их видели в 200 метрах от пика, после чего погода резко ухудшилась, и разглядеть альпинистов больше не удавалось. Замерзшее тело Мэллори в 1999 году в 2030 метрах ниже вершины обнаружил Энкер, а останки Ирвина не найдены по сей день. Считается, что впервые Эверест был покорен в 1953 году новозеландцем Эдмундом Хиллари и шерпом Тэнцингом Норгеем.
Энкер и Хоулдинг намеревались использовать только то оборудование и экипировку, которые были доступны экспедиции начала прошлого века — это палатки, веревки из пеньки и одежда из шелка и шерсти. Однако из-за холода скалолазам пришлось облачиться в современную альпинистскую одежду. Особого выбора у них не было: на вершине горы температура воздуха опускается до —60 градусов, а ветер дует со скоростью 200 км/ч.
Альпинисты покоряли гору в сопровождении съемочной группы компании Altitude Films, которая снимала фильм об экспедиции. С трудом, но все же успешно, им удалось преодолеть «Вторую ступень» — самый сложный участок маршрута, вертикальную сорокаметровую скалу. Сегодня на скале установлены лестницы, которые облегчают подъем. Но поскольку во время восхождения Мэллори лестниц там еще не было, для чистоты эксперимента их демонтировали, и Энкер со спутником использовали только канаты. 14 июня альпинисты достигли вершины горы. Теперь они почти уверены, что Джордж Мэллори и Эндрю Ирвин вполне могли быть первыми покорителями Эвереста, а смерть настигла их не при восхождении, а при спуске.
Высочайшая гора Земли сегодня привлекает даже неопытных альпинистов. Только в этом году на Эверест восходили 514 человек. Из-за этого рекордного показателя разгорелись дебаты о необходимости коммерциализировать гору и взимать плату с каждого, кто желает испытать свои силы в подъеме на высоту в 8848 метров.
-КОМПЬЮЛЕНТА :: Покорить Эверест в одежде 1920-х годов не удалось

Создавать темы 06-Июл-2014 02:26

[Профиль]  [ЛС] 

Kozma

Стаж: 4 года 9 месяцев

Сообщений: 4

так есть же с переводом, не хочется читать субтитры, когда такие виды :)
https://tas-ix.net/viewtopic.php?t=70214
Может добавите дорожку одноголосную ? ))

Создавать темы 06-Июл-2014 14:52

[Профиль]  [ЛС] 

IQBOT ®

Стаж: 6 лет 9 месяцев

Сообщений: 449

Симпатии: 81

Kozma, и где мне по Вашему её взять? Я фильм для себя качала, русская дорожка мне не обязательна. Оказалось, что других тоже фильм интересует, так что выложила, что было.

Создавать темы 06-Июл-2014 15:32

[Профиль]  [ЛС] 

anna140987

Стаж: 4 года 9 месяцев

Сообщений: 97

Симпатии: 12

Как же не хватает кнопки "СПАСИБО"!

Создавать темы 06-Июл-2014 19:15

[Профиль]  [ЛС] 

Kozma

Стаж: 4 года 9 месяцев

Сообщений: 4

Да, Бог с Вами! Какие нарекания. Я просто поделился мыслью, что многим желающим посмотреть этот фильм,( я уже видел- восторг, тем более что сам был в 6 км-овом лагере и видел вживую) русская дорога будет нужна. Извините, если вам тон не понравился, ей- ей, не это было моей мыслью.

Создавать темы 08-Июл-2014 11:28

[Профиль]  [ЛС] 
Показать сообщения:    
Ответить на тему

Текущее время: 23-Окт 14:56

Часовой пояс: UTC + 5



Вы не можете начинать темы
Вы не можете отвечать на сообщения
Вы не можете редактировать свои сообщения
Вы не можете удалять свои сообщения
Вы не можете голосовать в опросах
Вы не можете прикреплять файлы к сообщениям
Вы не можете скачивать файлы