Если бы я сломал её флаг.../Kanojo ga Flag o Oraretara (Ватанабэ Аюму) [TV] [13 из 13] [RUS] [Ancord] [2014 г., комедия, мистика, романтика, этти, HDTVRip] [720p]

Ответить на тему
 

SNIL ®

Стаж: 5 лет 9 месяцев

Сообщений: 2624

Симпатии: 341

Если бы я сломал её флаг...
Kanojo ga Flag o Oraretara
-
Год выпуска: 2014
Страна: Япония
Жанр: Комедия, мистика, романтика, этти
Продолжительность: 13 эп. по 25 мин.-Озвучка:
  • Ancord
-Режиссёр: Ватанабэ Аюму
Автор оригинала: Такэй Тока
Студия: Hoods-Описание:
Хататэ Сота ВНЕЗАПНО не обычный старшеклассник. Что в нем особенного? На макушке у каждого человека он видит флаг, который показывает то, что его ждет в скором времени. Однако из-за этой "Силы" за Сотой по пятам ходит невезение и неудачи. И вот, он перевелся в новую школу надеясь, что тут сможет спокойно продолжить свое существование в мире и тишине, однако...-Качество: HDTVRip
Формат видео: mp4
Видео: x264 (8 bits), 1280х720, ~1 800 kbps, 25.000 fps
Аудио Russian: ААС, 44.0 kHz, 128 Kbps, 2ch -

Подробные тех. данные

E:\Аниме\Kanojo ga Flag o Oraretara\Kanojo ga Flag o Oraretara [1] [Ancord].mp4
   General
      Complete name : E:\Аниме\Kanojo ga Flag o Oraretara\Kanojo ga Flag o Oraretara [1] [Ancord].mp4
      Format : MPEG-4
      Format profile : Base Media
      Codec ID : isom
      File size : 341 MiB
      Duration : 24mn 0s
      Overall bit rate : 1 985 Kbps
      Writing application : Lavf54.59.106
   Video #1
      ID : 1
      Format : AVC
      Format/Info : Advanced Video Codec
      Format profile : [email protected]
      Format settings, CABAC : Yes
      Format settings, ReFrames : 4 frames
      Codec ID : avc1
      Codec ID/Info : Advanced Video Coding
      Duration : 24mn 0s
      Duration_LastFrame : -1ms
      Bit rate mode : Variable
      Bit rate : 1 800 Kbps
      Width : 1 280 pixels
      Height : 720 pixels
      Display aspect ratio : 16:9
      Frame rate mode : Constant
      Frame rate : 25.000 fps
      Color space : YUV
      Chroma subsampling : 4:2:0
      Bit depth : 8 bits
      Scan type : Progressive
      Bits/(Pixel*Frame) : 0.078
      Stream size : 318 MiB (93%)
      Writing library : x264 core 129
      Encoding settings : cabac=1 / ref=3 / deblock=1:0:0 / analyse=0x3:0x113 / me=hex / subme=7 / psy=1 / psy_rd=1.00:0.00 / mixed_ref=1 / me_range=16 / chroma_me=1 / trellis=1 / 8x8dct=1 / cqm=0 / deadzone=21,11 / fast_pskip=1 / chroma_qp_offset=-2 / threads=24 / lookahead_threads=4 / sliced_threads=0 / nr=0 / decimate=1 / interlaced=0 / bluray_compat=0 / constrained_intra=0 / bframes=3 / b_pyramid=2 / b_adapt=1 / b_bias=0 / direct=1 / weightb=1 / open_gop=0 / weightp=2 / keyint=250 / keyint_min=25 / scenecut=40 / intra_refresh=0 / rc_lookahead=40 / rc=abr / mbtree=1 / bitrate=1800 / ratetol=1.0 / qcomp=0.60 / qpmin=0 / qpmax=69 / qpstep=4 / ip_ratio=1.40 / aq=1:1.00
   Audio #2
      ID : 2
      Format : AAC
      Format/Info : Advanced Audio Codec
      Format version : Version 4
      Format profile : LC
      Format settings, SBR : No
      Codec ID : 40
      Duration : 23mn 59s
      Bit rate mode : Constant
      Bit rate : 128 Kbps
      Channel(s) : 2 channels
      Channel positions : Front: L R
      Sampling rate : 44.1 KHz
      Stream size : 21.9 MiB (6%)
      Language : Russian

Скриншоты

Создавать темы 09-Июл-2014 10:19

[Профиль]  [ЛС] 

SNIL ®

Стаж: 5 лет 9 месяцев

Сообщений: 2624

Симпатии: 341

Наконец выкачал его) приятного!

Создавать темы 09-Июл-2014 10:21

[Профиль]  [ЛС] 

darkice

Стаж: 6 лет 10 месяцев

Сообщений: 34

Симпатии: 13

Скачал и только потом обратил внимание что нету оригинальной дорожки беда печаль....

Создавать темы 17-Июл-2014 21:28

[Профиль]  [ЛС] 

SNIL ®

Стаж: 5 лет 9 месяцев

Сообщений: 2624

Симпатии: 341

darkice, насчёт, без озвучки к Alex_38
P.S Если бы не Анкорд, то в углу бы валялся этот тайтл (Анкорд спаситель штампатрэшового жанра:)

Создавать темы 17-Июл-2014 21:47

[Профиль]  [ЛС] 

Phantomhive

Стаж: 4 года 4 месяца

Сообщений: 218

Симпатии: 10

дорогой товариш SNIL,!!!
во 1их спс за аниме пасматрел 3 сери улибалса много!!!
во 2их этот аниме состоит из жанра ЭТТИ но там нету трусилей и титки, даже нижное белё не паказиваёт!!! bu md
во 3их простите я изврашенес!!! cb

Создавать темы 17-Июл-2014 22:31

[Профиль]  [ЛС] 

SNIL ®

Стаж: 5 лет 9 месяцев

Сообщений: 2624

Симпатии: 341

Phantomhive, :) Насчёт второго - Этти там присутствует как минимум в одной серии (там где они на горячих источниках) (так что с натяжкой, ему можно добавить жанр этти)

Создавать темы 17-Июл-2014 23:54

[Профиль]  [ЛС] 

kiss-of-death

Стаж: 6 лет 7 месяцев

Сообщений: 11

Дайте скорости Плизззззз

Комментарий от SNIL


уже давно удалил этот тайтл, вся надежда на скачавших

Создавать темы 07-Ноя-2014 11:16

[Профиль]  [ЛС] 

kiss-of-death

Стаж: 6 лет 7 месяцев

Сообщений: 11

ПАЦАНЫ НУ ХОТЬ КТО НИБУДЬ ДАЙТЕ СКОРОСТИ!!!!!!!

Создавать темы 08-Ноя-2014 00:44

[Профиль]  [ЛС] 

KIKRIK

Стаж: 3 года 11 месяцев

Сообщений: 4

парни почему у меня не качает я не понемаю этот торент

Создавать темы 07-Фев-2015 18:17

[Профиль]  [ЛС] 

KIKRIK

Стаж: 3 года 11 месяцев

Сообщений: 4

написана тока Подключение к Пирам

Создавать темы 07-Фев-2015 18:18

[Профиль]  [ЛС] 
Показать сообщения:    
Ответить на тему

Текущее время: 22-Окт 00:41

Часовой пояс: UTC + 5



Вы не можете начинать темы
Вы не можете отвечать на сообщения
Вы не можете редактировать свои сообщения
Вы не можете удалять свои сообщения
Вы не можете голосовать в опросах
Вы не можете прикреплять файлы к сообщениям
Вы не можете скачивать файлы