Небо и земля: Окончательная Битва/Heaven and Earth: Ultimate Fight, Tenjou Tenge: Ultimate Fight (Кавасэ Тосифуми)[OVA] [2 из 2][полухардсаб][ENG, JAP+SUB] [2004 г., боевые искусства, комедия, драма, этти, SATRip]

Ответить на тему
 

Monkey.D.Luffy ®

Стаж: 5 лет 9 месяцев

Сообщений: 263

Небо и земля:Окончательная Битва / Heaven and Earth:Ultimate Fight,Tenjou Tenge:Ultimate Fight,天上天下-- --Год выпуска: 2004
Страна: Япония
Жанр: боевые искусства, комедия, драма, этти
Продолжительность: 2 эпизода по 24 минуты
Перевод: субтитры
Русские субтитры: есть
-
-Режиссер: Кавасэ Тосифуми--Студия: --Описание: Они готовы на все, чтобы добиться победы. Сражение — превыше всего. На земле и на небесах им нет равных.
Соитиро Наги и Боб Макихара — настоящие уличные бойцы. Цель их жизни — одержать победу над этим миром. Никто и ничто не может противостоять им. Академия Тодо — ровно сотая школа на их пути. Они были абсолютно уверены, что добьются победы и здесь. Однако издревле академия считалась оплотом боевых искусств.
Таинственные силы ведут свою неведомую игру, и в этой игре главные герои — лишь пешки...
--Доп. информация: Продолжение ТВ сериала по сути это 25 и 26 серия. Хардсаб тока на OPENING и ENDING--Информационные ссылка: World Art--Качество: SATRip
Формат: MKV
Видео кодек: MPEG4
Аудио кодек: OGG Vorbis
Видео: H.264|640x480|23.9753 fps|1759 kbps
Аудио: Japanese-A_VORBIS|Stereo|48000 Hz|112 kbps
English-A_VORBIS|Stereo|48000 Hz|112 kbps
--

Скриншоты



MediA InfO

General
Unique ID : 239081070726484359642762110797524080083 (0xB3DD56DDFDF710DCAEF7E8E6551195D3)
Complete name : D:\torrent\Tenjou Tenge Ultimate Fight OVA\[AHQ] Tenjou Tenge - 26 - Ultimate Fight Part 2 - Germination.mkv
Format : Matroska
Format version : Version 1
File size : 349 MiB
Duration : 24mn 42s
Overall bit rate mode : Variable
Overall bit rate : 1 977 Kbps
Encoded date : UTC 2006-09-10 01:38:54
Writing application : mkvmerge v1.7.0 ('What Do You Take Me For') built on Apr 28 2006 17:20:19
Writing library : libebml v0.7.7 + libmatroska v0.8.0
Attachment : Yes / Yes
Video
ID : 1
Format : AVC
Format/Info : Advanced Video Codec
Format profile : [email protected]
Format settings, CABAC : Yes
Format settings, ReFrames : 16 frames
Codec ID : V_MPEG4/ISO/AVC
Duration : 24mn 42s
Bit rate : 1 709 Kbps
Nominal bit rate : 1 466 Kbps
Width : 640 pixels
Height : 480 pixels
Display aspect ratio : 4:3
Frame rate mode : Constant
Frame rate : 23.976 fps
Color space : YUV
Chroma subsampling : 4:2:0
Bit depth : 8 bits
Scan type : Progressive
Bits/(Pixel*Frame) : 0.232
Stream size : 302 MiB (86%)
Title : [AHQ] Tenjho Tenge - 26 - Ultimate Fight Part 2 - Germination
Writing library : x264 core 50 svn-557M
Encoding settings : cabac=1 / ref=16 / deblock=0:0:0 / analyse=0x3:0x133 / me=esa / subme=7 / brdo=1 / mixed_ref=1 / me_range=16 / chroma_me=1 / trellis=2 / 8x8dct=1 / cqm=0 / chroma_qp_offset=0 / slices=2 / nr=0 / decimate=1 / bframes=3 / b_pyramid=1 / b_adapt=1 / b_bias=0 / direct=2 / wpredb=1 / bime=1 / keyint=250 / keyint_min=25 / scenecut=40 / rc=2pass / bitrate=1466 / ratetol=1.0 / rceq='blurCplx^(1-qComp)' / qcomp=0.60 / qpmin=10 / qpmax=51 / qpstep=4 / cplxblur=20.0 / qblur=0.5 / ip_ratio=1.40 / pb_ratio=1.30
Default : Yes
Forced : No
Audio #1
ID : 2
Format : Vorbis
Format settings, Floor : 1
Codec ID : A_VORBIS
Duration : 24mn 42s
Bit rate mode : Variable
Bit rate : 114 Kbps
Channel(s) : 2 channels
Sampling rate : 48.0 KHz
Compression mode : Lossy
Stream size : 20.2 MiB (6%)
Title : Original Japanese Audio
Writing library : libVorbis 1.0 (UTC 2002-07-17)
Language : Japanese
Default : Yes
Forced : No
Writing application : Made with BeSweet v1.5b31
Encoded_Application/Url : http://DSPguru.doom9.org
Audio #2
ID : 3
Format : Vorbis
Format settings, Floor : 1
Codec ID : A_VORBIS
Duration : 24mn 42s
Bit rate mode : Variable
Bit rate : 114 Kbps
Channel(s) : 2 channels
Sampling rate : 48.0 KHz
Compression mode : Lossy
Stream size : 20.2 MiB (6%)
Title : Dubbed English Audio
Writing library : libVorbis 1.0 (UTC 2002-07-17)
Language : English
Default : No
Forced : No
Writing application : Made with BeSweet v1.5b31
Encoded_Application/Url : http://DSPguru.doom9.org
Text
ID : 4
Format : ASS
Codec ID : S_TEXT/ASS
Codec ID/Info : Advanced Sub Station Alpha
Compression mode : Lossless
Title : English Subtitles
Language : English
Default : Yes
Forced : No


Последний раз редактировалось: Monkey.D.Luffy (2014-07-09 20:04), всего редактировалось 4 раз(а)

Создавать темы 09-Июл-2014 10:26

[Профиль]  [ЛС] 

Азиз87

Стаж: 4 года 11 месяцев

Сообщений: 752

Симпатии: 143

  • Тех данные и скриншоты различны! ( Чем делали скриншоты?)
  • RU дорожка отсутствует (перевод: субтитры, а не Профессиональный (двухголосый) ), т.е. RAW не смотря на EN и OVA тег.
  • Средний балл: 7.9 из 10
    Место в рейтинге: 962 из 2606
    Проголосовало: 1284 чел.
    WA/MAL/ANIDB - ? не легче ссылку на инфу просто оставить?
  • Постер стоит ставить не обойного типа, чтобы размер в высоту привалировал!

Создавать темы 09-Июл-2014 12:51

[Профиль]  [ЛС] 

Dead_By_April

Стаж: 4 года 2 месяца

Сообщений: 32

на трекере есть тв с русской озвучкой?

Создавать темы 09-Июл-2014 14:05

[Профиль]  [ЛС] 

SNIL

Стаж: 5 лет 9 месяцев

Сообщений: 2624

Симпатии: 341

https://tas-ix.net/viewtopic.php?t=96563&spmode=full#leechers

Создавать темы 09-Июл-2014 15:18

[Профиль]  [ЛС] 

Monkey.D.Luffy ®

Стаж: 5 лет 9 месяцев

Сообщений: 263

SNIL,
там серии а здес ова

Создавать темы 09-Июл-2014 19:38

[Профиль]  [ЛС] 

SNIL

Стаж: 5 лет 9 месяцев

Сообщений: 2624

Симпатии: 341

Monkey.D.Luffy, Я в курсе! про это Dead_By_April, и спросил

Создавать темы 09-Июл-2014 20:33

[Профиль]  [ЛС] 

Monkey.D.Luffy ®

Стаж: 5 лет 9 месяцев

Сообщений: 263

SNIL,
тогда я не догнал

Создавать темы 09-Июл-2014 21:20

[Профиль]  [ЛС] 

Monkey.D.Luffy ®

Стаж: 5 лет 9 месяцев

Сообщений: 263

я всегда на раздаче

Создавать темы 20-Июл-2014 13:53

[Профиль]  [ЛС] 
Показать сообщения:    
Ответить на тему

Текущее время: 18-Окт 21:54

Часовой пояс: UTC + 5



Вы не можете начинать темы
Вы не можете отвечать на сообщения
Вы не можете редактировать свои сообщения
Вы не можете удалять свои сообщения
Вы не можете голосовать в опросах
Вы не можете прикреплять файлы к сообщениям
Вы не можете скачивать файлы