Красавица и чудовище / La Belle et la Bête [Кристоф Ганс][2014][фэнтези, мелодрама]BDRip 1080p

Ответить на тему
 

farhod.ihz ®

Стаж: 6 лет 6 месяцев

Сообщений: 56

Симпатии: 7

Красавица и чудовище / La Belle et la Bête
Год выпуска: 2014
Страна: Франция, Германия
Жанр: фэнтези, мелодрама
Продолжительность: 01:53:04
Перевод: Профессиональный (полное дублирование)
Субтитры: отсутствуют-Режиссёр: Кристоф Ганс
В ролях: Венсан Кассель, Леа Сейду, Андре Дюссолье, Эдуардо Норьега, Мириам Шарленс, Одри Лами, Сара Жиродо,-Описание: Дочь купца, смелая и отважная Белль, отправляется в замок чудовища, чтобы спасти жизнь своего отца. Очутившись в замке, Белль попадает в потусторонний мир волшебства, фантастических приключений и загадочной меланхолии.
Оказывается, что наводившее ужас на всю округу чудовище очень несчастно, а в его груди бьется доброе сердце. Белль все больше проникается симпатией к своему ужасному господину.
Благодаря пылкому сердцу и храбрости, она преодолевает все опасности, чтобы снять зловещие чары с чудовища. Но это произойдет, только если его сможет полюбить прекрасная девушка.-Качество: BDRip 1080p
Формат: MKV (Matroska Video)
Видео кодек: AVC
Аудио кодек: AC3
Видео: MPEG-4 AVC / 8547 kb/s / 1920x808 / 24.000 fps
Аудио #1: Russian / AC3 / 320 kb/s (2 ch) - Dub
Аудио #2: French / DTS / 1536 kb/s (6 ch) - Original- -

медиа инфо

General
Unique ID : 237125591641205237279262941449543887648 (0xB264BA4DF86B3F47B84B4E1C0DE62B20)
Complete name : J:\[NTFS]\La Belle et la Bête (Beauty and the Beast) 2014 HDR French Transfer BDRip 1080p.mkv
Format : Matroska
Format version : Version 4 / Version 2
File size : 8.20 GiB
Duration : 1h 53mn
Overall bit rate : 10.4 Mbps
Movie name : La Belle et la Bête (Beauty and the Beast) 2014 HDR French Transfer BDRip 1080p
Encoded date : UTC 2014-06-25 16:28:51
Writing application : mkvmerge v7.0.0 ('Where We Going') 64bit built on Jun 9 2014 15:16:27
Writing library : libebml v1.3.0 + libmatroska v1.4.1
DURATION : 01:53:04.939000000
NUMBER_OF_FRAMES : 636088
NUMBER_OF_BYTES : 1279809056
_STATISTICS_WRITING_APP : mkvmerge v7.0.0 ('Where We Going') 64bit built on Jun 9 2014 15:16:27
_STATISTICS_WRITING_DATE_UTC : 2014-06-25 16:28:51
_STATISTICS_TAGS : BPS DURATION NUMBER_OF_FRAMES NUMBER_OF_BYTES
Attachment : Yes
Video
ID : 1
Format : AVC
Format/Info : Advanced Video Codec
Format profile : [email protected]
Format settings, CABAC : Yes
Format settings, ReFrames : 5 frames
Codec ID : V_MPEG4/ISO/AVC
Duration : 1h 53mn
Bit rate : 8 547 Kbps
Width : 1 920 pixels
Height : 808 pixels
Display aspect ratio : 2.40:1
Frame rate mode : Constant
Frame rate : 24.000 fps
Color space : YUV
Chroma subsampling : 4:2:0
Bit depth : 8 bits
Scan type : Progressive
Bits/(Pixel*Frame) : 0.230
Stream size : 6.59 GiB (80%)
Title : La Belle et la Bête (Beauty and the Beast) 2014 HDR French Transfer BDRip 1080p
Writing library : x264 core 142 r2431 ac76440
Encoding settings : cabac=1 / ref=5 / deblock=1:0:0 / analyse=0x3:0x113 / me=umh / subme=8 / psy=1 / psy_rd=1.00:0.00 / mixed_ref=1 / me_range=16 / chroma_me=1 / trellis=1 / 8x8dct=1 / cqm=0 / deadzone=21,11 / fast_pskip=1 / chroma_qp_offset=-2 / threads=12 / lookahead_threads=2 / sliced_threads=0 / nr=0 / decimate=1 / interlaced=0 / bluray_compat=0 / constrained_intra=0 / bframes=3 / b_pyramid=2 / b_adapt=2 / b_bias=0 / direct=3 / weightb=1 / open_gop=0 / weightp=2 / keyint=240 / keyint_min=24 / scenecut=40 / intra_refresh=0 / rc_lookahead=50 / rc=2pass / mbtree=1 / bitrate=8547 / ratetol=1.0 / qcomp=0.60 / qpmin=0 / qpmax=69 / qpstep=4 / cplxblur=20.0 / qblur=0.5 / ip_ratio=1.40 / aq=1:1.00
Language : French
Default : Yes
Forced : No
DURATION : 01:53:04.959000000
NUMBER_OF_FRAMES : 162839
NUMBER_OF_BYTES : 7248497565
_STATISTICS_WRITING_APP : mkvmerge v7.0.0 ('Where We Going') 64bit built on Jun 9 2014 15:16:27
_STATISTICS_WRITING_DATE_UTC : 2014-06-25 16:28:51
_STATISTICS_TAGS : BPS DURATION NUMBER_OF_FRAMES NUMBER_OF_BYTES
Audio #1
ID : 2
Format : AC-3
Format/Info : Audio Coding 3
Mode extension : CM (complete main)
Format settings, Endianness : Big
Codec ID : A_AC3
Duration : 1h 53mn
Bit rate mode : Constant
Bit rate : 320 Kbps
Channel(s) : 2 channels
Channel positions : Front: L R
Sampling rate : 48.0 KHz
Bit depth : 16 bits
Compression mode : Lossy
Stream size : 259 MiB (3%)
Title : ➨ Dub Line
Language : Russian
Default : Yes
Forced : No
Audio #2
ID : 3
Format : DTS
Format/Info : Digital Theater Systems
Mode : 16
Format settings, Endianness : Big
Codec ID : A_DTS
Duration : 1h 53mn
Bit rate mode : Constant
Bit rate : 1 509 Kbps
Channel(s) : 6 channels
Channel positions : Front: L C R, Side: L R, LFE
Sampling rate : 48.0 KHz
Bit depth : 24 bits
Compression mode : Lossy
Stream size : 1.19 GiB (15%)
Title : ➨ Original
Language : French
Default : No
Forced : No
Menu
00:00:00.000 : fr: ➨ HDR 01
00:03:19.083 : fr: ➨ HDR 02
00:06:48.417 : fr: ➨ HDR 03
00:11:21.375 : fr: ➨ HDR 04
00:17:08.583 : fr: ➨ HDR 05
00:28:11.333 : fr: ➨ HDR 06
00:31:36.125 : fr: ➨ HDR 07
00:37:27.458 : fr: ➨ HDR 08
00:44:22.750 : fr: ➨ HDR 09
00:51:00.500 : fr: ➨ HDR 10
00:53:44.417 : fr: ➨ HDR 11
01:04:05.167 : fr: ➨ HDR 12
01:10:16.000 : fr: ➨ HDR 13
01:16:07.708 : fr: ➨ HDR 14
01:22:10.500 : fr: ➨ HDR 15
01:26:00.125 : fr: ➨ HDR 16
01:28:07.667 : fr: ➨ HDR 17
01:33:15.375 : fr: ➨ HDR 18
01:41:54.792 : fr: ➨ HDR 19
01:45:26.833 : fr: ➨ HDR 20

Скриншоты

Создавать темы 09-Июл-2014 11:03

[Профиль]  [ЛС] 

Michel

Стаж: 6 лет 11 месяцев

Сообщений: 78

Симпатии: 5

farhod.ihz, поддай газу. Уже больше месяца качаем!

Создавать темы 20-Авг-2014 16:58

[Профиль]  [ЛС] 
Показать сообщения:    
Ответить на тему

Текущее время: 24-Ноя 07:02

Часовой пояс: UTC + 5



Вы не можете начинать темы
Вы не можете отвечать на сообщения
Вы не можете редактировать свои сообщения
Вы не можете удалять свои сообщения
Вы не можете голосовать в опросах
Вы не можете прикреплять файлы к сообщениям
Вы не можете скачивать файлы