Долгое падение / A Long Way Down (Паскаль Шомель) [2014 г., драма, комедия, HDRip] [Лицензия]

Ответить на тему
 

Suxrob89 ®

Стаж: 7 лет 4 месяца

Сообщений: 933

Симпатии: 564

-Долгое падение / A Long Way Down- Год выпуска: 2014
Страна: Великобритания,Германия
Жанр: драма, комедия
Продолжительность: 01:35:45
Перевод: Дублированное [Лицензия]-Режиссер: Паскаль Шомель-В ролях: Пирс Броснан / Pierce Brosnan (Martin), Имоджен Путс / Imogen Poots (Jess), Аарон Пол / Aaron Paul (JJ), Тони Коллетт / Toni Collette (Maureen), Сэм Нил / Sam Neill (Chris), Таппенс Мидлтон / Tuppence Middleton (Kathy), Розамунд Пайк / Rosamund Pike (Penny), Зара Уайт / Zara White (Shanay)-Описание: Четверо незнакомцев встречаются в канун Нового Года на крыше лондонского небоскреба. Каждый из них поднялся с одной целью — прыгнуть. Очередь в лучший мир заставляет их заключить пакт — дожить до Дня всех влюбленных и оторваться по полной.- -Качество: HDRip
Формат: AVI
Видео кодек: XviD
Аудио кодек: AC3
Видео: XviD ,1721 kb/s, 720x304
Аудио: AC3, 448 kb/s (6 ch)

Media info

E:\Dolgoe.Padenie.2014.D.HDRip.1.46Gb.avi
   General
      Complete name : E:\Dolgoe.Padenie.2014.D.HDRip.1.46Gb.avi
      Format : AVI
      Format/Info : Audio Video Interleave
      File size : 1.46 GiB
      Duration : 1h 35mn
      Overall bit rate : 2 178 Kbps
      Writing application : VirtualDubMod 1.5.10.2 (build 2540/release)
      Writing library : VirtualDubMod build 2540/release
   Video #0
      ID : 0
      Format : MPEG-4 Visual
      Format profile : Advanced [email protected]
      Format settings, BVOP : 2
      Format settings, QPel : No
      Format settings, GMC : No warppoints
      Format settings, Matrix : Custom
      Codec ID : XVID
      Codec ID/Hint : XviD
      Duration : 1h 35mn
      Bit rate : 1 721 Kbps
      Width : 720 pixels
      Height : 304 pixels
      Display aspect ratio : 2.35:1
      Frame rate : 24.000 fps
      Color space : YUV
      Chroma subsampling : 4:2:0
      Bit depth : 8 bits
      Scan type : Progressive
      Compression mode : Lossy
      Bits/(Pixel*Frame) : 0.328
      Stream size : 1.15 GiB (79%)
      Writing library : XviD 1.2.1 (UTC 2008-12-04)
   Audio #1
      ID : 1
      Format : AC-3
      Format/Info : Audio Coding 3
      Mode extension : CM (complete main)
      Format settings, Endianness : Big
      Codec ID : 2000
      Duration : 1h 35mn
      Bit rate mode : Constant
      Bit rate : 448 Kbps
      Channel count : 6 channels
      Channel positions : Front: L C R, Side: L R, LFE
      Sampling rate : 48.0 KHz
      Bit depth : 16 bits
      Compression mode : Lossy
      Stream size : 307 MiB (21%)
      Alignment : Split accross interleaves
      Interleave, duration : 42 ms (1.00 video frame)
      Interleave, preload duration : 500 ms

Скриншоты

Создавать темы 10-Июл-2014 18:10

[Профиль]  [ЛС] 

azik-1993

Стаж: 4 года 10 месяцев

Сообщений: 155

Симпатии: 23

Suxrob89, Помогу с раздачей

Создавать темы 10-Июл-2014 19:20

[Профиль]  [ЛС] 

A31013

Стаж: 5 лет 2 месяца

Сообщений: 39

Симпатии: 9

853487Suxrob89, Помогу с раздачей
спасибо
tx

Создавать темы 10-Июл-2014 22:25

[Профиль]  [ЛС] 

jas81

Стаж: 4 года

Сообщений: 108

Симпатии: 7

ну как фильм

Создавать темы 25-Июл-2014 17:43

[Профиль]  [ЛС] 

Robox

Стаж: 6 лет 9 месяцев

Сообщений: 72

Симпатии: 1

оОО чувак с Need For Speeda

Создавать темы 25-Июл-2014 23:27

[Профиль]  [ЛС] 

vol4onok69

Стаж: 4 года 1 месяц

Сообщений: 11

скорости вообще нет, дайте газу пжл

Создавать темы 26-Июл-2014 11:56

[Профиль]  [ЛС] 

cuban

Стаж: 5 лет 9 месяцев

Сообщений: 41

Симпатии: 2

858504оОО чувак с Need For Speeda
Там и подружка его, вновь с ним в месте)

Создавать темы 26-Июл-2014 20:41

[Профиль]  [ЛС] 

IIpu3pak

Стаж: 5 лет 9 месяцев

Сообщений: 258

Симпатии: 53

Сюжет с российских "Самоубийц" передрали, которые вышли года 2-3 назад.

Создавать темы 15-Авг-2014 11:29

[Профиль]  [ЛС] 

стич

Стаж: 5 лет 6 месяцев

Сообщений: 18

Создавать темы 16-Авг-2014 16:18

[Профиль]  [ЛС] 

timtash

Стаж: 6 лет 3 месяца

Сообщений: 44

Симпатии: 3

эти двое актёров..они в Need For Speed жажда скорости снимались ведь?

Создавать темы 16-Авг-2014 20:24

[Профиль]  [ЛС] 

Akmal4ik

Стаж: 4 года 11 месяцев

Сообщений: 32

Аарон Пол- Во все тяжкие!!!!!! Джесси Пинкман

Создавать темы 17-Авг-2014 15:44

[Профиль]  [ЛС] 
Показать сообщения:    
Ответить на тему

Текущее время: 13-Дек 02:27

Часовой пояс: UTC + 5



Вы не можете начинать темы
Вы не можете отвечать на сообщения
Вы не можете редактировать свои сообщения
Вы не можете удалять свои сообщения
Вы не можете голосовать в опросах
Вы не можете прикреплять файлы к сообщениям
Вы не можете скачивать файлы