Коломбо / Columbo / Серии: 1-69 из 69 (Джеймс Фроли, Харви Харт, Бернард Л. Ковальски, Лео Пенн и др.) [1968-2003, детектив, BDRip-AVC] DVO + original Eng

Страницы :  1, 2  След.

Ответить на тему
 

tallking ®

Стаж: 6 лет 4 месяца

Сообщений: 44

Симпатии: 15

Коломбо / Columbo
Год выпуска: 1968-2003
Производство: NBC, США
Жанр: детектив
Продолжительность: 1. 73-75 минут (28 фильмов); 2. 90-100 минут (41 фильм)
Перевод: профессиональный двухголосый закадровый
Оригинальная аудиодорожка: английский
Русские субтитры: нет
Субтитры: отсутствуют
Режиссёр: Джеймс Фроли, Харви Харт, Бернард Л. Ковальски, Лео Пенн, Патрик Джозеф, МакГухан и другие
В ролях: Питер Фальк, Майк Лэлли, Брюс Керби, Джон Финнегэн, Вито Скотти, Фред Дрэйпер, Дайян Терли Трэвис, Вэл Эвери, Джером Гуардино, Роберт Калп, Джек Кэссиди, Патрик Джозеф МакГухан, Арлин Мартел, Чарльз Д. Миллер, Билл Цукерт, Виктор Айзей, Харви Голд, Джимми Джойс, Клифф Карнелл, Милт Коган, Тимоти Кэри, Чарльз Макколей, Дэннис Робертсон, Ричард Стал и другие
Описание: Коломбо (Columbo) - американский телевизионный сериал, созданный Ричардом Левантином и Вильямом Линком. Фильм-пилот вышел в эфир в 1968 году; как регулярный сериал снимался в 1971-1978 годах, и после перерыва в 1989-2003 годах.
В основе сюжета всех серий лежат дела об убийствах, которые неизменно расследует один и тот же следователь из отдела убийств - лейтенант Коломбо. Коломбо - дотошный и проницательный, но немного чудаковатый. Коломбо обладает уникальными способностями сыщика, он вычисляет самых изворотливых преступников и разоблачает их неопровержимыми уликами.
В фильмах мало погонь, стрельбы и крови. Авторы не смакуют сцены насилия. На экране доминирует тонкая психологическая игра и изобретательность.
Замечательный интеллектуальный детектив. Рекомендую для семейного просмотра.
Список и краткое содержание серий
Пилотные серии (1968—1971, 2 серии)
1.(1) 1968 — Рецепт убийства (Предписание: убийство) (Prescription: Murder)
Самый известный психиатр Лос-Анджелеса доктор Рей Флеминг отмечает годовщину свадьбы. Неожиданно раздается телефонный звонок – это любовница доктора, актриса Джоан Хадсон. Она просит Флеминга приехать, и он немедленно соглашается, объявив своей супруге Кэрол, что направляется к пациенту. Но та сразу понимает, что надо искать женщину. Флеминг понимает, что брак ему уже давно надоел, а ненависть к ревнивой жене настолько велика, что он решается на убийство.
2.(2) 1971 — Развод по-американски (Ransom for a Dead Man)
Известный адвокат Лесли Уилльямс застрелила своего престарелого супруга (тоже юриста) в гостиной их шикарного дома. Тело сброшено в океан, и Лесли обставляет все таким образом, будто ей известно, что мужа похитили. Она посылает сама себе грозную записку. Из магнитофонной записи деловых переговоров мужа она вырезает фразу "они поймали меня". С автомата в офисе Лесли на домашний телефон приходят записанные ею сообщения от похитителей, которые требуют выкуп в 300 000 долларов. Лесли подключает к поискам даже ФБР. Она не реагирует на появление Коломбо. Но он сразу замечает странную вещь: разговаривая с несчастным супругом, Лесли ни разу не спрашивает его о том, как он себя чувствует.
Первый сезон (1971—1972, 7 серий)
3.(1) 1971 — Убийство по книге (Murder by the Book)
Совершено убийство известного писателя. Причем точно по схеме, придуманной им для будущего романа. Лейтенант Коломбо начинает расследование.
4.(2) 1971 — Смерть протягивает руку (Death Lends a Hand).
В частное детективное агентство обращается владелец трех крупных газетных издательств Артур Кеннекат с просьбой собрать сведения о своей молодой жене. Руководитель агентства мистер Брин соглашается скрыть от мужа информацию о случайной любовной связи женщины, но взамен требует от нее сведения о работе мужа. Получив категорический отказ, Брин в гневе убивает жену Кеннеката. Затем, вместе с Коломбо приступает к расследованию преступления.
5.(3) 1971 — Мёртвый груз (Dead Weight)
Свидетельница убийства Хелен Стюарт начинает сомневаться в собственном здравии, когда тот, кого она считала убийцей доказывает, что виденное ею – всего лишь игра солнечных бликов на воде. К тому же обвиняемый – генерал-майор Холлистер – начинает активно ухаживать за Хелен. И только тот, кого зовут Коломбо знает, зачем старому ловеласу потребовалось кружить девушке голову.
6.(4) 1971 — Подходящие улики (Подходящий для рамки) (Suitable for Framing)
Мультимиллионер и знаменитый коллекционер Рэнди Мэтьюс принимает решение изменить завещание. В этом случае, бесценные полотна переходят не к его племяннику Дейлу, а к бывшей жене Эдне. Такая ситуация не может устроить Дейла – влиятельного арт-критика. Вместе со своей ассистенткой при помощи пистолета и электрического пледа он осуществляет страшный план.
7.(5) 1971 — На грани нервного срыва (Леди ждет) (Lady in Waiting)
Глава семейной корпорации Брайс Чедвик запрещает своей младшей сестре Бет выходить замуж за адвоката Питера Гамильтона (Лесли Нильсен). Он считает, что амбициозный молодой юрист гоняется за деньгами Бет. Поэтому он выдвигает ультиматум: или Питер оставляет в покое Бет, или он лишается своего места в компании. Узнав об этом, девушка решает устранить брата со своего пути.
8.(6) 1972 — Короткое замыкание (Short Fuse)
Беспечный молодой гений Роджер Стэнфорд унаследовал акции химической компании своего отца. Его дядя Дэвид Букнер хочет исключить Роджера из семейного бизнеса. Для того, чтобы устранить племянника, Букнер устанавливает за ним слежку. Выясняется, что у него отвратительная репутация: Роджер игрок и мот. Вскоре племянник, узнав о деятельности дяди, идет ва-банк. Он убивает шантажиста с помощью хитрого изобретения, вмонтированного в коробку с сигарами.
9.(7) 1972 — План убийства (Blueprint for Murder)
Вернувшись из долгого заграничного вояжа, техасский мультимиллионер Бо Уильямсон узнает, что его молодая жена с упоением работает над архитектурным проектом "Город Уильямсона". Он сразу понимает, что амбициозный Эллиот Маркхам с помощью наивной Дженнифер подбирается к его капиталам. Бо устраивает Эллиоту публичный скандал и в ярости разбивает уже готовый макет "Города". Униженный и оскорбленный Маркхам решает жестоко отомстить…
Второй сезон (1972—1973, 8 серий)
10.(1) 1972 — Этюд в чёрных тонах (Этюд в чёрном) (Etude in Black)
Молодая талантливая пианистка Дженнифер Уэллес заявляет своему возлюбленному о том, что обнародует их связь. Для знаменитого дирижера Алекса Бенедикта (Кассаветес) это равносильно самоубийству, так как его теща (Мирна Лой) является могущественной председательницей совета оркестра. Сообщив всем, что отправляется на прогулку перед концертом, Алекс приезжает к Дженнифер, просит сыграть ее что-нибудь из Шопена, а затем наносит любовнице смертельный удар по голове. Орудие убийства – пепельница, завернутая в полотенце.
11.(2) 1972 — Смерть в оранжерее (The Greenhouse Jungle)
Молодой человек по имени Тони Гудланд страдает от супружеских измен. Его жена Кэти находится в постоянном поиске загорелых мускулистых плейбоев, которые готовы оплачивать ее развлечения. Тони уверен в том, что его главная проблема – это отсутствие денег. Поэтому вместе со своим дядей Джарвисом, коллекционером редчайших орхидей, он разрабатывает план доступа к семейным богатствам. Дело в том, что деньги со счета могут быть сняты только в результате чрезвычайных обстоятельств. Джарвис и Тони инсценируют похищение с целью обналичить 300 тысяч долларов.
12.(3) 1972 — Смертельная развязка (The Most Crucial Game)
Менеджер футбольной команды Пол Хэнлон очень недоволен поведением владельца спортивной империи Вагнеров, молодого Эрика Вагнера, прожигающего жизнь и нисколько не заботящегося о деле. Хэнлон задумывает убийство. Он решает нанести удар куском льда, который растает на краю бассейна рядом с мертвым телом прежде, чем полиция успеет приехать на место преступления.
13.(4) 1972 — Из любви к искусству (Dagger of the Mind)
Бывшие звезды Королевской Шекспировской труппы Николас Фреймер и Лилиан Стэнхоуп собираются триумфально вернуться на сцену в премьере "Макбета". Об этом публику извещают расклеенные по Лондону афиши. Супружеская пара хочет представить эту постановку своим проектом, но им очень мешает владелец театра сэр Роджер Хавершем. За несколько минут до генеральной репетиции разражается буря. Николас борется с сэром Роджером, Лилиан, пытаясь помочь супругу, убивает врага семьи.
14.(5) 1973 — Реквием для падающей звезды (Requiem for a Falling Star)
Бывшая звезда кино Нора Чандлер живет в своем домике на территории студии, которой когда-то владел ее покойный муж. Не смотря на все старания нынешнего владельца выселить ее, Нора умудряется стойко держаться своего. Но на ее пути появляется светский хроникер Джерри Паркс, который раскопал неприятные для Норы подробности и шантажирует ее тем, что передаст информацию ее врагам. К тому же Паркс помолвлен с секретарем Норы – Джин Дэвис, которая, предав свою хозяйку, снабжает его секретными сведениями. Нора Чандлер считает, что с нее хватит разочарование, и планирует убийство Паркса. Но по роковой случайности гибнет не он, а Джин.
15.(6) 1973 — Звено в преступлении (A Stitch in Crime)
Доктор Барри Мейфилд – талантливый молодой хирург, работающий в лучшем госпитале Лос-Анджелеса. Вместе со старшим коллегой доктором Хайдеманом он работает над глобальным научным проектом, который способен стать совершенно новым словом в медицине. Под проект получены огромные деньги. Единственным человеком, который считает Мейфилда авантюристом и бездарностью, оказывается опытная сестра Шэрон Мартин. И когда после операции на сердце умирает покровитель Мейфилда доктор Хайдеман, тайное становится явным. Боясь разоблачения, Мейфилд убивает того, кто точно знает цену его "талантам". Но это еще надо доказать. И тут появляется Коломбо.
16.(7) 1973 — Самый опасный матч (The Most Dangerous Match)
Американский гроссмейстер Эммет Клейтон нервничает перед матчем с советским шахматистом Томлином Дудеком. Он подозревает, что предстоящий поединок будет стоить ему чемпионского титула. Поэтому Клейтон выдумывает невероятно запутанную историю о роковой любви, заманивает жалостливого русского к себе в номер, а сам тем временем готовит убийство. Но все же Клейтону суждено быть опозоренным. Дудек не погибает, и оправившись от травм, может дать показания тому, кого зовут Коломбо. Удивительная история – в американском фильме 1973 года единственным порядочным человеком (не считая Коломбо, разумеется) оказывается русским.
17.(8) 1973 — Двойной удар (Double Shock)
Пожилой богач Клиффорд Парис собирается жениться на молодой Лизе Чэмберс. Его племянник Декстер, ведущий кулинарного шоу на телевидении, с болью в сердце следит за тем, как дядя переписывает завещание в присутствии семейного адвоката. Через некоторое время он решает преподнести родственнику свадебный подарок: электрический миксер. Он входит в ванну, где плещется Клиффорд Парис и случайно роняет включенный агрегат в воду. Дальше все должны думать, что жених умер от сердечного приступа.
Третий сезон (1973—1974, 8 серий)
18.(1) 1973 — Жертва красоты (Lovely But Lethal)
Владелица крупнейшей косметической фирмы Вивека Скотт (Вера Майлс) узнает от своей осведомительницы из конкурирующей компании, что ее главный специалист и бывший любовник Карл Лессинг (Мартин Шин) намерен продать формулу уникального омолаживающего крема. Вивека отправляется к Карлу домой, но ее уговоры не приводят ни к чему. Напротив, разыгрывается страшный скандал. И, хотя Карл уверяет Вивекку в том, что формула крема нигде не записана и существует только в его голове, разгневанная предпринимательница одним ударом микроскопа сокрушает эту самую гениальную голову…
19.(2) 1973 — Старый портвейн (Any Old Port in a Storm)
В море найден мертвым владелец крупного завода коллекционных вин Энрико Карсини. На первый взгляд все выглядит, как несчастный случай во время плавания с аквалангом. Но у опытного сыщика, лейтенанта Коломбо, приступившего к расследованию, есть на этот счет масса сомнений…
20.(3) 1973 — Кандидат на убийство (Candidate for Crime)
Кандидат в сенаторы США Нельсон Хэйвард убивает руководителя своей предвыборной кампании Гарри Стоуна. При этом он ловко инсценирует угрозы в свой адрес, чтобы сбить с толку следствие. Но не тот человек лейтенант Коломбо, чтобы попасться на эту удочку...
21.(4) 1973 — Коломбо теряет терпение (Double Exposure)
Доктор Барт Кеппл специализируется на сублимационной рекламе – это значит, что он умело пользуется изобретенным еще до него приемом. Вмонтированный в кинопленку 25 кадр, не видимый человеческим глазом, закладывает в подсознание любую информацию о любом продукте. Для того, чтобы расправиться с неудобным клиентом Виктором Харрисом, он устраивает просмотр фильма с рекламой икры. Харрис, объевшийся после просмотра соленой икрой, не выдерживает следующего сеанса. Он постоянно выходит пить. Вот тут-то его и подкарауливает Кеппл с револьвером. А все его гости думают, что он сидит в зале и комментирует фильм. Вместо настоящего Кеппла в рубке вертится магнитофонная пленка с его комментарием. От нагромождения всех этих сложностей Коломбо начинает терять терпение.
22.(5) 1974 — Роман без окончания (Publish or Perish)
Микки Спилейн, создатель образа знаменитого "Майка Хаммера", выступает здесь в роли автора детективных бестселлеров Аллена Мэлори. Устав создавать примитивные сюжеты, навязываемые издателем Райли Гринлифом, Мэлори решает сменить заказчика. У него уже готов договор с другой компанией, которая предоставит ему шанс стать серьезным литератором. Гринлиф – в бешенстве и решает "заказать" строптивого автора специалисту по взрывам, ветерану Вьетнама Эдди Кейну. Плата – публикация книжки Эдди. Но вот, дело сделано. И теперь очередь Райли отвечать по своим обязательствам…
В этом эпизоде "Коломбо" режиссером был применен редкий для начала семидесятых монтажный прием: полиэкран. И причина не в стремлении авторов слепо следовать моде. Слишком длинный сценарий "Романа без окончания" так и не удалось сократить до требуемого телевизионного формата. И тогда родилась идея параллельного повествования.
23.(6) 1974 — Стивен Спилберг спешит на помощь (Mind Over Mayhem)
Благодаря своей революционной кибернетической теории молодой ученый Нил Кахилл готовится стать человеком года в науке. Его отец, глава института, горд и счастлив. Однако, радость победы омрачает мысль о профессоре Николсоне. Тот знает, что новоиспеченный "гений" украл блестящую идею у покойного доктора Финча. Более того, злосчастный профессор требует от Кахиллов публичного признания в плагиате. И тогда тщеславный отец решает избавиться от шантажиста.
24.(7) 1974 — Лебединая песня (Swan Song)
Певец кантри Томми Браун всеми силами пытается вывернуться из-под каблку своей жены Эдны. Она контролирует все его заработки. При этом, шантажируя Томми его интрижкой с несовершеннолетней красоткой. Наконец, Томми решается на убийство: инсценировать авикатастрофу...
25.(8) 1974 — Настоящий друг (A Friend in Deed)
Респектабельный домовладелец Хью Колдуэл убивает свою жену Дженис. В ужасе он немедленно звонит своему соседу и настоящему другу Марку Гальперину, который в это время играет в карты в баре неподалеку. Марк просит Хью отправиться в бар, а сам приезжает на место преступления и имитирует кражу со взломом. На следующее утро Коломбо поручают расследовать это дело. Одна загвоздка: Гальперин – непосредственный начальник нашего лейтенанта. Режиссер этой серии – друг Питера Фалька актер Бен Газзара, известный как исполнитель главной роли в фильме Отто Преминджера "Анатомия убийства".
Четвертый сезон (1974—1975, 6 серий)
26.(1) 1974 — Наперегонки со смертью (An Exercise in Fatality)
Владелец сети спортзалов Майло Янус выглядит намного моложе своих пятидесяти двух. Однако, дела его отнюдь не в таком порядке, как мускулы. Об этом знает его партнер Джин Стаффорд. Майло решает задушить Стаффорда. Но обставляет все таким образом, будто в спортзале произошел несчастный случай.
27.(2) 1974 — Смерть в объективе (Negative Reaction)
Знаменитый фотограф Пол Галеско планирует убийство своей властной жены Фрэнсис. Для исполнения "приговора" он нанимает бывшего заключенного по имени Алвин Дешлер. Тот должен похитить Фрэнсис, потребовать за нее выкуп, а затем убить. Таким образом, Галеско хочет обеспечить себе алиби.
28.(3) 1974 — При первых проблесках зари (By Dawn’s Early Light)
В Военной академии совершено убийство. Но никто не может понять, кто и как мог убить одного из самых больших начальников заведения. И только тот, кого зовут Коломбо, знает, что если пушка стреляет, то других выстрелов можно и не услышать.
29.(4) 1975 — Смерть в океане (Troubled Waters)
Миссис Коломбо выиграла круиз вдоль берегов Мексики на двоих. Естественно, что ее спутником стал супруг. Но на том же теплоходе из Лос-Анджелеса с дурными намерениями выплыл некто Хайнер Данцигер. Возможно, знай он, что на борту Коломбо, Данцигер не стал бы убивать свою любовницу-певицу. Но все случилось, как случилось.
30.(5) 1975 — Повторный просмотр (Playback)
Президенту радиоэлектронной корпорации грозит увольнение. Такое решение приняла владелица этой корпорации – его собственная теща. А значит – впереди позор и унижение. И тогда он убивает злодейку. А затем в доме, напичканном электроникой, подменяет кассету с записью от камер слежения. Но лейтенант Коломбо при повторном осмотре обнаруживает неопровержимую улику.
31.(6) 1975 — Горе от ума (A Deadly State of Mind)
Надя Доннер не только пациентка и любовница врача психиатра Марка Коллиера, но и объект его исследований для написания книги. Приехав на свидание назначенное ему любовницей в загородном доме доктор обнаруживает там, кроме Нади внезапно вернувшегося мужа пациентки и убивает его. Прибывшим полицейским Надя рассказывает историю о двух грабителях. Поверит ли в это лейтенант Коломбо?
Пятый сезон (1975—1976, 6 серий)
32.(1) 1975 — Забытая леди (Forgotten Lady)
Немолодая, слегка подзабытая публикой кинозвезда решает возобновить свою карьеру, поставив мюзикл со своим участием. Ее муж, знаменитый и очень богатый врач, давно вышел на заслуженный отдых. Ему не по душе активные планы жены, и он отказывается финансировать ее проект. Тогда, женщина решается на преступление.
33.(2) 1975 — Восток — дело тонкое (A Case of Immunity)
Коломбо раскрывает международный заговор, в котором замешаны первые лица арабского государства Сурия. Поймав убийцу на территории посольства, Коломбо становится не просто доблестным стражем порядка, а выдающимся защитником демократии за пределами города Лос-Анджелес.
34.(3) 1975 — Кризис личности (Identity Crisis)
Коломбо снова становится обладателем государственного секрета. Он раскрывает убийство агента Джеронимо, который был очень опасен выскопоставленному государственному чиновнику Нельсону Бреннеру. Джеронимо знал, что тот – двойной агент и торгует стратегической информацией.
35.(4) 1976 — Дело чести (A Matter of Honor)
Легендарный мексиканский матадор Луис Монтойя давно уже стал национальным символом беспримерного мужества. И только его многолетний компаньон Гектор Рангель знает, что Монтойя в последние годы боится выходить на арену. Если тайна героя станет достоянием гласности, его славе придет конец. Поэтому Луис пытается удержать своего товарища вдали от людей, на уединенном ранчо. Но Гектор собирается уехать. И Монтойя хитростью заманивает его на арену, где Гектор гибнет, пронзенный рогами быка.
36.(5) 1976 — Смертельный номер (Now You See Him)
Знаменитый фокусник-иллюзионист Сантини боится, что его темное прошлое выплывет на свет. Владелец кабаре Джесси Джером узнал о том, что во время войны под именем Стефан Мюллер Сантини служил надзирателем в концлагере. Поэтому Сантини задумывает убийство. В тот момент, когда публика ждет его появления из металлического куба, опущенного в аквариум с водой, Сантини сводит счеты со своим врагом совсем в другом месте.
37.(6) 1976 — Последний салют командору (Last Salute to the Commodore)
В семье знаменитого судостроителя командора Отиса Свонсона поселилась вражда. Сам он намерен продать фирму и оставить своих бестолковых детей без денег. Особо огорчен этим обстоятельством приемный зять командора Чарли Клей. После семейного торжества он убивает тестя.
Шестой сезон (1976—1977, 3 серии)
38.(1) 1976 — Фатальный выстрел (Fade in to Murder)
Уорд Фаулер – звезда детективного сериала "Инспектор Люцерн". У него ужасный характер, но продюсеры терпят его. Продюсеры – разведенная супружеская пара Сид и Клер Дэйли. Сид не знает о том, что Клер шантажирует Уорда. Она знает, что он дезертировал из армии в Корейскую войну. Поэтому Уорд решает убить Клер.
39.(2) 1976 — Убийство в старом стиле (Old Fashioned Murder)
Рут Литтон поставила целью своей жизни заботу о семейном музее средневековых предметов искусства. Ее прагматичный брат Эдвард внезапно принимает решение закрыть музей, так как он не приносит прибыли. И тогда Рут затевает историю с ограблением. Для того, чтобы получить деньги из страховой компании и расплатиться с братом.
40.(3) 1977 — Высокоинтеллектуальное убийство (The Bye-Bye Sky-High I.Q. Murder Case)
Два старых друга Оливер Брандт и Берти Гастингс партнерствуют в финансовой корпорации. Кроме того, оба - члены закрытого клуба гениев. Но в один далеко не прекрасный день многолетняя дружба внезапно обрывается. Совершенно случайно к Берти попадает информация о том, что Оливер растратил крупную сумму, оплачивая непомерные счета своей жены. Позорная тайна Оливера грозит стать достоянием гласности, а такого падения с высот своего респектабельного имиджа виновнику не пережить. И Оливер решается на убийство.
Седьмой сезон (1977—1978, 5 серий)
41.(1) 1977 — Попробуй, поймай меня (Try and Catch Me)
Знаменитая писательница Абигейл Митчелл считает, что Эдмунд Галвин убил ее любимую племянницу, которая приходилась Эдмунду супругой. Но так как полиция -другого мнения, Абигейл решается на месть. Она тщательно продумывает убийство. Но расследование поручается Коломбо. Вот и встретились два блестящих ума.
42.(2) 1978 — Яд от дегустатора (Murder Under Glass)
Знаменитый ресторанный критик Поль Жерар совершенно не стесняется брать взятки. Рестораны делятся с ним четвертью своей выручки, а он рекламирует их в своем шоу. Но у него есть свой "черный человек" – шантажист Витторио Росси. Однажды за ужином в ресторанчике Витторио Жерар открывает бутылку вина, Витторио делает глоток из своего бокала и падает замертво. Он отравлен. Подозрения падают на Жерара.
43.(3) 1978 — Идеальное преступление (Make Me a Perfect Murder)
Главный редактор одного из телевизионных каналов Лос-Анджелеса Марк МакЭндрюс получает повышение и собирается переезжать в Нью-Йорк. Его любовница Кей Фристоун считает, что должна занять его место. Но у Марка иные соображения. Поэтому Кей решается на убийство, которое кажется ей идеальным.
44.(4) 1978 — Как совершить убийство? (How to Dial a Murder)
Большой киноман и врач-"мозговед" Эрик Мейсон узнает о том, что его покойная жена изменяла ему с лучшим другом, доктором Чарльзом Хантером. Он задумывает дьявольский сценарий убийства при помощи своих собак, которые и стали орудием преступления, обставив убийство как несчастный случай. Эрик Мейсон требует усыпить собак. Тем самым он хочет поскорей избавиться от орудия преступления, но лейтенант Коломбо не торопиться отправить четвероногих друзей на тот свет: ведь даже если собаки не умеют говорить, это не означает, что они не понимают слова человека!
45.(5) 1978 — Конспираторы (The Conspirators)
Поставщики оружия для Ирландской освободительной армии убивают посредника, чтобы удешевить процесс покупки. Но, вопреки ожиданиям, все сильно осложняется. К тому же за расследование этого дела берется лейтенант Коломбо.
Восьмой сезон (4 серии)
46.(1) 1989 — Коломбо идёт на гильотину (Columbo Goes to the Guillotine)
Действие происходит в среде фокусников и парапсихологов. Супруги решают представить мужа в качестве медиума-ясновидца и продать его талант спецслужбам. А для проверки приглашают профессора -парапсихологии. Испытуемый угрожает профессору и экзамен проходит блестяще. Но позже , во время испытаний гильотины, предназначенной для фокусов, испытуемый убивает опасного свидетеля. Распутать этот клубок событий может только лейтенант Коломбо, и он не заставляет себя ждать...
47.(2) 1989 — Убийство, туман и призраки (Murder, Smoke & Shadows)
На одной из студий Голливуда поселилась неприятная тайна. Знаменитого режиссера шантажирует его бывший друг, подозревающий о том, что режиссер может быть причастен к гибели актрисы. Ранее считалось, что произошедшее – несчастный случай. Но правдолюбец, которому погибшая приходилась сестрой, увидел в этой драме злой умысел.
48.(3) 1989 — Секс и женатый детектив (Sex and the Married Detective)
Сексолог Джоан Алленби застает своего любовника с другой женщиной. Она решает отмстить ему с помощью собственного метода под названием "Комплекс куртизанки".
49.(4) 1989 — Большие манёвры (Grand Deceptions)
Во время тренировочных сборов погибает сержант. Все обстоятельства происшедшего указывают на несчастный случай. Но лейтенанту Коломбо становится известно, что он шантажировал своего начальника-майора. Тот перекачал на свой счет деньги из секретного фонда и спал с женой генерала.
Девятый сезон (6 серий)
50.(1) 1989 — Гений и злодейство (Murder, A Self-Portrait)
Известный художник-портретист живет одновременно с тремя женщинами. Первая жена решает уйти от него и выйти замуж за своего психолога. Но художник не хочет отпускать ее. Для него эта женщина – потенциальный источник опасности: их связывает преступление, совершенное обеими в молодости.
51.(2) 1990 — Коломбо сеет панику (Columbo Cries Wolf)
Пропадает владелица модного журнала. Подозрение падает на одного из сотрудников. Коломбо пытается разобраться в загадочном исчезновении.
52.(3) 1990 — Сценарий убийства (Agenda for Murder)
Известный адвокат Оскар Финч, ближайший друг кандидата в президенты, когда-то в начале своей карьеры оказал услугу своему боссу Станлиню, выкрав для него необходимые документы их судебного дела. Оказавшись опять в затруднительном положении, Станлинь вновь обращается теперь уже к известному адвокату и политику с аналогичной просьбой. И Оскар Финч решает избавиться от него.
53.(4) 1990 — Загадка миссис Коломбо (Rest in Peace, Mrs. Columbo)
Лейтенант Коломбо становится жертвой мстительной женщины Вивиан Димитри, муж которой умер после десятилетнего тюремного заключения. И тогда вдова решает наказать сыщика, убив его горячо любимую жену.
54.(5) 1990 — Берегите свои зубы (Uneasy Lies the Crown)
Молодой талантливый врач-дантист решает убить одного из своих пациентов – известного киноактера. Он просто ставит ему коронку с ядом. А причина тому ... конечно же, женщина.
55.(6) 1990 — Убийство в Малибу (Murder in Malibu)
Бывший спортсмен, узнав о том, что его любовница, известная писательница Тереса Горен неожиданно отказывается выйти за него замуж, решает убить ее. При расследовании выясняется, что он стрелял уже в мертвое тело. Лейтенант Коломбо пытается понять: кто же настоящий убийца?
Десятый сезон (14 серий)
56.(1) 1990 — Коломбо отправляется в колледж (Columbo Goes to College)
На этот раз сыщик читает в колледже лекцию по криминалистике, которая неожиданно превращается из теории в практику...
57.(2) 1991 — Кого убила капля никотина (Caution! Murder Can Be Hazardous to Your Health)
Ведущего популярного телешоу шантажируют его прошлым, так как когда-то он начинал актерскую карьеру в порнофильмах. Он уничтожает шантажиста, впрыснув ему яд в сигареты.
58.(3) 1991 — Коломбо и убийство рок-звезды (Columbo and the Murder of a Rock Star)
Известный адвокат узнает о том, что ему изменила любовница, бывшая рок-звезда. Разгорается скандал. Неверная соглашается на разрыв, при условии невероятной компенсации. Она хочет 5 миллионов долларов. Адвокат потрясен. Ревность и жадность толкают его на преступление.
59.(4) 1991 — Ставка больше, чем смерть (Death Hits the Jackpot)
Молодой человек Фредди выигрывает в телевизионной лотерее 30 миллионов долларов. Он собирается развестись с женой и поэтому не намерен делиться с ней выигрышем. Он поручает своему дяде заботу о миллионах. Фредди не подозревает о том, что дядя не захочет делиться.
60.(5) 1992 — Умереть некогда (No Time To Die)
Племянник Коломбо Энди Парма женится на известной фотомодели. Но после свадьбы Мелисса таинственным образом исчезает. Все указывает на то, что невеста пропала неспроста.
61.(6) 1992 — Синица в руках (A Bird in the Hand)
Азартный игрок Гарольд планирует убийство своего дяди, владельца футбольной команды. Он подкладывает взрывчатку под автомобиль, но неожиданно дядю сбивает машина. Садовник собирается отогнать автомобиль и взрывается. За расследование берется Коломбо.
62.(7) 1993 — Всё поставлено на карту (It’s All In The Game)
Убит молодой ловелас. Его убийцы мать и ее взрослая дочка, за которыми "пострадавший" активно ухаживал. Чтобы помешать Коломбо распутать это дело, мать пытается его соблазнить.
63.(8) 1994 — Бабочка в серых тонах (Butterfly in Shades of Grey)
Популярный радиоведущий терпеть не может приятеля своей падчерицы. Ко всему прочему, они коллеги, так молодой человек служит криминальным журналистом той самой радиостанции. Больше всего ему не нравится то, что парень подговаривает девушку сбежать в Нью-Йорк. И вот, после очередной ссоры, шоу-мен решается на убийство…
64.(9) 1994 — Маскарад (Undercover)
Несколько лет назад было совершено ограбление на сумму 4,5 миллиона долларов. Никаких следов от этих денег не осталось. В деле только одна фотография: на ней изображено место, где, якобы, спрятаны деньги…
65.(10) 1995 — Тёмная лошадка (Strange Bedfellows)
Два брата содержат ферму по разведению лошадей. В то время как старший Грэм (Джорджд Вендт) мечтает о процветании и благополучии семейного дела, младший успешно проматывает семейное состояние на скачках. Все это пугает и настораживает Грэма и он принимает расчетливое решение – убить брата…
66.(11) 1997 — Закон Коломбо (A Trace of Murder)
В который уже раз на этой земле неверная жена пытается завладеть деньгами нелюбимого старого мужа. С помощью своего любовника, она решается на убийство, но не мужа, а его конкурента по бизнесу Зельцера. Оставив на месте преступления кучу улик, указывающих на несчастного супруга, негодяи руками правосудия, хотят избавится от последнего, навсегда...
67.(12) 1998 — Звезда и смерть (Ashes To Ashes)
Новейшая история Коломбо, им снятая, им сыгранная, им же спродюсированная. Коломбо расследует убийство знаменитой светской хроникерши, пропавшей во время пышных похорон в Беверли-Хиллз. Но зритель знает, что убийца – милейший старичок, владелец похоронного бюро. Он все рассчитал, все спрятал. Вот только собачка пропавшей наводит Коломбо на мысль о том, что это убийство далеко не идеальное.
68.(13) 2002 — Убийство по нотам (Murder With Too Many Notes)
Знаменитый композитор и дирижер Финдлей Кроуфорд решается на убийство. Тому есть свои причины. Уже давно музыку пишет не он, а никому не известный музыкант. Именно этот аноним должен был получать премию "Оскар", но на сцену выходил Кроуфорд. Что теперь делать: ждать, когда правда выйдет наружу или устранить своего "мучителя"? Кроуфорд выбирает преступление.
69.(14) 2003 — Коломбо нравится ночная жизнь (Columbo Likes The Nightlife)
Лос-Анджелес. Профессиональный промоутер Джастин Прайс делает первую серьезную ошибку, согласившись помочь своей подружке Ванессе избавиться от трупа ее бывшего мужа – сына известного мафиози и "финансовой крыши" нового клуба Джастина. Прайс совершает вторую ошибку, убив бульварного репортера, попытавшегося нагло шантажировать его фотографиями случившегося. Но самую большую свою ошибку он делает, пытаясь устранить лейтенанта Коломбо от расследования "подозрительного самоубийства" репортера.
Качество: BDRip-AVC
Формат: MKV
Видео кодек: H.264
Аудио кодек: AC3, AAC
Видео (4:3) серии 1-45: 800x600 (1,33:1), 23,976 fps, AVC (H.264) ~1300 kbps avg, 0.113 bit/pixel
Видео (16:9) серии 46-69: 832x468 (1,78:1), 23,976 fps, AVC (H.264) ~1300 kbps avg, 0.139 bit/pixel
Аудио 1: Русский, 48 KHz, Dolby AC3, 2 ch, ~192 kbps (двухголосый закадровый)
Аудио 2: Английский, 48 KHz, AAC-LC, 2 ch, ~128 Kbps (оригинал)
MI
Общее
Уникальный идентификатор : 202730550399160047526472382856610236499 (0x98847BD80FB5A84591C4C0061514C853)
Полное имя : D:\КИНО\Коломбо\01. Рецепт убийства (Предписание - убийство) (Prescription - Murder) 1968.mkv
Формат : Matroska
Версия формата : Version 2
Размер файла : 1,12 Гбайт
Продолжительность : 1 ч. 39 м.
Общий поток : 1622 Кбит/сек
Дата кодирования : UTC 2012-03-24 12:44:09
Программа кодирования : mkvmerge v5.2.1 ('A Far Off Place') built on Jan 2 2012 23:21:10
Библиотека кодирования : libebml v1.2.3 + libmatroska v1.3.0
Видео
Идентификатор : 1
Формат : AVC
Формат/Информация : Advanced Video Codec
Профиль формата : [email protected]
Параметр CABAC формата : Да
Параметр ReFrames формата : 3 кадра
Идентификатор кодека : V_MPEG4/ISO/AVC
Продолжительность : 1 ч. 39 м.
Номинальный битрейт : 1300 Кбит/сек
Ширина : 800 пикселей
Высота : 600 пикселей
Соотношение сторон : 4:3
Частота кадров : 23,976 кадра/сек
Цветовое пространство : YUV
Субдискретизация насыщенности : 4:2:0
Битовая глубина : 8 бит
Тип развёртки : Прогрессивная
Бит/(Пиксели*Кадры) : 0.113
Библиотека кодирования : x264 core 120 r2164 da19765
Настройки программы : cabac=1 / ref=3 / deblock=1:-2:-1 / analyse=0x3:0x113 / me=hex / subme=7 / psy=1 / psy_rd=1.00:0.10 / mixed_ref=1 / me_range=16 / chroma_me=1 / trellis=1 / 8x8dct=1 / cqm=0 / deadzone=21,11 / fast_pskip=1 / chroma_qp_offset=-3 / threads=3 / sliced_threads=0 / nr=0 / decimate=1 / interlaced=0 / bluray_compat=0 / constrained_intra=0 / bframes=3 / b_pyramid=0 / b_adapt=1 / b_bias=0 / direct=1 / weightb=1 / open_gop=0 / weightp=2 / keyint=240 / keyint_min=23 / scenecut=40 / intra_refresh=0 / rc_lookahead=40 / rc=2pass / mbtree=1 / bitrate=1300 / ratetol=1.0 / qcomp=0.60 / qpmin=10 / qpmax=51 / qpstep=4 / cplxblur=20.0 / qblur=0.5 / vbv_maxrate=50000 / vbv_bufsize=50000 / nal_hrd=none / ip_ratio=1.40 / aq=1:1.00
Default : Да
Forced : Нет
Аудио #1
Идентификатор : 2
Формат : AC-3
Формат/Информация : Audio Coding 3
Расширение режима : CM (complete main)
Идентификатор кодека : A_AC3
Продолжительность : 1 ч. 39 м.
Вид битрейта : Постоянный
Битрейт : 192 Кбит/сек
Каналы : 2 канала
Расположение каналов : Front: L R
Частота : 48,0 КГц
Битовая глубина : 16 бит
Метод сжатия : С потерями
Размер потока : 136 Мбайт (12%)
Язык : Russian
Default : Да
Forced : Нет
Аудио #2
Идентификатор : 3
Формат : AAC
Формат/Информация : Advanced Audio Codec
Профиль формата : HE-AAC / LC
Идентификатор кодека : A_AAC
Продолжительность : 1 ч. 39 м.
Каналы : 2 канала
Расположение каналов : Front: L R
Частота : 48,0 КГц / 24,0 КГц
Метод сжатия : С потерями
Язык : English
Default : Нет
Forced : Нет
Общее
Уникальный идентификатор : 236993280470805575745538548583823484486 (0xB24B3EDC37487277941D2323C97AA646)
Полное имя : D:\КИНО\Коломбо\02. Развод по-американски (Ransom for a Dead Man) 1971.mkv
Формат : Matroska
Версия формата : Version 2
Размер файла : 1,08 Гбайт
Продолжительность : 1 ч. 35 м.
Общий поток : 1621 Кбит/сек
Дата кодирования : UTC 2012-03-28 13:33:12
Программа кодирования : mkvmerge v5.2.1 ('A Far Off Place') built on Jan 2 2012 23:21:10
Библиотека кодирования : libebml v1.2.3 + libmatroska v1.3.0
Видео
Идентификатор : 1
Формат : AVC
Формат/Информация : Advanced Video Codec
Профиль формата : [email protected]
Параметр CABAC формата : Да
Параметр ReFrames формата : 3 кадра
Идентификатор кодека : V_MPEG4/ISO/AVC
Продолжительность : 1 ч. 35 м.
Номинальный битрейт : 1299 Кбит/сек
Ширина : 800 пикселей
Высота : 600 пикселей
Соотношение сторон : 4:3
Частота кадров : 23,976 кадра/сек
Цветовое пространство : YUV
Субдискретизация насыщенности : 4:2:0
Битовая глубина : 8 бит
Тип развёртки : Прогрессивная
Бит/(Пиксели*Кадры) : 0.113
Библиотека кодирования : x264 core 120 r2164 da19765
Настройки программы : cabac=1 / ref=3 / deblock=1:-2:-1 / analyse=0x3:0x113 / me=hex / subme=7 / psy=1 / psy_rd=1.00:0.10 / mixed_ref=1 / me_range=16 / chroma_me=1 / trellis=1 / 8x8dct=1 / cqm=0 / deadzone=21,11 / fast_pskip=1 / chroma_qp_offset=-3 / threads=3 / sliced_threads=0 / nr=0 / decimate=1 / interlaced=0 / bluray_compat=0 / constrained_intra=0 / bframes=3 / b_pyramid=0 / b_adapt=1 / b_bias=0 / direct=1 / weightb=1 / open_gop=0 / weightp=2 / keyint=240 / keyint_min=23 / scenecut=40 / intra_refresh=0 / rc_lookahead=40 / rc=2pass / mbtree=1 / bitrate=1299 / ratetol=1.0 / qcomp=0.60 / qpmin=10 / qpmax=51 / qpstep=4 / cplxblur=20.0 / qblur=0.5 / vbv_maxrate=50000 / vbv_bufsize=50000 / nal_hrd=none / ip_ratio=1.40 / aq=1:1.00
Default : Да
Forced : Нет
Аудио #1
Идентификатор : 2
Формат : AC-3
Формат/Информация : Audio Coding 3
Расширение режима : CM (complete main)
Идентификатор кодека : A_AC3
Продолжительность : 1 ч. 35 м.
Вид битрейта : Постоянный
Битрейт : 192 Кбит/сек
Каналы : 2 канала
Расположение каналов : Front: L R
Частота : 48,0 КГц
Битовая глубина : 16 бит
Метод сжатия : С потерями
Размер потока : 131 Мбайт (12%)
Язык : Russian
Default : Да
Forced : Нет
Аудио #2
Идентификатор : 3
Формат : AAC
Формат/Информация : Advanced Audio Codec
Профиль формата : HE-AAC / LC
Идентификатор кодека : A_AAC
Продолжительность : 1 ч. 35 м.
Каналы : 2 канала
Расположение каналов : Front: L R
Частота : 48,0 КГц / 24,0 КГц
Метод сжатия : С потерями
Язык : English
Default : Нет
Forced : Нет
Общее
Уникальный идентификатор : 230360237481029079375563184366418626773 (0xAD4DC497759A8F0C82807014D34B88D5)
Полное имя : D:\КИНО\Коломбо\03. Убийство по книге (Murder by the Book) 1971.mkv
Формат : Matroska
Версия формата : Version 2
Размер файла : 881 Мбайт
Продолжительность : 1 ч. 15 м.
Общий поток : 1622 Кбит/сек
Дата кодирования : UTC 2012-03-28 18:06:45
Программа кодирования : mkvmerge v5.2.1 ('A Far Off Place') built on Jan 2 2012 23:21:10
Библиотека кодирования : libebml v1.2.3 + libmatroska v1.3.0
Видео
Идентификатор : 1
Формат : AVC
Формат/Информация : Advanced Video Codec
Профиль формата : [email protected]
Параметр CABAC формата : Да
Параметр ReFrames формата : 3 кадра
Идентификатор кодека : V_MPEG4/ISO/AVC
Продолжительность : 1 ч. 15 м.
Номинальный битрейт : 1300 Кбит/сек
Ширина : 800 пикселей
Высота : 600 пикселей
Соотношение сторон : 4:3
Частота кадров : 23,976 кадра/сек
Цветовое пространство : YUV
Субдискретизация насыщенности : 4:2:0
Битовая глубина : 8 бит
Тип развёртки : Прогрессивная
Бит/(Пиксели*Кадры) : 0.113
Библиотека кодирования : x264 core 120 r2164 da19765
Настройки программы : cabac=1 / ref=3 / deblock=1:-2:-1 / analyse=0x3:0x113 / me=hex / subme=7 / psy=1 / psy_rd=1.00:0.10 / mixed_ref=1 / me_range=16 / chroma_me=1 / trellis=1 / 8x8dct=1 / cqm=0 / deadzone=21,11 / fast_pskip=1 / chroma_qp_offset=-3 / threads=3 / sliced_threads=0 / nr=0 / decimate=1 / interlaced=0 / bluray_compat=0 / constrained_intra=0 / bframes=3 / b_pyramid=0 / b_adapt=1 / b_bias=0 / direct=1 / weightb=1 / open_gop=0 / weightp=2 / keyint=240 / keyint_min=23 / scenecut=40 / intra_refresh=0 / rc_lookahead=40 / rc=2pass / mbtree=1 / bitrate=1300 / ratetol=1.0 / qcomp=0.60 / qpmin=10 / qpmax=51 / qpstep=4 / cplxblur=20.0 / qblur=0.5 / vbv_maxrate=50000 / vbv_bufsize=50000 / nal_hrd=none / ip_ratio=1.40 / aq=1:1.00
Default : Да
Forced : Нет
Аудио #1
Идентификатор : 2
Формат : AC-3
Формат/Информация : Audio Coding 3
Расширение режима : CM (complete main)
Идентификатор кодека : A_AC3
Продолжительность : 1 ч. 15 м.
Вид битрейта : Постоянный
Битрейт : 192 Кбит/сек
Каналы : 2 канала
Расположение каналов : Front: L R
Частота : 48,0 КГц
Битовая глубина : 16 бит
Метод сжатия : С потерями
Размер потока : 104 Мбайт (12%)
Язык : Russian
Default : Да
Forced : Нет
Аудио #2
Идентификатор : 3
Формат : AAC
Формат/Информация : Advanced Audio Codec
Профиль формата : HE-AAC / LC
Идентификатор кодека : A_AAC
Продолжительность : 1 ч. 15 м.
Каналы : 2 канала
Расположение каналов : Front: L R
Частота : 48,0 КГц / 24,0 КГц
Метод сжатия : С потерями
Язык : English
Default : Нет
Forced : Нет
Общее
Уникальный идентификатор : 189482019767473470262310808393648098159 (0x8E8CE8DA30A39A88A0E8954AB3B2CB6F)
Полное имя : D:\КИНО\Коломбо\04. Смерть протягивает руку (Death Lends a Hand) 1971.mkv
Формат : Matroska
Версия формата : Version 2
Размер файла : 882 Мбайт
Продолжительность : 1 ч. 16 м.
Общий поток : 1622 Кбит/сек
Дата кодирования : UTC 2012-03-28 13:16:46
Программа кодирования : mkvmerge v5.2.1 ('A Far Off Place') built on Jan 2 2012 23:21:10
Библиотека кодирования : libebml v1.2.3 + libmatroska v1.3.0
Видео
Идентификатор : 1
Формат : AVC
Формат/Информация : Advanced Video Codec
Профиль формата : [email protected]
Параметр CABAC формата : Да
Параметр ReFrames формата : 3 кадра
Идентификатор кодека : V_MPEG4/ISO/AVC
Продолжительность : 1 ч. 16 м.
Номинальный битрейт : 1300 Кбит/сек
Ширина : 800 пикселей
Высота : 600 пикселей
Соотношение сторон : 4:3
Частота кадров : 23,976 кадра/сек
Цветовое пространство : YUV
Субдискретизация насыщенности : 4:2:0
Битовая глубина : 8 бит
Тип развёртки : Прогрессивная
Бит/(Пиксели*Кадры) : 0.113
Библиотека кодирования : x264 core 120 r2164 da19765
Настройки программы : cabac=1 / ref=3 / deblock=1:-2:-1 / analyse=0x3:0x113 / me=hex / subme=7 / psy=1 / psy_rd=1.00:0.10 / mixed_ref=1 / me_range=16 / chroma_me=1 / trellis=1 / 8x8dct=1 / cqm=0 / deadzone=21,11 / fast_pskip=1 / chroma_qp_offset=-3 / threads=3 / sliced_threads=0 / nr=0 / decimate=1 / interlaced=0 / bluray_compat=0 / constrained_intra=0 / bframes=3 / b_pyramid=0 / b_adapt=1 / b_bias=0 / direct=1 / weightb=1 / open_gop=0 / weightp=2 / keyint=240 / keyint_min=23 / scenecut=40 / intra_refresh=0 / rc_lookahead=40 / rc=2pass / mbtree=1 / bitrate=1300 / ratetol=1.0 / qcomp=0.60 / qpmin=10 / qpmax=51 / qpstep=4 / cplxblur=20.0 / qblur=0.5 / vbv_maxrate=50000 / vbv_bufsize=50000 / nal_hrd=none / ip_ratio=1.40 / aq=1:1.00
Default : Да
Forced : Нет
Аудио #1
Идентификатор : 2
Формат : AC-3
Формат/Информация : Audio Coding 3
Расширение режима : CM (complete main)
Идентификатор кодека : A_AC3
Продолжительность : 1 ч. 16 м.
Вид битрейта : Постоянный
Битрейт : 192 Кбит/сек
Каналы : 2 канала
Расположение каналов : Front: L R
Частота : 48,0 КГц
Битовая глубина : 16 бит
Метод сжатия : С потерями
Размер потока : 104 Мбайт (12%)
Язык : Russian
Default : Да
Forced : Нет
Аудио #2
Идентификатор : 3
Формат : AAC
Формат/Информация : Advanced Audio Codec
Профиль формата : HE-AAC / LC
Идентификатор кодека : A_AAC
Продолжительность : 1 ч. 16 м.
Каналы : 2 канала
Расположение каналов : Front: L R
Частота : 48,0 КГц / 24,0 КГц
Метод сжатия : С потерями
Язык : English
Default : Нет
Forced : Нет
Общее
Уникальный идентификатор : 215685538213163154054981421407309642911 (0xA243860EAFC9C184871E24F63BFFBC9F)
Полное имя : D:\КИНО\Коломбо\05. Мёртвый груз (Dead Weight) 1971.mkv
Формат : Matroska
Версия формата : Version 2
Размер файла : 880 Мбайт
Продолжительность : 1 ч. 15 м.
Общий поток : 1621 Кбит/сек
Дата кодирования : UTC 2012-04-01 06:39:27
Программа кодирования : mkvmerge v5.2.1 ('A Far Off Place') built on Jan 2 2012 23:21:10
Библиотека кодирования : libebml v1.2.3 + libmatroska v1.3.0
Видео
Идентификатор : 1
Формат : AVC
Формат/Информация : Advanced Video Codec
Профиль формата : [email protected]
Параметр CABAC формата : Да
Параметр ReFrames формата : 3 кадра
Идентификатор кодека : V_MPEG4/ISO/AVC
Продолжительность : 1 ч. 15 м.
Номинальный битрейт : 1299 Кбит/сек
Ширина : 800 пикселей
Высота : 600 пикселей
Соотношение сторон : 4:3
Частота кадров : 23,976 кадра/сек
Цветовое пространство : YUV
Субдискретизация насыщенности : 4:2:0
Битовая глубина : 8 бит
Тип развёртки : Прогрессивная
Бит/(Пиксели*Кадры) : 0.113
Библиотека кодирования : x264 core 120 r2164 da19765
Настройки программы : cabac=1 / ref=3 / deblock=1:-2:-1 / analyse=0x3:0x113 / me=hex / subme=7 / psy=1 / psy_rd=1.00:0.10 / mixed_ref=1 / me_range=16 / chroma_me=1 / trellis=1 / 8x8dct=1 / cqm=0 / deadzone=21,11 / fast_pskip=1 / chroma_qp_offset=-3 / threads=3 / sliced_threads=0 / nr=0 / decimate=1 / interlaced=0 / bluray_compat=0 / constrained_intra=0 / bframes=3 / b_pyramid=0 / b_adapt=1 / b_bias=0 / direct=1 / weightb=1 / open_gop=0 / weightp=2 / keyint=240 / keyint_min=23 / scenecut=40 / intra_refresh=0 / rc_lookahead=40 / rc=2pass / mbtree=1 / bitrate=1299 / ratetol=1.0 / qcomp=0.60 / qpmin=10 / qpmax=51 / qpstep=4 / cplxblur=20.0 / qblur=0.5 / vbv_maxrate=50000 / vbv_bufsize=50000 / nal_hrd=none / ip_ratio=1.40 / aq=1:1.00
Default : Да
Forced : Нет
Аудио #1
Идентификатор : 2
Формат : AC-3
Формат/Информация : Audio Coding 3
Расширение режима : CM (complete main)
Идентификатор кодека : A_AC3
Продолжительность : 1 ч. 15 м.
Вид битрейта : Постоянный
Битрейт : 192 Кбит/сек
Каналы : 2 канала
Расположение каналов : Front: L R
Частота : 48,0 КГц
Битовая глубина : 16 бит
Метод сжатия : С потерями
Размер потока : 104 Мбайт (12%)
Язык : Russian
Default : Да
Forced : Нет
Аудио #2
Идентификатор : 3
Формат : AAC
Формат/Информация : Advanced Audio Codec
Профиль формата : HE-AAC / LC
Идентификатор кодека : A_AAC
Продолжительность : 1 ч. 15 м.
Каналы : 2 канала
Расположение каналов : Front: L R
Частота : 48,0 КГц / 24,0 КГц
Метод сжатия : С потерями
Язык : English
Default : Нет
Forced : Нет
Общее
Уникальный идентификатор : 195146428628240952585116451862977774890 (0x92CFD5C569C40C1D97D5FD6EACBD052A)
Полное имя : D:\КИНО\Коломбо\06. Подходящие улики (Подходящий для рамки) (Suitable for Framing) 1971.mkv
Формат : Matroska
Версия формата : Version 2
Размер файла : 880 Мбайт
Продолжительность : 1 ч. 15 м.
Общий поток : 1621 Кбит/сек
Дата кодирования : UTC 2012-03-29 16:52:49
Программа кодирования : mkvmerge v5.2.1 ('A Far Off Place') built on Jan 2 2012 23:21:10
Библиотека кодирования : libebml v1.2.3 + libmatroska v1.3.0
Видео
Идентификатор : 1
Формат : AVC
Формат/Информация : Advanced Video Codec
Профиль формата : [email protected]
Параметр CABAC формата : Да
Параметр ReFrames формата : 3 кадра
Идентификатор кодека : V_MPEG4/ISO/AVC
Продолжительность : 1 ч. 15 м.
Номинальный битрейт : 1299 Кбит/сек
Ширина : 800 пикселей
Высота : 600 пикселей
Соотношение сторон : 4:3
Частота кадров : 23,976 кадра/сек
Цветовое пространство : YUV
Субдискретизация насыщенности : 4:2:0
Битовая глубина : 8 бит
Тип развёртки : Прогрессивная
Бит/(Пиксели*Кадры) : 0.113
Библиотека кодирования : x264 core 120 r2164 da19765
Настройки программы : cabac=1 / ref=3 / deblock=1:-2:-1 / analyse=0x3:0x113 / me=hex / subme=7 / psy=1 / psy_rd=1.00:0.10 / mixed_ref=1 / me_range=16 / chroma_me=1 / trellis=1 / 8x8dct=1 / cqm=0 / deadzone=21,11 / fast_pskip=1 / chroma_qp_offset=-3 / threads=3 / sliced_threads=0 / nr=0 / decimate=1 / interlaced=0 / bluray_compat=0 / constrained_intra=0 / bframes=3 / b_pyramid=0 / b_adapt=1 / b_bias=0 / direct=1 / weightb=1 / open_gop=0 / weightp=2 / keyint=240 / keyint_min=23 / scenecut=40 / intra_refresh=0 / rc_lookahead=40 / rc=2pass / mbtree=1 / bitrate=1299 / ratetol=1.0 / qcomp=0.60 / qpmin=10 / qpmax=51 / qpstep=4 / cplxblur=20.0 / qblur=0.5 / vbv_maxrate=50000 / vbv_bufsize=50000 / nal_hrd=none / ip_ratio=1.40 / aq=1:1.00
Default : Да
Forced : Нет
Аудио #1
Идентификатор : 2
Формат : AC-3
Формат/Информация : Audio Coding 3
Расширение режима : CM (complete main)
Идентификатор кодека : A_AC3
Продолжительность : 1 ч. 15 м.
Вид битрейта : Постоянный
Битрейт : 192 Кбит/сек
Каналы : 2 канала
Расположение каналов : Front: L R
Частота : 48,0 КГц
Битовая глубина : 16 бит
Метод сжатия : С потерями
Размер потока : 104 Мбайт (12%)
Язык : Russian
Default : Да
Forced : Нет
Аудио #2
Идентификатор : 3
Формат : AAC
Формат/Информация : Advanced Audio Codec
Профиль формата : HE-AAC / LC
Идентификатор кодека : A_AAC
Продолжительность : 1 ч. 15 м.
Каналы : 2 канала
Расположение каналов : Front: L R
Частота : 48,0 КГц / 24,0 КГц
Метод сжатия : С потерями
Язык : English
Default : Нет
Forced : Нет
Общее
Уникальный идентификатор : 240600150380089153114377430183503067343 (0xB501E746CD68B853A1D09CBA005DF8CF)
Полное имя : D:\КИНО\Коломбо\07. На грани нервного срыва (Леди ждет) (Lady in Waiting) 1971.mkv
Формат : Matroska
Версия формата : Version 2
Размер файла : 877 Мбайт
Продолжительность : 1 ч. 15 м.
Общий поток : 1622 Кбит/сек
Дата кодирования : UTC 2012-03-29 11:54:20
Программа кодирования : mkvmerge v5.2.1 ('A Far Off Place') built on Jan 2 2012 23:21:10
Библиотека кодирования : libebml v1.2.3 + libmatroska v1.3.0
Видео
Идентификатор : 1
Формат : AVC
Формат/Информация : Advanced Video Codec
Профиль формата : [email protected]
Параметр CABAC формата : Да
Параметр ReFrames формата : 3 кадра
Идентификатор кодека : V_MPEG4/ISO/AVC
Продолжительность : 1 ч. 15 м.
Номинальный битрейт : 1300 Кбит/сек
Ширина : 800 пикселей
Высота : 600 пикселей
Соотношение сторон : 4:3
Частота кадров : 23,976 кадра/сек
Цветовое пространство : YUV
Субдискретизация насыщенности : 4:2:0
Битовая глубина : 8 бит
Тип развёртки : Прогрессивная
Бит/(Пиксели*Кадры) : 0.113
Библиотека кодирования : x264 core 120 r2164 da19765
Настройки программы : cabac=1 / ref=3 / deblock=1:-2:-1 / analyse=0x3:0x113 / me=hex / subme=7 / psy=1 / psy_rd=1.00:0.10 / mixed_ref=1 / me_range=16 / chroma_me=1 / trellis=1 / 8x8dct=1 / cqm=0 / deadzone=21,11 / fast_pskip=1 / chroma_qp_offset=-3 / threads=3 / sliced_threads=0 / nr=0 / decimate=1 / interlaced=0 / bluray_compat=0 / constrained_intra=0 / bframes=3 / b_pyramid=0 / b_adapt=1 / b_bias=0 / direct=1 / weightb=1 / open_gop=0 / weightp=2 / keyint=240 / keyint_min=23 / scenecut=40 / intra_refresh=0 / rc_lookahead=40 / rc=2pass / mbtree=1 / bitrate=1300 / ratetol=1.0 / qcomp=0.60 / qpmin=10 / qpmax=51 / qpstep=4 / cplxblur=20.0 / qblur=0.5 / vbv_maxrate=50000 / vbv_bufsize=50000 / nal_hrd=none / ip_ratio=1.40 / aq=1:1.00
Default : Да
Forced : Нет
Аудио #1
Идентификатор : 2
Формат : AC-3
Формат/Информация : Audio Coding 3
Расширение режима : CM (complete main)
Идентификатор кодека : A_AC3
Продолжительность : 1 ч. 15 м.
Вид битрейта : Постоянный
Битрейт : 192 Кбит/сек
Каналы : 2 канала
Расположение каналов : Front: L R
Частота : 48,0 КГц
Битовая глубина : 16 бит
Метод сжатия : С потерями
Размер потока : 104 Мбайт (12%)
Язык : Russian
Default : Да
Forced : Нет
Аудио #2
Идентификатор : 3
Формат : AAC
Формат/Информация : Advanced Audio Codec
Профиль формата : HE-AAC / LC
Идентификатор кодека : A_AAC
Продолжительность : 1 ч. 15 м.
Каналы : 2 канала
Расположение каналов : Front: L R
Частота : 48,0 КГц / 24,0 КГц
Метод сжатия : С потерями
Язык : English
Default : Нет
Forced : Нет
Общее
Уникальный идентификатор : 187926903872015849672602329927097596263 (0x8D6167B80FD004D6A17F5235C45D3967)
Полное имя : D:\КИНО\Коломбо\08. Короткое замыкание (Short Fuse) 1972.mkv
Формат : Matroska
Версия формата : Version 2
Размер файла : 875 Мбайт
Продолжительность : 1 ч. 15 м.
Общий поток : 1622 Кбит/сек
Дата кодирования : UTC 2012-03-30 12:27:12
Программа кодирования : mkvmerge v5.2.1 ('A Far Off Place') built on Jan 2 2012 23:21:10
Библиотека кодирования : libebml v1.2.3 + libmatroska v1.3.0
Видео
Идентификатор : 1
Формат : AVC
Формат/Информация : Advanced Video Codec
Профиль формата : [email protected]
Параметр CABAC формата : Да
Параметр ReFrames формата : 3 кадра
Идентификатор кодека : V_MPEG4/ISO/AVC
Продолжительность : 1 ч. 15 м.
Номинальный битрейт : 1300 Кбит/сек
Ширина : 800 пикселей
Высота : 600 пикселей
Соотношение сторон : 4:3
Частота кадров : 23,976 кадра/сек
Цветовое пространство : YUV
Субдискретизация насыщенности : 4:2:0
Битовая глубина : 8 бит
Тип развёртки : Прогрессивная
Бит/(Пиксели*Кадры) : 0.113
Библиотека кодирования : x264 core 120 r2164 da19765
Настройки программы : cabac=1 / ref=3 / deblock=1:-2:-1 / analyse=0x3:0x113 / me=hex / subme=7 / psy=1 / psy_rd=1.00:0.10 / mixed_ref=1 / me_range=16 / chroma_me=1 / trellis=1 / 8x8dct=1 / cqm=0 / deadzone=21,11 / fast_pskip=1 / chroma_qp_offset=-3 / threads=3 / sliced_threads=0 / nr=0 / decimate=1 / interlaced=0 / bluray_compat=0 / constrained_intra=0 / bframes=3 / b_pyramid=0 / b_adapt=1 / b_bias=0 / direct=1 / weightb=1 / open_gop=0 / weightp=2 / keyint=240 / keyint_min=23 / scenecut=40 / intra_refresh=0 / rc_lookahead=40 / rc=2pass / mbtree=1 / bitrate=1300 / ratetol=1.0 / qcomp=0.60 / qpmin=10 / qpmax=51 / qpstep=4 / cplxblur=20.0 / qblur=0.5 / vbv_maxrate=50000 / vbv_bufsize=50000 / nal_hrd=none / ip_ratio=1.40 / aq=1:1.00
Default : Да
Forced : Нет
Аудио #1
Идентификатор : 2
Формат : AC-3
Формат/Информация : Audio Coding 3
Расширение режима : CM (complete main)
Идентификатор кодека : A_AC3
Продолжительность : 1 ч. 15 м.
Вид битрейта : Постоянный
Битрейт : 192 Кбит/сек
Каналы : 2 канала
Расположение каналов : Front: L R
Частота : 48,0 КГц
Битовая глубина : 16 бит
Метод сжатия : С потерями
Размер потока : 104 Мбайт (12%)
Язык : Russian
Default : Да
Forced : Нет
Аудио #2
Идентификатор : 3
Формат : AAC
Формат/Информация : Advanced Audio Codec
Профиль формата : HE-AAC / LC
Идентификатор кодека : A_AAC
Продолжительность : 1 ч. 15 м.
Каналы : 2 канала
Расположение каналов : Front: L R
Частота : 48,0 КГц / 24,0 КГц
Метод сжатия : С потерями
Язык : English
Default : Нет
Forced : Нет
Общее
Уникальный идентификатор : 229189315494832655040042705294364099066 (0xAC6C41AE3638CAED8A6F9A559F99C1FA)
Полное имя : D:\КИНО\Коломбо\09. План убийства (Blueprint for Murder) 1972.mkv
Формат : Matroska
Версия формата : Version 2
Размер файла : 871 Мбайт
Продолжительность : 1 ч. 15 м.
Общий поток : 1622 Кбит/сек
Дата кодирования : UTC 2012-03-30 22:27:49
Программа кодирования : mkvmerge v5.2.1 ('A Far Off Place') built on Jan 2 2012 23:21:10
Библиотека кодирования : libebml v1.2.3 + libmatroska v1.3.0
Видео
Идентификатор : 1
Формат : AVC
Формат/Информация : Advanced Video Codec
Профиль формата : [email protected]
Параметр CABAC формата : Да
Параметр ReFrames формата : 3 кадра
Идентификатор кодека : V_MPEG4/ISO/AVC
Продолжительность : 1 ч. 15 м.
Номинальный битрейт : 1300 Кбит/сек
Ширина : 800 пикселей
Высота : 600 пикселей
Соотношение сторон : 4:3
Частота кадров : 23,976 кадра/сек
Цветовое пространство : YUV
Субдискретизация насыщенности : 4:2:0
Битовая глубина : 8 бит
Тип развёртки : Прогрессивная
Бит/(Пиксели*Кадры) : 0.113
Библиотека кодирования : x264 core 120 r2164 da19765
Настройки программы : cabac=1 / ref=3 / deblock=1:-2:-1 / analyse=0x3:0x113 / me=hex / subme=7 / psy=1 / psy_rd=1.00:0.10 / mixed_ref=1 / me_range=16 / chroma_me=1 / trellis=1 / 8x8dct=1 / cqm=0 / deadzone=21,11 / fast_pskip=1 / chroma_qp_offset=-3 / threads=3 / sliced_threads=0 / nr=0 / decimate=1 / interlaced=0 / bluray_compat=0 / constrained_intra=0 / bframes=3 / b_pyramid=0 / b_adapt=1 / b_bias=0 / direct=1 / weightb=1 / open_gop=0 / weightp=2 / keyint=240 / keyint_min=23 / scenecut=40 / intra_refresh=0 / rc_lookahead=40 / rc=2pass / mbtree=1 / bitrate=1300 / ratetol=1.0 / qcomp=0.60 / qpmin=10 / qpmax=51 / qpstep=4 / cplxblur=20.0 / qblur=0.5 / vbv_maxrate=50000 / vbv_bufsize=50000 / nal_hrd=none / ip_ratio=1.40 / aq=1:1.00
Default : Да
Forced : Нет
Аудио #1
Идентификатор : 2
Формат : AC-3
Формат/Информация : Audio Coding 3
Расширение режима : CM (complete main)
Идентификатор кодека : A_AC3
Продолжительность : 1 ч. 15 м.
Вид битрейта : Постоянный
Битрейт : 192 Кбит/сек
Каналы : 2 канала
Расположение каналов : Front: L R
Частота : 48,0 КГц
Битовая глубина : 16 бит
Метод сжатия : С потерями
Размер потока : 103 Мбайт (12%)
Язык : Russian
Default : Да
Forced : Нет
Аудио #2
Идентификатор : 3
Формат : AAC
Формат/Информация : Advanced Audio Codec
Профиль формата : HE-AAC / LC
Идентификатор кодека : A_AAC
Продолжительность : 1 ч. 15 м.
Каналы : 2 канала
Расположение каналов : Front: L R
Частота : 48,0 КГц / 24,0 КГц
Метод сжатия : С потерями
Язык : English
Default : Нет
Forced : Нет
Общее
Уникальный идентификатор : 228309375775547627356989264286419242876 (0xABC2C94D8410DD40B84667ACB0EFCF7C)
Полное имя : D:\КИНО\Коломбо\10. Этюд в чёрных тонах (Этюд в чёрном) (Etude in Black) 1972.mkv
Формат : Matroska
Версия формата : Version 2
Размер файла : 1,09 Гбайт
Продолжительность : 1 ч. 36 м.
Общий поток : 1621 Кбит/сек
Дата кодирования : UTC 2012-03-30 12:28:36
Программа кодирования : mkvmerge v5.2.1 ('A Far Off Place') built on Jan 2 2012 23:21:10
Библиотека кодирования : libebml v1.2.3 + libmatroska v1.3.0
Видео
Идентификатор : 1
Формат : AVC
Формат/Информация : Advanced Video Codec
Профиль формата : [email protected]
Параметр CABAC формата : Да
Параметр ReFrames формата : 3 кадра
Идентификатор кодека : V_MPEG4/ISO/AVC
Продолжительность : 1 ч. 36 м.
Номинальный битрейт : 1299 Кбит/сек
Ширина : 800 пикселей
Высота : 600 пикселей
Соотношение сторон : 4:3
Частота кадров : 23,976 кадра/сек
Цветовое пространство : YUV
Субдискретизация насыщенности : 4:2:0
Битовая глубина : 8 бит
Тип развёртки : Прогрессивная
Бит/(Пиксели*Кадры) : 0.113
Библиотека кодирования : x264 core 120 r2164 da19765
Настройки программы : cabac=1 / ref=3 / deblock=1:-2:-1 / analyse=0x3:0x113 / me=hex / subme=7 / psy=1 / psy_rd=1.00:0.10 / mixed_ref=1 / me_range=16 / chroma_me=1 / trellis=1 / 8x8dct=1 / cqm=0 / deadzone=21,11 / fast_pskip=1 / chroma_qp_offset=-3 / threads=3 / sliced_threads=0 / nr=0 / decimate=1 / interlaced=0 / bluray_compat=0 / constrained_intra=0 / bframes=3 / b_pyramid=0 / b_adapt=1 / b_bias=0 / direct=1 / weightb=1 / open_gop=0 / weightp=2 / keyint=240 / keyint_min=23 / scenecut=40 / intra_refresh=0 / rc_lookahead=40 / rc=2pass / mbtree=1 / bitrate=1299 / ratetol=1.0 / qcomp=0.60 / qpmin=10 / qpmax=51 / qpstep=4 / cplxblur=20.0 / qblur=0.5 / vbv_maxrate=50000 / vbv_bufsize=50000 / nal_hrd=none / ip_ratio=1.40 / aq=1:1.00
Default : Да
Forced : Нет
Аудио #1
Идентификатор : 2
Формат : AC-3
Формат/Информация : Audio Coding 3
Расширение режима : CM (complete main)
Идентификатор кодека : A_AC3
Продолжительность : 1 ч. 36 м.
Вид битрейта : Постоянный
Битрейт : 192 Кбит/сек
Каналы : 2 канала
Расположение каналов : Front: L R
Частота : 48,0 КГц
Битовая глубина : 16 бит
Метод сжатия : С потерями
Размер потока : 132 Мбайт (12%)
Язык : Russian
Default : Да
Forced : Нет
Аудио #2
Идентификатор : 3
Формат : AAC
Формат/Информация : Advanced Audio Codec
Профиль формата : HE-AAC / LC
Идентификатор кодека : A_AAC
Продолжительность : 1 ч. 36 м.
Каналы : 2 канала
Расположение каналов : Front: L R
Частота : 48,0 КГц / 24,0 КГц
Метод сжатия : С потерями
Язык : English
Default : Нет
Forced : Нет
Общее
Уникальный идентификатор : 179723405665994142582258894729071817275 (0x87357807BAB151D1A2DB11797CA3F23B)
Полное имя : D:\КИНО\Коломбо\11. Смерть в оранжерее (The Greenhouse Jungle) 1972.mkv
Формат : Matroska
Версия формата : Version 2
Размер файла : 856 Мбайт
Продолжительность : 1 ч. 13 м.
Общий поток : 1621 Кбит/сек
Дата кодирования : UTC 2012-04-15 19:00:58
Программа кодирования : mkvmerge v5.2.1 ('A Far Off Place') built on Jan 2 2012 23:21:10
Библиотека кодирования : libebml v1.2.3 + libmatroska v1.3.0
Видео
Идентификатор : 1
Формат : AVC
Формат/Информация : Advanced Video Codec
Профиль формата : [email protected]
Параметр CABAC формата : Да
Параметр ReFrames формата : 3 кадра
Идентификатор кодека : V_MPEG4/ISO/AVC
Продолжительность : 1 ч. 13 м.
Номинальный битрейт : 1299 Кбит/сек
Ширина : 800 пикселей
Высота : 600 пикселей
Соотношение сторон : 4:3
Частота кадров : 23,976 кадра/сек
Цветовое пространство : YUV
Субдискретизация насыщенности : 4:2:0
Битовая глубина : 8 бит
Тип развёртки : Прогрессивная
Бит/(Пиксели*Кадры) : 0.113
Библиотека кодирования : x264 core 120 r2164 da19765
Настройки программы : cabac=1 / ref=3 / deblock=1:-2:-1 / analyse=0x3:0x113 / me=hex / subme=7 / psy=1 / psy_rd=1.00:0.10 / mixed_ref=1 / me_range=16 / chroma_me=1 / trellis=1 / 8x8dct=1 / cqm=0 / deadzone=21,11 / fast_pskip=1 / chroma_qp_offset=-3 / threads=3 / sliced_threads=0 / nr=0 / decimate=1 / interlaced=0 / bluray_compat=0 / constrained_intra=0 / bframes=3 / b_pyramid=0 / b_adapt=1 / b_bias=0 / direct=1 / weightb=1 / open_gop=0 / weightp=2 / keyint=240 / keyint_min=23 / scenecut=40 / intra_refresh=0 / rc_lookahead=40 / rc=2pass / mbtree=1 / bitrate=1299 / ratetol=1.0 / qcomp=0.60 / qpmin=10 / qpmax=51 / qpstep=4 / cplxblur=20.0 / qblur=0.5 / vbv_maxrate=50000 / vbv_bufsize=50000 / nal_hrd=none / ip_ratio=1.40 / aq=1:1.00
Default : Да
Forced : Нет
Аудио #1
Идентификатор : 2
Формат : AC-3
Формат/Информация : Audio Coding 3
Расширение режима : CM (complete main)
Идентификатор кодека : A_AC3
Продолжительность : 1 ч. 13 м.
Вид битрейта : Постоянный
Битрейт : 192 Кбит/сек
Каналы : 2 канала
Расположение каналов : Front: L R
Частота : 48,0 КГц
Битовая глубина : 16 бит
Метод сжатия : С потерями
Размер потока : 101 Мбайт (12%)
Язык : Russian
Default : Да
Forced : Нет
Аудио #2
Идентификатор : 3
Формат : AAC
Формат/Информация : Advanced Audio Codec
Профиль формата : HE-AAC / LC
Идентификатор кодека : A_AAC
Продолжительность : 1 ч. 13 м.
Каналы : 2 канала
Расположение каналов : Front: L R
Частота : 48,0 КГц / 24,0 КГц
Метод сжатия : С потерями
Язык : English
Default : Нет
Forced : Нет
Общее
Уникальный идентификатор : 205947199204787836623999358345398662215 (0x9AEFFCDFE0F4D1169CF3CE72BEAB3447)
Полное имя : D:\КИНО\Коломбо\12. Смертельная развязка (The Most Crucial Game) 1972.mkv
Формат : Matroska
Версия формата : Version 2
Размер файла : 856 Мбайт
Продолжительность : 1 ч. 13 м.
Общий поток : 1621 Кбит/сек
Дата кодирования : UTC 2012-04-16 05:13:31
Программа кодирования : mkvmerge v5.2.1 ('A Far Off Place') built on Jan 2 2012 23:21:10
Библиотека кодирования : libebml v1.2.3 + libmatroska v1.3.0
Видео
Идентификатор : 1
Формат : AVC
Формат/Информация : Advanced Video Codec
Профиль формата : [email protected]
Параметр CABAC формата : Да
Параметр ReFrames формата : 3 кадра
Идентификатор кодека : V_MPEG4/ISO/AVC
Продолжительность : 1 ч. 13 м.
Номинальный битрейт : 1299 Кбит/сек
Ширина : 800 пикселей
Высота : 600 пикселей
Соотношение сторон : 4:3
Частота кадров : 23,976 кадра/сек
Цветовое пространство : YUV
Субдискретизация насыщенности : 4:2:0
Битовая глубина : 8 бит
Тип развёртки : Прогрессивная
Бит/(Пиксели*Кадры) : 0.113
Библиотека кодирования : x264 core 120 r2164 da19765
Настройки программы : cabac=1 / ref=3 / deblock=1:-2:-1 / analyse=0x3:0x113 / me=hex / subme=7 / psy=1 / psy_rd=1.00:0.10 / mixed_ref=1 / me_range=16 / chroma_me=1 / trellis=1 / 8x8dct=1 / cqm=0 / deadzone=21,11 / fast_pskip=1 / chroma_qp_offset=-3 / threads=3 / sliced_threads=0 / nr=0 / decimate=1 / interlaced=0 / bluray_compat=0 / constrained_intra=0 / bframes=3 / b_pyramid=0 / b_adapt=1 / b_bias=0 / direct=1 / weightb=1 / open_gop=0 / weightp=2 / keyint=240 / keyint_min=23 / scenecut=40 / intra_refresh=0 / rc_lookahead=40 / rc=2pass / mbtree=1 / bitrate=1299 / ratetol=1.0 / qcomp=0.60 / qpmin=10 / qpmax=51 / qpstep=4 / cplxblur=20.0 / qblur=0.5 / vbv_maxrate=50000 / vbv_bufsize=50000 / nal_hrd=none / ip_ratio=1.40 / aq=1:1.00
Default : Да
Forced : Нет
Аудио #1
Идентификатор : 2
Формат : AC-3
Формат/Информация : Audio Coding 3
Расширение режима : CM (complete main)
Идентификатор кодека : A_AC3
Продолжительность : 1 ч. 13 м.
Вид битрейта : Постоянный
Битрейт : 192 Кбит/сек
Каналы : 2 канала
Расположение каналов : Front: L R
Частота : 48,0 КГц
Битовая глубина : 16 бит
Метод сжатия : С потерями
Размер потока : 101 Мбайт (12%)
Язык : Russian
Default : Да
Forced : Нет
Аудио #2
Идентификатор : 3
Формат : AAC
Формат/Информация : Advanced Audio Codec
Профиль формата : HE-AAC / LC
Идентификатор кодека : A_AAC
Продолжительность : 1 ч. 13 м.
Каналы : 2 канала
Расположение каналов : Front: L R
Частота : 48,0 КГц / 24,0 КГц
Метод сжатия : С потерями
Язык : English
Default : Нет
Forced : Нет
Общее
Уникальный идентификатор : 204207252306252191536527639704208009240 (0x99A0E2DE83185C74BDCA4F705175E818)
Полное имя : D:\КИНО\Коломбо\13. Из любви к искусству (Dagger of the Mind) 1972.mkv
Формат : Matroska
Версия формата : Version 2
Размер файла : 1,11 Гбайт
Продолжительность : 1 ч. 37 м.
Общий поток : 1621 Кбит/сек
Дата кодирования : UTC 2012-04-16 14:25:46
Программа кодирования : mkvmerge v5.2.1 ('A Far Off Place') built on Jan 2 2012 23:21:10
Библиотека кодирования : libebml v1.2.3 + libmatroska v1.3.0
Видео
Идентификатор : 1
Формат : AVC
Формат/Информация : Advanced Video Codec
Профиль формата : [email protected]
Параметр CABAC формата : Да
Параметр ReFrames формата : 3 кадра
Идентификатор кодека : V_MPEG4/ISO/AVC
Продолжительность : 1 ч. 37 м.
Номинальный битрейт : 1300 Кбит/сек
Ширина : 800 пикселей
Высота : 600 пикселей
Соотношение сторон : 4:3
Частота кадров : 23,976 кадра/сек
Цветовое пространство : YUV
Субдискретизация насыщенности : 4:2:0
Битовая глубина : 8 бит
Тип развёртки : Прогрессивная
Бит/(Пиксели*Кадры) : 0.113
Библиотека кодирования : x264 core 120 r2164 da19765
Настройки программы : cabac=1 / ref=3 / deblock=1:-2:-1 / analyse=0x3:0x113 / me=hex / subme=7 / psy=1 / psy_rd=1.00:0.10 / mixed_ref=1 / me_range=16 / chroma_me=1 / trellis=1 / 8x8dct=1 / cqm=0 / deadzone=21,11 / fast_pskip=1 / chroma_qp_offset=-3 / threads=3 / sliced_threads=0 / nr=0 / decimate=1 / interlaced=0 / bluray_compat=0 / constrained_intra=0 / bframes=3 / b_pyramid=0 / b_adapt=1 / b_bias=0 / direct=1 / weightb=1 / open_gop=0 / weightp=2 / keyint=240 / keyint_min=23 / scenecut=40 / intra_refresh=0 / rc_lookahead=40 / rc=2pass / mbtree=1 / bitrate=1300 / ratetol=1.0 / qcomp=0.60 / qpmin=10 / qpmax=51 / qpstep=4 / cplxblur=20.0 / qblur=0.5 / vbv_maxrate=50000 / vbv_bufsize=50000 / nal_hrd=none / ip_ratio=1.40 / aq=1:1.00
Default : Да
Forced : Нет
Аудио #1
Идентификатор : 2
Формат : AC-3
Формат/Информация : Audio Coding 3
Расширение режима : CM (complete main)
Идентификатор кодека : A_AC3
Продолжительность : 1 ч. 37 м.
Вид битрейта : Постоянный
Битрейт : 192 Кбит/сек
Каналы : 2 канала
Расположение каналов : Front: L R
Частота : 48,0 КГц
Битовая глубина : 16 бит
Метод сжатия : С потерями
Размер потока : 134 Мбайт (12%)
Язык : Russian
Default : Да
Forced : Нет
Аудио #2
Идентификатор : 3
Формат : AAC
Формат/Информация : Advanced Audio Codec
Профиль формата : HE-AAC / LC
Идентификатор кодека : A_AAC
Продолжительность : 1 ч. 37 м.
Каналы : 2 канала
Расположение каналов : Front: L R
Частота : 48,0 КГц / 24,0 КГц
Метод сжатия : С потерями
Язык : English
Default : Нет
Forced : Нет
Общее
Уникальный идентификатор : 177820270904210772447207192015855326542 (0x85C6F03DF44A641EAC4B9997DD76954E)
Полное имя : D:\КИНО\Коломбо\14. Реквием для падающей звезды (Requiem for a Falling Star) 1973.mkv
Формат : Matroska
Версия формата : Version 2
Размер файла : 856 Мбайт
Продолжительность : 1 ч. 13 м.
Общий поток : 1619 Кбит/сек
Дата кодирования : UTC 2012-04-17 11:26:04
Программа кодирования : mkvmerge v5.2.1 ('A Far Off Place') built on Jan 2 2012 23:21:10
Библиотека кодирования : libebml v1.2.3 + libmatroska v1.3.0
Видео
Идентификатор : 1
Формат : AVC
Формат/Информация : Advanced Video Codec
Профиль формата : [email protected]
Параметр CABAC формата : Да
Параметр ReFrames формата : 3 кадра
Идентификатор кодека : V_MPEG4/ISO/AVC
Продолжительность : 1 ч. 13 м.
Номинальный битрейт : 1299 Кбит/сек
Ширина : 800 пикселей
Высота : 600 пикселей
Соотношение сторон : 4:3
Частота кадров : 23,976 кадра/сек
Цветовое пространство : YUV
Субдискретизация насыщенности : 4:2:0
Битовая глубина : 8 бит
Тип развёртки : Прогрессивная
Бит/(Пиксели*Кадры) : 0.113
Библиотека кодирования : x264 core 120 r2164 da19765
Настройки программы : cabac=1 / ref=3 / deblock=1:-2:-1 / analyse=0x3:0x113 / me=hex / subme=7 / psy=1 / psy_rd=1.00:0.10 / mixed_ref=1 / me_range=16 / chroma_me=1 / trellis=1 / 8x8dct=1 / cqm=0 / deadzone=21,11 / fast_pskip=1 / chroma_qp_offset=-3 / threads=3 / sliced_threads=0 / nr=0 / decimate=1 / interlaced=0 / bluray_compat=0 / constrained_intra=0 / bframes=3 / b_pyramid=0 / b_adapt=1 / b_bias=0 / direct=1 / weightb=1 / open_gop=0 / weightp=2 / keyint=240 / keyint_min=23 / scenecut=40 / intra_refresh=0 / rc_lookahead=40 / rc=2pass / mbtree=1 / bitrate=1299 / ratetol=1.0 / qcomp=0.60 / qpmin=10 / qpmax=51 / qpstep=4 / cplxblur=20.0 / qblur=0.5 / vbv_maxrate=50000 / vbv_bufsize=50000 / nal_hrd=none / ip_ratio=1.40 / aq=1:1.00
Default : Да
Forced : Нет
Аудио #1
Идентификатор : 2
Формат : AC-3
Формат/Информация : Audio Coding 3
Расширение режима : CM (complete main)
Идентификатор кодека : A_AC3
Продолжительность : 1 ч. 13 м.
Вид битрейта : Постоянный
Битрейт : 192 Кбит/сек
Каналы : 2 канала
Расположение каналов : Front: L R
Частота : 48,0 КГц
Битовая глубина : 16 бит
Метод сжатия : С потерями
Размер потока : 101 Мбайт (12%)
Язык : Russian
Default : Да
Forced : Нет
Аудио #2
Идентификатор : 3
Формат : AAC
Формат/Информация : Advanced Audio Codec
Профиль формата : HE-AAC / LC
Идентификатор кодека : A_AAC
Продолжительность : 1 ч. 13 м.
Каналы : 2 канала
Расположение каналов : Front: L R
Частота : 48,0 КГц / 24,0 КГц
Метод сжатия : С потерями
Язык : English
Default : Нет
Forced : Нет
Общее
Уникальный идентификатор : 195082308019768883852668784780741476625 (0x92C37C618DA2D9418DE24D4029F88111)
Полное имя : D:\КИНО\Коломбо\15. Звено в преступлении (A Stitch in Crime) 1973.mkv
Формат : Matroska
Версия формата : Version 2
Размер файла : 856 Мбайт
Продолжительность : 1 ч. 13 м.
Общий поток : 1622 Кбит/сек
Дата кодирования : UTC 2012-04-17 15:40:51
Программа кодирования : mkvmerge v5.2.1 ('A Far Off Place') built on Jan 2 2012 23:21:10
Библиотека кодирования : libebml v1.2.3 + libmatroska v1.3.0
Видео
Идентификатор : 1
Формат : AVC
Формат/Информация : Advanced Video Codec
Профиль формата : [email protected]
Параметр CABAC формата : Да
Параметр ReFrames формата : 3 кадра
Идентификатор кодека : V_MPEG4/ISO/AVC
Продолжительность : 1 ч. 13 м.
Номинальный битрейт : 1300 Кбит/сек
Ширина : 800 пикселей
Высота : 600 пикселей
Соотношение сторон : 4:3
Частота кадров : 23,976 кадра/сек
Цветовое пространство : YUV
Субдискретизация насыщенности : 4:2:0
Битовая глубина : 8 бит
Тип развёртки : Прогрессивная
Бит/(Пиксели*Кадры) : 0.113
Библиотека кодирования : x264 core 120 r2164 da19765
Настройки программы : cabac=1 / ref=3 / deblock=1:-2:-1 / analyse=0x3:0x113 / me=hex / subme=7 / psy=1 / psy_rd=1.00:0.10 / mixed_ref=1 / me_range=16 / chroma_me=1 / trellis=1 / 8x8dct=1 / cqm=0 / deadzone=21,11 / fast_pskip=1 / chroma_qp_offset=-3 / threads=3 / sliced_threads=0 / nr=0 / decimate=1 / interlaced=0 / bluray_compat=0 / constrained_intra=0 / bframes=3 / b_pyramid=0 / b_adapt=1 / b_bias=0 / direct=1 / weightb=1 / open_gop=0 / weightp=2 / keyint=240 / keyint_min=23 / scenecut=40 / intra_refresh=0 / rc_lookahead=40 / rc=2pass / mbtree=1 / bitrate=1300 / ratetol=1.0 / qcomp=0.60 / qpmin=10 / qpmax=51 / qpstep=4 / cplxblur=20.0 / qblur=0.5 / vbv_maxrate=50000 / vbv_bufsize=50000 / nal_hrd=none / ip_ratio=1.40 / aq=1:1.00
Default : Да
Forced : Нет
Аудио #1
Идентификатор : 2
Формат : AC-3
Формат/Информация : Audio Coding 3
Расширение режима : CM (complete main)
Идентификатор кодека : A_AC3
Продолжительность : 1 ч. 13 м.
Вид битрейта : Постоянный
Битрейт : 192 Кбит/сек
Каналы : 2 канала
Расположение каналов : Front: L R
Частота : 48,0 КГц
Битовая глубина : 16 бит
Метод сжатия : С потерями
Размер потока : 101 Мбайт (12%)
Язык : Russian
Default : Да
Forced : Нет
Аудио #2
Идентификатор : 3
Формат : AAC
Формат/Информация : Advanced Audio Codec
Профиль формата : HE-AAC / LC
Идентификатор кодека : A_AAC
Продолжительность : 1 ч. 13 м.
Каналы : 2 канала
Расположение каналов : Front: L R
Частота : 48,0 КГц / 24,0 КГц
Метод сжатия : С потерями
Язык : English
Default : Нет
Forced : Нет
Общее
Уникальный идентификатор : 203081232202516701170028496733326605211 (0x98C805CAB2E56A1AA45632EC1BB8FB9B)
Полное имя : D:\КИНО\Коломбо\16. Самый опасный матч (The Most Dangerous Match) 1973.mkv
Формат : Matroska
Версия формата : Version 2
Размер файла : 856 Мбайт
Продолжительность : 1 ч. 13 м.
Общий поток : 1621 Кбит/сек
Дата кодирования : UTC 2012-04-17 12:11:00
Программа кодирования : mkvmerge v5.2.1 ('A Far Off Place') built on Jan 2 2012 23:21:10
Библиотека кодирования : libebml v1.2.3 + libmatroska v1.3.0
Видео
Идентификатор : 1
Формат : AVC
Формат/Информация : Advanced Video Codec
Профиль формата : [email protected]
Параметр CABAC формата : Да
Параметр ReFrames формата : 3 кадра
Идентификатор кодека : V_MPEG4/ISO/AVC
Продолжительность : 1 ч. 13 м.
Номинальный битрейт : 1299 Кбит/сек
Ширина : 800 пикселей
Высота : 600 пикселей
Соотношение сторон : 4:3
Частота кадров : 23,976 кадра/сек
Цветовое пространство : YUV
Субдискретизация насыщенности : 4:2:0
Битовая глубина : 8 бит
Тип развёртки : Прогрессивная
Бит/(Пиксели*Кадры) : 0.113
Библиотека кодирования : x264 core 120 r2164 da19765
Настройки программы : cabac=1 / ref=3 / deblock=1:-2:-1 / analyse=0x3:0x113 / me=hex / subme=7 / psy=1 / psy_rd=1.00:0.10 / mixed_ref=1 / me_range=16 / chroma_me=1 / trellis=1 / 8x8dct=1 / cqm=0 / deadzone=21,11 / fast_pskip=1 / chroma_qp_offset=-3 / threads=3 / sliced_threads=0 / nr=0 / decimate=1 / interlaced=0 / bluray_compat=0 / constrained_intra=0 / bframes=3 / b_pyramid=0 / b_adapt=1 / b_bias=0 / direct=1 / weightb=1 / open_gop=0 / weightp=2 / keyint=240 / keyint_min=23 / scenecut=40 / intra_refresh=0 / rc_lookahead=40 / rc=2pass / mbtree=1 / bitrate=1299 / ratetol=1.0 / qcomp=0.60 / qpmin=10 / qpmax=51 / qpstep=4 / cplxblur=20.0 / qblur=0.5 / vbv_maxrate=50000 / vbv_bufsize=50000 / nal_hrd=none / ip_ratio=1.40 / aq=1:1.00
Default : Да
Forced : Нет
Аудио #1
Идентификатор : 2
Формат : AC-3
Формат/Информация : Audio Coding 3
Расширение режима : CM (complete main)
Идентификатор кодека : A_AC3
Продолжительность : 1 ч. 13 м.
Вид битрейта : Постоянный
Битрейт : 192 Кбит/сек
Каналы : 2 канала
Расположение каналов : Front: L R
Частота : 48,0 КГц
Битовая глубина : 16 бит
Метод сжатия : С потерями
Размер потока : 101 Мбайт (12%)
Язык : Russian
Default : Да
Forced : Нет
Аудио #2
Идентификатор : 3
Формат : AAC
Формат/Информация : Advanced Audio Codec
Профиль формата : HE-AAC / LC
Идентификатор кодека : A_AAC
Продолжительность : 1 ч. 13 м.
Каналы : 2 канала
Расположение каналов : Front: L R
Частота : 48,0 КГц / 24,0 КГц
Метод сжатия : С потерями
Язык : English
Default : Нет
Forced : Нет
Общее
Уникальный идентификатор : 188701759832219560732887462801639296683 (0x8DF6A3113FA9B0658D3E02216E054EAB)
Полное имя : D:\КИНО\Коломбо\17. Двойной удар (Double Shock) 1973.mkv
Формат : Matroska
Версия формата : Version 2
Размер файла : 856 Мбайт
Продолжительность : 1 ч. 13 м.
Общий поток : 1622 Кбит/сек
Дата кодирования : UTC 2012-04-18 10:47:50
Программа кодирования : mkvmerge v5.2.1 ('A Far Off Place') built on Jan 2 2012 23:21:10
Библиотека кодирования : libebml v1.2.3 + libmatroska v1.3.0
Видео
Идентификатор : 1
Формат : AVC
Формат/Информация : Advanced Video Codec
Профиль формата : [email protected]
Параметр CABAC формата : Да
Параметр ReFrames формата : 3 кадра
Идентификатор кодека : V_MPEG4/ISO/AVC
Продолжительность : 1 ч. 13 м.
Номинальный битрейт : 1300 Кбит/сек
Ширина : 800 пикселей
Высота : 600 пикселей
Соотношение сторон : 4:3
Частота кадров : 23,976 кадра/сек
Цветовое пространство : YUV
Субдискретизация насыщенности : 4:2:0
Битовая глубина : 8 бит
Тип развёртки : Прогрессивная
Бит/(Пиксели*Кадры) : 0.113
Библиотека кодирования : x264 core 120 r2164 da19765
Настройки программы : cabac=1 / ref=3 / deblock=1:-2:-1 / analyse=0x3:0x113 / me=hex / subme=7 / psy=1 / psy_rd=1.00:0.10 / mixed_ref=1 / me_range=16 / chroma_me=1 / trellis=1 / 8x8dct=1 / cqm=0 / deadzone=21,11 / fast_pskip=1 / chroma_qp_offset=-3 / threads=3 / sliced_threads=0 / nr=0 / decimate=1 / interlaced=0 / bluray_compat=0 / constrained_intra=0 / bframes=3 / b_pyramid=0 / b_adapt=1 / b_bias=0 / direct=1 / weightb=1 / open_gop=0 / weightp=2 / keyint=240 / keyint_min=23 / scenecut=40 / intra_refresh=0 / rc_lookahead=40 / rc=2pass / mbtree=1 / bitrate=1300 / ratetol=1.0 / qcomp=0.60 / qpmin=10 / qpmax=51 / qpstep=4 / cplxblur=20.0 / qblur=0.5 / vbv_maxrate=50000 / vbv_bufsize=50000 / nal_hrd=none / ip_ratio=1.40 / aq=1:1.00
Default : Да
Forced : Нет
Аудио #1
Идентификатор : 2
Формат : AC-3
Формат/Информация : Audio Coding 3
Расширение режима : CM (complete main)
Идентификатор кодека : A_AC3
Продолжительность : 1 ч. 13 м.
Вид битрейта : Постоянный
Битрейт : 192 Кбит/сек
Каналы : 2 канала
Расположение каналов : Front: L R
Частота : 48,0 КГц
Битовая глубина : 16 бит
Метод сжатия : С потерями
Размер потока : 101 Мбайт (12%)
Язык : Russian
Default : Да
Forced : Нет
Аудио #2
Идентификатор : 3
Формат : AAC
Формат/Информация : Advanced Audio Codec
Профиль формата : HE-AAC / LC
Идентификатор кодека : A_AAC
Продолжительность : 1 ч. 13 м.
Каналы : 2 канала
Расположение каналов : Front: L R
Частота : 48,0 КГц / 24,0 КГц
Метод сжатия : С потерями
Язык : English
Default : Нет
Forced : Нет
Общее
Уникальный идентификатор : 204215797881056674775126313604050000129 (0x99A28832D481C056987A6C667CAF1901)
Полное имя : D:\КИНО\Коломбо\18. Жертва красоты (Lovely But Lethal) 1973.mkv
Формат : Matroska
Версия формата : Version 2
Размер файла : 857 Мбайт
Продолжительность : 1 ч. 13 м.
Общий поток : 1621 Кбит/сек
Дата кодирования : UTC 2012-04-18 10:49:12
Программа кодирования : mkvmerge v5.2.1 ('A Far Off Place') built on Jan 2 2012 23:21:10
Библиотека кодирования : libebml v1.2.3 + libmatroska v1.3.0
Видео
Идентификатор : 1
Формат : AVC
Формат/Информация : Advanced Video Codec
Профиль формата : [email protected]
Параметр CABAC формата : Да
Параметр ReFrames формата : 3 кадра
Идентификатор кодека : V_MPEG4/ISO/AVC
Продолжительность : 1 ч. 13 м.
Номинальный битрейт : 1299 Кбит/сек
Ширина : 800 пикселей
Высота : 600 пикселей
Соотношение сторон : 4:3
Частота кадров : 23,976 кадра/сек
Цветовое пространство : YUV
Субдискретизация насыщенности : 4:2:0
Битовая глубина : 8 бит
Тип развёртки : Прогрессивная
Бит/(Пиксели*Кадры) : 0.113
Библиотека кодирования : x264 core 120 r2164 da19765
Настройки программы : cabac=1 / ref=3 / deblock=1:-2:-1 / analyse=0x3:0x113 / me=hex / subme=7 / psy=1 / psy_rd=1.00:0.10 / mixed_ref=1 / me_range=16 / chroma_me=1 / trellis=1 / 8x8dct=1 / cqm=0 / deadzone=21,11 / fast_pskip=1 / chroma_qp_offset=-3 / threads=3 / sliced_threads=0 / nr=0 / decimate=1 / interlaced=0 / bluray_compat=0 / constrained_intra=0 / bframes=3 / b_pyramid=0 / b_adapt=1 / b_bias=0 / direct=1 / weightb=1 / open_gop=0 / weightp=2 / keyint=240 / keyint_min=23 / scenecut=40 / intra_refresh=0 / rc_lookahead=40 / rc=2pass / mbtree=1 / bitrate=1299 / ratetol=1.0 / qcomp=0.60 / qpmin=10 / qpmax=51 / qpstep=4 / cplxblur=20.0 / qblur=0.5 / vbv_maxrate=50000 / vbv_bufsize=50000 / nal_hrd=none / ip_ratio=1.40 / aq=1:1.00
Default : Да
Forced : Нет
Аудио #1
Идентификатор : 2
Формат : AC-3
Формат/Информация : Audio Coding 3
Расширение режима : CM (complete main)
Идентификатор кодека : A_AC3
Продолжительность : 1 ч. 13 м.
Вид битрейта : Постоянный
Битрейт : 192 Кбит/сек
Каналы : 2 канала
Расположение каналов : Front: L R
Частота : 48,0 КГц
Битовая глубина : 16 бит
Метод сжатия : С потерями
Размер потока : 101 Мбайт (12%)
Язык : Russian
Default : Да
Forced : Нет
Аудио #2
Идентификатор : 3
Формат : AAC
Формат/Информация : Advanced Audio Codec
Профиль формата : HE-AAC / LC
Идентификатор кодека : A_AAC
Продолжительность : 1 ч. 13 м.
Каналы : 2 канала
Расположение каналов : Front: L R
Частота : 48,0 КГц / 24,0 КГц
Метод сжатия : С потерями
Язык : English
Default : Нет
Forced : Нет
СкриншотыСсылка на оригинальную раздачу (ОСТОРОЖНО - ВНЕШНИЙ ТРАФИК!!!)


Последний раз редактировалось: tallking (2014-07-11 01:33), всего редактировалось 2 раз(а)

Создавать темы 11-Июл-2014 00:58

[Профиль]  [ЛС] 

Страх

Стаж: 3 года 11 месяцев

Сообщений: 1131

Симпатии: 448

исправьте постер, залейте в нашу галлерею http://img.tas-ix.net/
так же и со скриншотами.

Создавать темы 11-Июл-2014 01:00

[Профиль]  [ЛС] 

tallking ®

Стаж: 6 лет 4 месяца

Сообщений: 44

Симпатии: 15

Раздаю с полуночи до восьми часов утра.

Создавать темы 11-Июл-2014 01:04

[Профиль]  [ЛС] 

Polios

Стаж: 5 лет

Сообщений: 3

853606Раздаю с полуночи до восьми часов утра.
Не жмоться со скоростью, уж очень охото посмотреть

Создавать темы 15-Авг-2014 23:41

[Профиль]  [ЛС] 

sprut66

Стаж: 4 года 7 месяцев

Сообщений: 51

Симпатии: 5

Помоему что-то скачать тут нереально, размер огромный а сидов или нету или один..
Подскажите пожалуйста если есть где в тасике посмотреть онлайн?
Заранее спасибо.

Создавать темы 19-Ноя-2014 16:00

[Профиль]  [ЛС] 

Mr_JIN

Стаж: 5 лет 4 месяца

Сообщений: 9

tallking,
Скорость прибавь пожалуйста

Создавать темы 10-Дек-2014 13:25

[Профиль]  [ЛС] 

фазилов

Стаж: 3 года 7 месяцев

Сообщений: 310

Симпатии: 344

Спасибо за релиз!!! cb

Создавать темы 16-Дек-2014 17:20

[Профиль]  [ЛС] 

tallking ®

Стаж: 6 лет 4 месяца

Сообщений: 44

Симпатии: 15

900949tallking,
Скорость прибавь пожалуйста
Скорость не режу никак. Качайте.

Создавать темы 18-Дек-2014 13:22

[Профиль]  [ЛС] 

abuz85

Стаж: 8 лет 8 месяцев

Сообщений: 109

Симпатии: 80

Проверьте ЛС, господа скачивающие, если хотите быстрее скачать друг у друга. Я уже раздал 35 ГБ и раздам еще 55 ГБ, а потом уйду с раздачи, даже если никто не скачает раздачу полностью.

Создавать темы 03-Янв-2015 00:06

[Профиль]  [ЛС] 

Mr_JIN

Стаж: 5 лет 4 месяца

Сообщений: 9

907616Проверьте ЛС, господа скачивающие, если хотите быстрее скачать друг у друга. Я уже раздал 35 ГБ и раздам еще 55 ГБ, а потом уйду с раздачи, даже если никто не скачает раздачу полностью.
Вы типа автор или проста сидер?нет я проста думаю может у вас 2 ника или как там логин и.т.п?

Создавать темы 06-Янв-2015 18:35

[Профиль]  [ЛС] 

фазилов

Стаж: 3 года 7 месяцев

Сообщений: 310

Симпатии: 344

907616Проверьте ЛС, господа скачивающие, если хотите быстрее скачать друг у друга. Я уже раздал 35 ГБ и раздам еще 55 ГБ, а потом уйду с раздачи, даже если никто не скачает раздачу полностью.
Жесть!

Создавать темы 12-Фев-2015 14:06

[Профиль]  [ЛС] 

фазилов

Стаж: 3 года 7 месяцев

Сообщений: 310

Симпатии: 344

Имейте совесть. 2 месяца раздаю всем, а сам тормознул на 90%. 2 суток нет раздачи от релизёра. Снимите с паузы в конце концов.Со своей стороны гарантирую остаться нв раздаче-фильм уйдёт в коллекцию на год. Потом в AVI - для уменьшения ёмкости без потери качества.Если релиз заглохнет- выложу в новом формате без англо с тем же качеством. TALKING- НЕ останавливайся на полдороге-ведь это классика.
А качество на 5-не ожидал. Даже 1 серия 1968 года на высоте.

Создавать темы 23-Фев-2015 14:48

[Профиль]  [ЛС] 

tallking ®

Стаж: 6 лет 4 месяца

Сообщений: 44

Симпатии: 15

Да я каждый вечер, с 00 до 09 на раздаче. Качайте на здоровье.

Создавать темы 01-Мар-2015 01:55

[Профиль]  [ЛС] 

фазилов

Стаж: 3 года 7 месяцев

Сообщений: 310

Симпатии: 344

Хочу отдельно поблагодарить релизёра TALKING за любезное предоставление данного фильма. Количество пиров увеличивается. не всем в конце концов нравяться стрелялки,убийства и насилие с первых кадров фильмов. Фильм закачан с 2.01.15 года, т.е. за 2 месяца. Как и обещал-остаюсь на раздаче пока. Потом переведу в H264 для уменьшения ненужной инфо_англ_. Мне никто не позволит поглотить фильм ,поэтому пока в архив-качайте на здоровье. С уважением -пользователь.

Создавать темы 06-Мар-2015 15:17

[Профиль]  [ЛС] 

Mapasa

Стаж: 2 года 6 месяцев

Сообщений: 13

Silkway пожалуйста дайте скорости

Создавать темы 24-Мар-2016 20:44

[Профиль]  [ЛС] 
Показать сообщения:    
Ответить на тему

Текущее время: 24-Сен 04:28

Часовой пояс: UTC + 5



Вы не можете начинать темы
Вы не можете отвечать на сообщения
Вы не можете редактировать свои сообщения
Вы не можете удалять свои сообщения
Вы не можете голосовать в опросах
Вы не можете прикреплять файлы к сообщениям
Вы не можете скачивать файлы