Покровские ворота (Михаил Козаков) [1982 г., Комедия, DVDRip]

Ответить на тему
 

DimedroL ®

Стаж: 4 года

Сообщений: 43

Симпатии: 4

Покровские ворота
Год выпуска: 1982
Жанр: Комедия
Продолжительность: 02:04:00
Режиссер: Михаил Козаков-В ролях: Олег Меньшиков, Леонид Броневой, Инна Ульянова, Софья Пилявская, Анатолий Равикович, Виктор Борцов, Елена Коренева, Татьяна Догилева, Елизавета Никищихина, Игорь Дмитриев--Описание: Если вы развелись, и ваша бывшая жена снова вышла замуж — это еще не значит, что вы свободны. Если вы пригласили девушку на свидание, и она пришла, это еще не значит, что она будет вашей. Но если при этом ваш сосед по коммуналке — аспирант Костик, то можете быть уверены — все будет хорошо.-Качество: DVDRip
Формат: AVI
Видео кодек: DivX
Аудио кодек: AC3
Видео: 720x544 25fps 2 671 Kbps
Аудио: 48000Hz 6ch 448kbps
- -

MI

General
Format : AVI
Format/Info : Audio Video Interleave
File size : 1.37 GiB
Duration : 1h 2mn
Overall bit rate : 3 126 Kbps
Writing application : VirtualDubMod 1.5.4.1 (build 2178/release)
Writing library : VirtualDubMod build 2178/release
Video
ID : 0
Format : MPEG-4 Visual
Format settings, BVOP : Yes
Format settings, QPel : No
Format settings, GMC : No warppoints
Format settings, Matrix : Default (H.263)
Codec ID : DX50
Codec ID/Hint : DivX 5
Duration : 1h 2mn
Bit rate : 2 671 Kbps
Width : 720 pixels
Height : 544 pixels
Display aspect ratio : 4:3
Frame rate : 25.000 fps
Color space : YUV
Chroma subsampling : 4:2:0
Bit depth : 8 bits
Scan type : Progressive
Compression mode : Lossy
Bits/(Pixel*Frame) : 0.273
Stream size : 1.17 GiB (85%)
Writing library : DivX 6.2.5 (UTC 2006-07)
Audio
ID : 1
Format : AC-3
Format/Info : Audio Coding 3
Mode extension : CM (complete main)
Format settings, Endianness : Big
Codec ID : 2000
Duration : 1h 2mn
Bit rate mode : Constant
Bit rate : 448 Kbps
Channel(s) : 6 channels
Channel positions : Front: L C R, Side: L R, LFE
Sampling rate : 48.0 KHz
Bit depth : 16 bits
Compression mode : Lossy
Delay relative to video : 294ms
Stream size : 201 MiB (14%)
Alignment : Split accross interleaves
Interleave, duration : 96 ms (2.40 video frames)
Interleave, preload duration : 96 ms

Скриншоты









Последний раз редактировалось: DimedroL (2014-07-18 14:47), всего редактировалось 1 раз

Создавать темы 14-Июл-2014 11:36

[Профиль]  [ЛС] 

DimedroL ®

Стаж: 4 года

Сообщений: 43

Симпатии: 4

854399даешь раздачу!!!
Даешь проверку ta

Создавать темы 15-Июл-2014 18:52

[Профиль]  [ЛС] 

mp1988

Стаж: 6 лет 10 месяцев

Сообщений: 607

Симпатии: 971

DimedroL, длительность фильма в формате чч:мм:сс напишите

Создавать темы 15-Июл-2014 20:57

[Профиль]  [ЛС] 
Показать сообщения:    
Ответить на тему

Текущее время: 16-Дек 06:39

Часовой пояс: UTC + 5



Вы не можете начинать темы
Вы не можете отвечать на сообщения
Вы не можете редактировать свои сообщения
Вы не можете удалять свои сообщения
Вы не можете голосовать в опросах
Вы не можете прикреплять файлы к сообщениям
Вы не можете скачивать файлы