Сейлор Мун Кристалл / Красавица-воин Сейлор Мун (2014) / Bishoujo Senshi Sailor Moon Crystal [ONA] [1-7 из 26] [Без хардсаба] [RUS(int)] [2014 г., приключения, махо-сёдзё, WEBRip] [720p]

Страницы :  1, 2  След.

Ответить на тему
 

Азиз87 ®

Стаж: 5 лет

Сообщений: 752

Симпатии: 143

Сейлор Мун Кристалл- Год выпуска: 2014
Страна: Япония
Жанр: приключения, махо-сёдзё
Продолжительность: 26 эп, ~25 мин. серия
Выпуск: c 05.07.2014-Озвучка:
  • многоголосая от студии KANSAI
-Режиссёр: Сакай Мунэхиса
Автор оригинала: Такэути Наоко
Студия: Toei Animation-Описание:
Легенда возвращается!
Обычная восьмиклассница, Усаги Цукино, ленивая, неуклюжая плакса, в одночасье стаёт на путь защитницы любви и справедливости. Теперь она - прекрасная воительница - Сейлор Мун! Сможет ли простая японская девочка найти верных союзников, дать отпор наступающему злу и встретиться со своей извечной любовью?.. Все вы прекрасно знаете ответ!-Информационные ссылки: AniDB || World Art || MAL-Качество: WEBRip
Формат видео: MP4 [HorribleSubs]
Видео: x264 (8 bits), 1280х720 (16:9), ~1 800 kbps, 29.970 fps
Аудио Russian: ААС, 48.0 kHz, ~128 Kbps, 2ch - в составе контейнера
-

Подробные тех. данные

General
Complete name                            : [KANSAI] Sailor Moon Crystal - 01 1280x720.mp4
Format                                   : MPEG-4
Format profile                           : Base Media
Codec ID                                 : isom
File size                                : 329 MiB
Duration                                 : 24mn 10s
Overall bit rate mode                    : Variable
Overall bit rate                         : 1 902 Kbps
Encoded date                             : UTC 2014-07-06 19:15:53
Tagged date                              : UTC 2014-07-06 19:15:53
Writing application                      : Yamb 2.1.0.0 [http://yamb.unite-video.com]
Video
ID                                       : 1
Format                                   : AVC
Format/Info                              : Advanced Video Codec
Format profile                           : [email protected]
Format settings, CABAC                   : Yes
Format settings, ReFrames                : 6 frames
Codec ID                                 : avc1
Codec ID/Info                            : Advanced Video Coding
Duration                                 : 24mn 10s
Bit rate                                 : 1 776 Kbps
Maximum bit rate                         : 7 557 Kbps
Width                                    : 1 280 pixels
Height                                   : 720 pixels
Display aspect ratio                     : 16:9
Frame rate mode                          : Constant
Frame rate                               : 29.970 fps
Color space                              : YUV
Chroma subsampling                       : 4:2:0
Bit depth                                : 8 bits
Scan type                                : Progressive
Bits/(Pixel*Frame)                       : 0.064
Stream size                              : 306 MiB (93%)
Writing library                          : x264 core 120 r2120 0c7dab9
Encoding settings                        : cabac=1 / ref=6 / deblock=1:1:1 / analyse=0x3:0x113 / me=umh / subme=8 / psy=1 / psy_rd=0.40:0.00 / mixed_ref=1 / me_range=16 / chroma_me=1 / trellis=1 / 8x8dct=1 / cqm=0 / deadzone=21,11 / fast_pskip=1 / chroma_qp_offset=-2 / threads=4 / sliced_threads=0 / nr=0 / decimate=1 / interlaced=0 / bluray_compat=0 / constrained_intra=0 / bframes=3 / b_pyramid=2 / b_adapt=2 / b_bias=0 / direct=3 / weightb=1 / open_gop=0 / weightp=2 / keyint=250 / keyint_min=25 / scenecut=40 / intra_refresh=0 / rc_lookahead=50 / rc=2pass / mbtree=1 / bitrate=1776 / ratetol=1.0 / qcomp=0.60 / qpmin=0 / qpmax=69 / qpstep=4 / cplxblur=20.0 / qblur=0.5 / vbv_maxrate=3552 / vbv_bufsize=8880 / nal_hrd=none / ip_ratio=1.40 / aq=1:0.60
Encoded date                             : UTC 2014-07-06 19:15:53
Tagged date                              : UTC 2014-07-06 19:16:35
Audio
ID                                       : 2
Format                                   : AAC
Format/Info                              : Advanced Audio Codec
Format profile                           : LC
Codec ID                                 : 40
Duration                                 : 24mn 10s
Bit rate mode                            : Variable
Bit rate                                 : 128 Kbps
Maximum bit rate                         : 134 Kbps
Channel count                            : 2 channels
Channel positions                        : Front: L R
Sampling rate                            : 48.0 KHz
Compression mode                         : Lossy
Stream size                              : 22.1 MiB (7%)
Title                                    : Kansai
Encoded date                             : UTC 2014-07-06 19:16:33
Tagged date                              : UTC 2014-07-06 19:16:35

Скриншоты



Последний раз редактировалось: Азиз87 (2014-10-08 06:24), всего редактировалось 9 раз(а)

Создавать темы 14-Июл-2014 21:27

[Профиль]  [ЛС] 

Азиз87 ®

Стаж: 5 лет

Сообщений: 752

Симпатии: 143

При просмотре сразу бросилась в глаза перерисовка и насыщенность красок. Думаю сюжет от этого не пострадает. Как хорошо вспомнить одно из самых первых просмотренных анимаций мною.

Создавать темы 14-Июл-2014 21:31

[Профиль]  [ЛС] 

infinity2go

Стаж: 5 лет 10 месяцев

Сообщений: 25

Лунная клизма, дай мне силы!!!
эххх анимешке дофига лет, но актуальность не потеряла
а есть возможность выложить всё касательно Воина в матроске с самого начала?

Создавать темы 15-Июл-2014 08:56

[Профиль]  [ЛС] 

Азиз87 ®

Стаж: 5 лет

Сообщений: 752

Симпатии: 143

854203
...а есть возможность выложить всё касательно Воина в матроске с самого начала?
Год выпуска: 2014
Страна: Япония
Жанр: приключения, махо-сёдзё
Продолжительность: 26 эп, ~25 мин. серия
Выпуск: c 05.07.2014
Внимательней читайте!

Создавать темы 15-Июл-2014 10:41

[Профиль]  [ЛС] 

SvetiKKK2013

Стаж: 4 года 5 месяцев

Сообщений: 23

загрузи пожалуйста 2 серию))

Создавать темы 21-Июл-2014 00:07

[Профиль]  [ЛС] 

Азиз87 ®

Стаж: 5 лет

Сообщений: 752

Симпатии: 143

856631загрузи пожалуйста 2 серию))
В лучшем варианте ЛС выручает т.к.
20-Июл-14 23:39
стоит на скачке ближе к обеду с САО 2 обновлю.

Создавать темы 21-Июл-2014 02:16

[Профиль]  [ЛС] 

Азиз87 ®

Стаж: 5 лет

Сообщений: 752

Симпатии: 143

Добавлена 2 серия. Приятного просмотра.

Создавать темы 21-Июл-2014 08:21

[Профиль]  [ЛС] 

Schizos

Стаж: 3 года 10 месяцев

Сообщений: 80

Симпатии: 16

омг это до сих пор снимают? о_ООООООО

Создавать темы 21-Июл-2014 12:10

[Профиль]  [ЛС] 

SvetiKKK2013

Стаж: 4 года 5 месяцев

Сообщений: 23

ураааа!!!! спасибки)))

Создавать темы 21-Июл-2014 18:57

[Профиль]  [ЛС] 

Азиз87 ®

Стаж: 5 лет

Сообщений: 752

Симпатии: 143

Добавлена 3 серия. Приятного просмотра.

Создавать темы 04-Авг-2014 08:10

[Профиль]  [ЛС] 

dante_one

Стаж: 4 года

Сообщений: 16

хахахах красавчик agклассная блиин bp мая первая анимеха)))Бугагага bi

Создавать темы 04-Авг-2014 08:27

[Профиль]  [ЛС] 

SvetiKKK2013

Стаж: 4 года 5 месяцев

Сообщений: 23

спасибо большое))) =)

Создавать темы 04-Авг-2014 23:15

[Профиль]  [ЛС] 

Азиз87 ®

Стаж: 5 лет

Сообщений: 752

Симпатии: 143

Добавлена 4 серия. Приятного просмотра.

Создавать темы 18-Авг-2014 12:11

[Профиль]  [ЛС] 

gulbadan

Стаж: 7 лет

Сообщений: 35

Симпатии: 4

Поддай газку дружище! Спасибо за сериал, моя подруга будет без ума от такой находки!

Создавать темы 26-Авг-2014 23:30

[Профиль]  [ЛС] 

Азиз87 ®

Стаж: 5 лет

Сообщений: 752

Симпатии: 143

Заменены серии на пофиксенные со звуком от Кансайцев (1-3). Перекачайте файлы.

Создавать темы 27-Авг-2014 11:15

[Профиль]  [ЛС] 
Показать сообщения:    
Ответить на тему

Текущее время: 22-Ноя 14:27

Часовой пояс: UTC + 5



Вы не можете начинать темы
Вы не можете отвечать на сообщения
Вы не можете редактировать свои сообщения
Вы не можете удалять свои сообщения
Вы не можете голосовать в опросах
Вы не можете прикреплять файлы к сообщениям
Вы не можете скачивать файлы