Учимся сводить как KeaM

Ответить на тему
 

S()me()ne ®

Стаж: 3 года 9 месяцев

Сообщений: 26

Симпатии: 3

Название: Учимся сводить как KeaM
Тип раздаваемого: Видео файл
Производитель: soundbygalkinpro
Язык раздачи : Русский
Продолжительность:Часть 1-01:04:10 Часть 2-00:13:24
Описание: Урок по сведению в Cubase 5. Повторяем сведение трека, который свёл KeaM.
Формат: MPEG-4
Видео:1 278 *720 pixels; 16:9; 790 Kbps
Аудио: AAC; 44.1 KHz; 2 channels.

Media Info-Часть 1

Format : MPEG-4
Format profile : Base Media / Version 2
Codec ID : mp42
File size : 456 MiB
Duration : 1h 4mn
Overall bit rate mode : Variable
Overall bit rate : 993 Kbps
Encoded date : UTC 2014-01-10 10:30:36
Tagged date : UTC 2014-01-10 10:30:36
gsst : 0
gstd : 3850981
gssd : B251D010AHH1404936283235212
gshh : r7---sn-hxb54vo-304l.googlevideo.com
Video
ID : 1
Format : AVC
Format/Info : Advanced Video Codec
Format profile : [email protected]
Format settings, CABAC : Yes
Format settings, ReFrames : 1 frame
Codec ID : avc1
Codec ID/Info : Advanced Video Coding
Duration : 1h 4mn
Bit rate : 799 Kbps
Maximum bit rate : 4 885 Kbps
Width : 1 278 pixels
Height : 720 pixels
Display aspect ratio : 16:9
Frame rate mode : Constant
Frame rate : 15.000 fps
Color space : YUV
Chroma subsampling : 4:2:0
Bit depth : 8 bits
Scan type : Progressive
Bits/(Pixel*Frame) : 0.058
Stream size : 367 MiB (80%)
Tagged date : UTC 2014-01-10 10:32:04
Audio
ID : 2
Format : AAC
Format/Info : Advanced Audio Codec
Format profile : LC
Codec ID : 40
Duration : 1h 4mn
Bit rate mode : Variable
Bit rate : 192 Kbps
Maximum bit rate : 202 Kbps
Channel(s) : 2 channels
Channel positions : Front: L R
Sampling rate : 44.1 KHz
Compression mode : Lossy
Stream size : 88.1 MiB (19%)
Title : IsoMedia File Produced by Google, 5-11-2011
Encoded date : UTC 2014-01-10 10:31:15
Tagged date : UTC 2014-01-10 10:32:04

Media Info-Часть 2

Format : MPEG-4
Format profile : Base Media / Version 2
Codec ID : mp42
File size : 94.3 MiB
Duration : 13mn 24s
Overall bit rate mode : Variable
Overall bit rate : 984 Kbps
Encoded date : UTC 2014-02-08 04:53:58
Tagged date : UTC 2014-02-08 04:53:58
gsst : 0
gstd : 804315
gssd : B251D0104MH1404930646685915
gshh : r1---sn-hxb54vo-304l.googlevideo.com
Video
ID : 1
Format : AVC
Format/Info : Advanced Video Codec
Format profile : [email protected]
Format settings, CABAC : Yes
Format settings, ReFrames : 1 frame
Codec ID : avc1
Codec ID/Info : Advanced Video Coding
Duration : 13mn 24s
Bit rate : 790 Kbps
Maximum bit rate : 3 683 Kbps
Width : 1 278 pixels
Height : 720 pixels
Display aspect ratio : 16:9
Frame rate mode : Constant
Frame rate : 15.000 fps
Color space : YUV
Chroma subsampling : 4:2:0
Bit depth : 8 bits
Scan type : Progressive
Bits/(Pixel*Frame) : 0.057
Stream size : 75.7 MiB (80%)
Tagged date : UTC 2014-02-08 04:54:11
Audio
ID : 2
Format : AAC
Format/Info : Advanced Audio Codec
Format profile : LC
Codec ID : 40
Duration : 13mn 24s
Bit rate mode : Variable
Bit rate : 192 Kbps
Maximum bit rate : 201 Kbps
Channel(s) : 2 channels
Channel positions : Front: L R
Sampling rate : 44.1 KHz
Compression mode : Lossy
Stream size : 18.4 MiB (20%)
Title : IsoMedia File Produced by Google, 5-11-2011
Encoded date : UTC 2014-02-08 04:54:03
Tagged date : UTC 2014-02-08 04:54:11

Скриншоты




Создавать темы 15-Июл-2014 00:05

[Профиль]  [ЛС] 

Saidmalik

Стаж: 4 года 4 месяца

Сообщений: 78

Встаньте на раздачу

Информация от nadezcda


3.9. Размещать бессмысленные сообщения, не несущие абсолютно никакой полезной информации, типа "дайте скорости", "встаньте на раздачу", "раздаю", "газу" и т.п.

Создавать темы 12-Фев-2015 14:24

[Профиль]  [ЛС] 
Показать сообщения:    
Ответить на тему

Текущее время: 20-Ноя 22:13

Часовой пояс: UTC + 5



Вы не можете начинать темы
Вы не можете отвечать на сообщения
Вы не можете редактировать свои сообщения
Вы не можете удалять свои сообщения
Вы не можете голосовать в опросах
Вы не можете прикреплять файлы к сообщениям
Вы не можете скачивать файлы