Доминион / Dominion / Сезон 1 полный / Серии 1-8 из 8 [2014 г., боевик, ужасы, фантастика, фэнтези, драма, (Скотт Чарльз Стюарт /Scott Charles Stewart), Web-DLRip] [LostFilm]

Ответить на тему
 

Zab ®

Стаж: 6 лет 7 месяцев

Сообщений: 476

Симпатии: 424

Доминион / Dominion
-Год выпуска: 2014
Страна: США
Жанр: боевик, ужасы, фантастика, фэнтези, драма
Продолжительность: 66 мин. / 01:06:00
Перевод: Профессиональный (многоголосый, закадровый) [LostFilm]
-
Режиссер: Скотт Чарльз Стюарт /Scott Charles Stewart
В ролях: Карл Бьюкс, Алан Дэйл, Кристофер Иган, Крис Фишер, Шивани Гаи, Розалинд Халстэд, Энтони Хэд, Антон Дэвид Джефта, Лэнгли Кирквуд, Роксанна МакКи
-
Описание: Новый сериал Доминион основан на персонажах фильма Легион. Сюжет развернется спустя много лет после действий фильма. В 25 году после нашей эры армия ангелов, возглавляемая архангелом Гавриилом ведет кровопролитную войну против всего человечества. Один лишь архангел Михаил решает принять сторону людей и выступить против себе подобных. После долгих 25 лет сражений, укрепившиеся города защищают оставшихся в живых и держат последнюю линию обороны. Самый большой среди уцелевших городов — Вега (бывший Лас Вегас). Казалось бы, в этой войне люди должны быть сплочены перед лицом врага. Но в Веге ведется постоянное противостояние двух сторон за контроль над городом и готовится государственный переворот. В это же время молодой человек, непокорный солдат, отправляется в путешествие, в ходе которого он делает потрясающее открытие о том, что он, по всей видимости – спаситель человечества.-Качество: WEB-DLRip
Формат: AVI
Видео кодек: XviD
Видео: 720x400 (16:9), 23.98fps ~1400kbps, ~0.200 bit/pixel
Аудио: AC3, 48kHz 2ch, stereo ~190kbps
-

График выхода новых серий

19.06.2014 01 Pilot
26.06.2014 02 Godspeed
03.07.2014 03 Broken Places
10.07.2014 04 The Flood
17.07.2014 05 Something Borrowed
24.07.2014 06 Black Eyes Blue
31.07.2014 07 Ouroboros
07.08.2014 08 Beware Those Closest to You

MI


D:\[Movies]\Dominion (LostFilm)\Dominion.S01E01.rus.LostFilm.TV.avi
General
Complete name : D:\[Movies]\Dominion (LostFilm)\Dominion.S01E01.rus.LostFilm.TV.avi
Format : AVI
Format/Info : Audio Video Interleave
File size : 724 MiB
Duration : 1h 6mn
Overall bit rate mode : Variable
Overall bit rate : 1 528 Kbps
Writing application : Nandub v1.0rc2
Writing library : Nandub build 1853/release
Video #0
ID : 0
Format : MPEG-4 Visual
Format profile : [email protected]
Format settings, BVOP : No
Format settings, QPel : No
Format settings, GMC : No warppoints
Format settings, Matrix : Default (H.263)
Codec ID : XVID
Codec ID/Hint : XviD
Duration : 1h 6mn
Bit rate : 1 328 Kbps
Width : 720 pixels
Height : 400 pixels
Display aspect ratio : 16:9
Frame rate : 23.976 fps
Color space : YUV
Chroma subsampling : 4:2:0
Bit depth : 8 bits
Scan type : Progressive
Compression mode : Lossy
Bits/(Pixel*Frame) : 0.192
Stream size : 629 MiB (87%)
Writing library : XviD 1.2.1 (UTC 2008-12-04)
Audio #1
ID : 1
Format : MPEG Audio
Format version : Version 1
Format profile : Layer 3
Mode : Joint stereo
Mode extension : MS Stereo
Codec ID : 55
Codec ID/Hint : MP3
Duration : 1h 6mn
Bit rate mode : Variable
Bit rate : 192 Kbps
Channel(s) : 2 channels
Sampling rate : 48.0 KHz
Compression mode : Lossy
Stream size : 89.0 MiB (12%)
Alignment : Aligned on interleaves
Interleave, duration : 24 ms (0.58 video frame)
Interleave, preload duration : 486 ms
Writing library : LAME3.97b
Encoding settings : -m j -V 4 -q 3 -lowpass 18.6 --abr 192

Скриншоты






Последний раз редактировалось: Zab (2015-03-05 16:10), всего редактировалось 6 раз(а)

Создавать темы 15-Июл-2014 11:10

[Профиль]  [ЛС] 

Zab ®

Стаж: 6 лет 7 месяцев

Сообщений: 476

Симпатии: 424

4 - Серия.

Создавать темы 15-Июл-2014 11:14

[Профиль]  [ЛС] 

emilsky

Стаж: 7 лет 5 месяцев

Сообщений: 2237

Симпатии: 610

5 - Серия.

Создавать темы 20-Июл-2014 09:31

[Профиль]  [ЛС] 

Zab ®

Стаж: 6 лет 7 месяцев

Сообщений: 476

Симпатии: 424

Влился!

Создавать темы 20-Июл-2014 13:21

[Профиль]  [ЛС] 

Zab ®

Стаж: 6 лет 7 месяцев

Сообщений: 476

Симпатии: 424

aa

Создавать темы 20-Июл-2014 13:24

[Профиль]  [ЛС] 

emilsky

Стаж: 7 лет 5 месяцев

Сообщений: 2237

Симпатии: 610

6 - Серия.

Создавать темы 27-Июл-2014 03:22

[Профиль]  [ЛС] 

emilsky

Стаж: 7 лет 5 месяцев

Сообщений: 2237

Симпатии: 610

7 - Серия.

Создавать темы 03-Авг-2014 17:11

[Профиль]  [ЛС] 

Mercuriy

Стаж: 6 лет 1 месяц

Сообщений: 418

Симпатии: 100

emilsky, Есть какая информация или источник о том "что раньше планировалась 7 а теперь 13 серий" интересно просто стало как судьба складывается.
Сравнил Нью и Лост, последний больше понравился голоса лучьше подобраны и интонация живее идет по ходу сюжета ну так зацепил что специально слил 1080р Легион (фильм) и сериал в томже формате)

Создавать темы 04-Авг-2014 01:12

[Профиль]  [ЛС] 

Zab ®

Стаж: 6 лет 7 месяцев

Сообщений: 476

Симпатии: 424

8 - Серия.
Финал Сезона!

Создавать темы 11-Авг-2014 07:37

[Профиль]  [ЛС] 

otash_81

Стаж: 5 лет 9 месяцев

Сообщений: 53

Симпатии: 2

второй сезон когда будет

Создавать темы 12-Сен-2014 06:59

[Профиль]  [ЛС] 

Zab ®

Стаж: 6 лет 7 месяцев

Сообщений: 476

Симпатии: 424

otash_81, (ориентировочная) Дата выхода 2 - сезона Доминиона лето 2015 года..

Создавать темы 13-Сен-2014 14:41

[Профиль]  [ЛС] 
Показать сообщения:    
Ответить на тему

Текущее время: 18-Дек 12:02

Часовой пояс: UTC + 5



Вы не можете начинать темы
Вы не можете отвечать на сообщения
Вы не можете редактировать свои сообщения
Вы не можете удалять свои сообщения
Вы не можете голосовать в опросах
Вы не можете прикреплять файлы к сообщениям
Вы не можете скачивать файлы