Домой дороги нет / No Way Home (Бадди Джовинаццо) [1996 г., драма, криминал, ..., DVDRip]

Ответить на тему
 

igor1968 ®

Стаж: 5 лет 8 месяцев

Сообщений: 366

Симпатии: 197

Домой дороги нет / No Way Home«Nowhere to go. No one to trust» Год выпуска: 1996
Страна:
Жанр: драма, криминал, ...
Продолжительность: 01:37:00.000
Перевод: Любительский (одноголосый)
Режиссер: Бадди Джовинаццо
В ролях: Тим Рот, Джеймс Руссо, Дебора Кара Ангер, Джозеф Раньо, Кэтрин Келлнер, Сол Стайн, Бернадетт Пенотти, Гарет Уильямс, Джерри Дин, Ларри Романо...- Герой фильма возвращается из тюрьмы, отсидев срок по вине старшего брата. Жена брата настроена на честную жизнь — в бывшем уголовнике ей видится угроза. Но он действительно не хочет возвращаться к прошлому, его планы — найти работу, снять жилье и устроить свою одинокую жизнь. Но, вопреки ожиданиям, криминальное сообщество «не забывает своих»…- -Качество: DVDRip
Формат: AVI
Видео кодек: XviD
Аудио кодек: AC3
Видео: 704x528 (1.33:1), 25 fps, XviD build 50 ~1908 kbps avg, 0.21 bit/pixel
Аудио: 48 kHz, AC3 Dolby Digital, 2/0 (L,R) ch, ~192.00 kbps avg-

MediaInfo

General
Complete name : Домой дороги нет.avi
Format : AVI
Format/Info : Audio Video Interleave
File size : 1.43 GiB
Duration : 1h 37mn
Overall bit rate : 2 111 Kbps
Writing application : VirtualDubMod 1.5.10.2 (build 2540/release)
Writing library : VirtualDubMod build 2540/release
Video
ID : 0
Format : MPEG-4 Visual
Format profile : Advanced [email protected]
Format settings, BVOP : 1
Format settings, QPel : No
Format settings, GMC : No warppoints
Format settings, Matrix : Default (H.263)
Codec ID : XVID
Codec ID/Hint : XviD
Duration : 1h 37mn
Bit rate : 1 909 Kbps
Width : 704 pixels
Height : 528 pixels
Display aspect ratio : 4:3
Frame rate : 25.000 fps
Color space : YUV
Chroma subsampling : 4:2:0
Bit depth : 8 bits
Scan type : Progressive
Compression mode : Lossy
Bits/(Pixel*Frame) : 0.205
Stream size : 1.29 GiB (90%)
Writing library : XviD 1.2.1 (UTC 2008-12-04)
Audio
ID : 1
Format : AC-3
Format/Info : Audio Coding 3
Mode extension : CM (complete main)
Codec ID : 2000
Duration : 1h 36mn
Bit rate mode : Constant
Bit rate : 192 Kbps
Channel(s) : 2 channels
Channel positions : Front: L R
Sampling rate : 48.0 KHz
Bit depth : 16 bits
Compression mode : Lossy
Stream size : 133 MiB (9%)
Alignment : Split accross interleaves
Interleave, duration : 40 ms (1.00 video frame)
Interleave, preload duration : 500 ms
- - - -

Создавать темы 15-Июл-2014 15:05

[Профиль]  [ЛС] 
Показать сообщения:    
Ответить на тему

Текущее время: 23-Ноя 01:01

Часовой пояс: UTC + 5



Вы не можете начинать темы
Вы не можете отвечать на сообщения
Вы не можете редактировать свои сообщения
Вы не можете удалять свои сообщения
Вы не можете голосовать в опросах
Вы не можете прикреплять файлы к сообщениям
Вы не можете скачивать файлы