Детектор лжи / Deceiver (Джонас Пейт, Джош Пейт) [1997 г., триллер, драма, криминал, детектив, DVDRip]

Ответить на тему
 

igor1968 ®

Стаж: 5 лет 6 месяцев

Сообщений: 366

Симпатии: 197

Детектор лжи / Deceiver«There are two sides to every lie» Год выпуска: 1997
Страна:
Жанр: триллер, драма, криминал, детектив
Продолжительность: 01:41:56
Перевод: Профессиональный (одноголосый)
Режиссер: Джонас Пейт, Джош Пейт
-В ролях: Тим Рот, Крис Пенн, Майкл Рукер, Рене Зеллвегер, Эллен Бёрстин, Розанна Аркетт, Дон Уинстон, Майкл Паркс, Марк Дэймон, Дж. К. Куин ...

Совершено ужасное преступление — жестоко убита молодая девушка. Основной подозреваемый — капризный отпрыск богатых родителей Джемс Уолтер Уэйланд. Но убийца ли он?
Это покажут напряженные допросы, которые превратятся в захватывающую игру трех профессионалов, выведывающих друг у друга самые мрачные тайны. Удастся ли выяснить, кто перед нами — убийца, алкоголик и психопат или невинный человек, ставший жертвой обстоятельств?
И кто допрашивает его — честные блюстители закона или хладнокровные мерзавцы? Их разделяет тонкая грань и между ними лишь беспристрастный детектор лжи…-

рецензии

Lusinda LO
рецензии (13)
Что есть ложь?
Оказывается, у актера Тима Рота достаточно давние взаимоотношения с ложью. После просмотра данного фильма его исполнение роли доктора Лайтмана в сериале «Обмани меня» выглядит чуть ли не предопределенным свыше.
На самом деле в фильме с таким ограниченным количеством действующих лиц количество вариантов финала кажется небольшим, и немного подумав, можно их так или иначе просчитать. И самый шикарный момент наступает, когда понимаешь, что авторами выбран такой финал, который не укладывается в расчеты и действительно вызывает больше вопросов, чем ответов… Так случилось с фильмом «Детектор лжи».
Полиграф — машина для измерения давления, и только. Многое зависит от того, что сам человек считает правдой или ложью для себя, насколько он верит в то, что говорит или в чем пытается убедить других, правильно ли поставлен вопрос, на который мы хотим получить ответ…
Классический триллер о противостоянии нескольких предельно разных человеческих интеллектов и одного механического. Триллер неторопливый, логичный, продуманный, обеспечивает мозг работой на время просмотра и даже немного на потом.
9 из 10
- -Качество: DVDRip
Формат: AVI
Видео кодек: XviD
Аудио кодек: MPEG Audio
Видео: 688x304 (2.26:1), 25 fps, XviD build 50 ~881 kbps avg, 0.17 bit/pixel
Аудио: 44.100 kHz, MPEG Layer 3, 2 ch, ~128.00 kbps avg-

MeddiaInfo

General
Complete name : Детектор.лжи.1997.DVDRip.avo.All.Films.avi
Format : AVI
Format/Info : Audio Video Interleave
File size : 743 MiB
Duration : 1h 41mn
Overall bit rate : 1 019 Kbps
Writing application : VirtualDubMod 1.5.10.2 (build 2540/release)
Writing library : VirtualDubMod build 2540/release
Video
ID : 0
Format : MPEG-4 Visual
Format profile : Advanced [email protected]
Format settings, BVOP : 1
Format settings, QPel : No
Format settings, GMC : No warppoints
Format settings, Matrix : Custom
Codec ID : XVID
Codec ID/Hint : XviD
Duration : 1h 41mn
Bit rate : 882 Kbps
Width : 688 pixels
Height : 304 pixels
Display aspect ratio : 2.25:1
Frame rate : 25.000 fps
Color space : YUV
Chroma subsampling : 4:2:0
Bit depth : 8 bits
Scan type : Progressive
Compression mode : Lossy
Bits/(Pixel*Frame) : 0.169
Stream size : 643 MiB (87%)
Writing library : XviD 1.2.1 (UTC 2008-12-04)
Audio
ID : 1
Format : MPEG Audio
Format version : Version 1
Format profile : Layer 3
Codec ID : 55
Codec ID/Hint : MP3
Duration : 1h 41mn
Bit rate mode : Constant
Bit rate : 128 Kbps
Channel(s) : 2 channels
Sampling rate : 44.1 KHz
Compression mode : Lossy
Delay relative to video : 1s 0ms
Stream size : 93.3 MiB (13%)
Alignment : Split accross interleaves
Interleave, duration : 40 ms (1.00 video frame)
Interleave, preload duration : 500 ms
Writing library : LAME3.90.3
- - -


Последний раз редактировалось: igor1968 (2014-07-16 10:31), всего редактировалось 3 раз(а)

Создавать темы 16-Июл-2014 10:18

[Профиль]  [ЛС] 

Slapper

Стаж: 3 года 10 месяцев

Сообщений: 2193

Симпатии: 213

igor1968, оформление не лучшее подобрал, но так норм

Создавать темы 16-Июл-2014 10:22

[Профиль]  [ЛС] 
Показать сообщения:    
Ответить на тему

Текущее время: 19-Сен 16:37

Часовой пояс: UTC + 5



Вы не можете начинать темы
Вы не можете отвечать на сообщения
Вы не можете редактировать свои сообщения
Вы не можете удалять свои сообщения
Вы не можете голосовать в опросах
Вы не можете прикреплять файлы к сообщениям
Вы не можете скачивать файлы