Мастера Секса / Masters of Sex / Сезон: 2 / Серии: 1-12 из 12 (Майкл Эптед, Майкл Диннер, Дженнифер Гетцингер) [2014, Драма, экранизация, HDTVRip] MVO (Amedia) + Original

Страницы :  1, 2  След.

Ответить на тему
 

emilsky ®

Стаж: 7 лет 1 месяц

Сообщений: 2237

Симпатии: 610

Мастера Секса / Masters of Sex- Год выпуска: 2013
Страна: США
Жанр: Драма, экранизация
Продолжительность: ~ 00:58:00-Перевод: Профессиональный (многоголосый закадровый) Amedia
Русские субтитры: есть
Режиссёр: Майкл Эптед, Майкл Диннер, Дженнифер Гетцингер-В ролях: Майкл Шин, Лиззи Каплан, Николас Д`Агосто, Кэйтлин Фицджералд, Тедди Сирс, Хелен Йорк, Кайла Мэдисон, Билл Лэйн, Коул Сэнд, Кристофер Клауси-Описание: Сериал Мастера секса является экранизацией книги Томаса Майера с претенциозным названием «Мастера секса: Жизнь и время Уильяма Мастерса и Вирджинии Джонсон, пары, которая учила Америку любить». Это история жизни людей, которые проводят постоянные исследования человеческой сексуальности и попробуют их на себе. Это сериал об отношениях между Уильямом (Майкл Шин) и Вирджинией (Лиззи Каплан), которые были первопроходцами в этой теме. Исследователи – сексологи решают выяснить, что в мире может доставить невероятное удовольствие, и что при этом происходит в головном мозге, при достижении этого самого удовольствия. Действие сериала происходит в Америке в 60-е годы прошлого столетия.- 
-Качество: HDTVRip
Формат: AVI
Видео кодек: XviD
Аудио кодек: MP3-Видео: ~ 1500 kbps, 720x400 (16:9)
Аудио 1: mp3, 2 ch, 128 kbps - Rus
Аудио 2: mp3, 2 ch, 128 kbps - Eng
Субтитры: отсутствуют-

MediaInfo

Общее
Полное имя : X:\ATorrent\Masters.of.Sex.(s02).Amedia\Masters.of.Sex.s02e01.XviD.Amedia.[qqss44].avi
Формат : AVI
Формат/Информация : Audio Video Interleave
Размер файла : 754 Мбайт
Продолжительность : 59 м.
Общий поток : 1760 Кбит/сек
Программа кодирования : VirtualDubMod 1.5.10.3 | www.virtualdub-fr.org || (build 2550/release)
Библиотека кодирования : VirtualDubMod build 2550/release
Видео
Идентификатор : 0
Формат : MPEG-4 Visual
Профиль формата : Advanced [email protected]
Параметр BVOP формата : Да
Параметр QPel формата : Нет
Параметр GMC формата : Без точки перехода
Параметр матрицы формата : Default (H.263)
Идентификатор кодека : XVID
Идентификатор кодека/Подсказка : XviD
Продолжительность : 59 м.
Битрейт : 1490 Кбит/сек
Ширина : 720 пикселей
Высота : 400 пикселей
Соотношение сторон : 16:9
Частота кадров : 23,976 кадра/сек
Цветовое пространство : YUV
Субдискретизация насыщенности : 4:2:0
Битовая глубина : 8 бит
Тип развёртки : Прогрессивная
Метод сжатия : С потерями
Бит/(Пиксели*Кадры) : 0.216
Размер потока : 639 Мбайт (85%)
Библиотека кодирования : XviD 73
Аудио #1
Идентификатор : 1
Формат : MPEG Audio
Версия формата : Version 1
Профиль формата : Layer 3
Идентификатор кодека : 55
Идентификатор кодека/Подсказка : MP3
Продолжительность : 59 м.
Вид битрейта : Постоянный
Битрейт : 128 Кбит/сек
Каналы : 2 канала
Частота : 48,0 КГц
Метод сжатия : С потерями
Размер потока : 54,9 Мбайт (7%)
Выравнивание : Соединение по промежуткам
Продолжительность промежутка : 42 мс. (1,00 видеокадр)
Время предзагрузки промежутка : 504 мс.
Библиотека кодирования : LAME3.99r
Настройки программы : -m s -V 4 -q 2 -lowpass 17 -b 128
Аудио #2
Идентификатор : 2
Формат : MPEG Audio
Версия формата : Version 1
Профиль формата : Layer 3
Идентификатор кодека : 55
Идентификатор кодека/Подсказка : MP3
Продолжительность : 59 м.
Вид битрейта : Постоянный
Битрейт : 128 Кбит/сек
Каналы : 2 канала
Частота : 48,0 КГц
Метод сжатия : С потерями
Размер потока : 54,9 Мбайт (7%)
Выравнивание : Соединение по промежуткам
Продолжительность промежутка : 42 мс. (1,00 видеокадр)
Время предзагрузки промежутка : 504 мс.
Библиотека кодирования : LAME3.99r
Настройки программы : -m s -V 4 -q 2 -lowpass 17 -b 128

Скриншоты

Раздача ведется путем добавления новых серий

Когда раздача ведётся путём добавления новых серий, при каждом добавлении создётся новый торрент. Чтобы начать докачку новой серии, пользователям необходимо сделать следующее:
(1) остановить скачивание,
(2) удалить старый торрент у себя из клиента (старые серии удалять не надо),
(3) скачать новый торрент и запустить его у себя в клиенте вместо старого, при этом указать клиенту путь в старую папку, куда и должно происходить скачивание новых серий.
Ваш клиент при этом должен произвести хеширование (проверку) старой папки (если не производит сам - помогите ему сделать это), и будет докачивать только те серии, которых у вас ещё нет. Старые серии при этом не удаляются, а продолжают раздаваться!
Eсли вы уже удалили старые серии, то предотвратить повторную закачку старых серий можно, отжав галочку в соответсвующих местах при запуске нового торрента. По возможности, желательно не удалять старые серии как можно дольше, чтобы релизёр не столько продолжал раздавать старые серии, а смог сконцентрироваться на новых.
-


Последний раз редактировалось: emilsky (2014-10-05 06:11), всего редактировалось 10 раз(а)

Создавать темы 16-Июл-2014 23:10

[Профиль]  [ЛС] 

VAIO

Стаж: 5 лет 7 месяцев

Сообщений: 1568

Симпатии: 1399

интересно... стоит скачать и посмотреть :)

Создавать темы 16-Июл-2014 23:13

[Профиль]  [ЛС] 

emilsky ®

Стаж: 7 лет 1 месяц

Сообщений: 2237

Симпатии: 610

854946интересно... стоит скачать и посмотреть :)
ну не знаю, хотя тут многие могут что-то сказать https://tas-ix.net/viewtopic.php?t=78726

Создавать темы 16-Июл-2014 23:23

[Профиль]  [ЛС] 

soxa

Стаж: 4 года 10 месяцев

Сообщений: 155

Симпатии: 21

А сериалчик интересний.... )))

Создавать темы 17-Июл-2014 01:14

[Профиль]  [ЛС] 

emilsky ®

Стаж: 7 лет 1 месяц

Сообщений: 2237

Симпатии: 610

2 серия!

Создавать темы 24-Июл-2014 08:22

[Профиль]  [ЛС] 

emilsky ®

Стаж: 7 лет 1 месяц

Сообщений: 2237

Симпатии: 610

3 серия!

Создавать темы 31-Июл-2014 08:18

[Профиль]  [ЛС] 

Dnic

Стаж: 3 года 8 месяцев

Сообщений: 3

HD качества, как первый сезон нету?

Создавать темы 10-Авг-2014 11:56

[Профиль]  [ЛС] 

sher_rap

Стаж: 5 лет 6 месяцев

Сообщений: 14

http://rutracker.org/forum/viewtopic.php?t=4783683
5 серия

Создавать темы 13-Авг-2014 22:52

[Профиль]  [ЛС] 

barbosso

Стаж: 5 лет 2 месяца

Сообщений: 22

Залей новые серии пожалуйста

Создавать темы 17-Авг-2014 16:26

[Профиль]  [ЛС] 

emilsky ®

Стаж: 7 лет 1 месяц

Сообщений: 2237

Симпатии: 610

не нужно мне давать ссылки на ресурсы, я лучше Вашего знаю что и где лежит, если не заливаю значит есть причины!

Комментарий от emilsky


всё есть, будет в течении пары дней

Создавать темы 17-Авг-2014 18:25

[Профиль]  [ЛС] 

emilsky ®

Стаж: 7 лет 1 месяц

Сообщений: 2237

Симпатии: 610

4 и 5 серии!

Создавать темы 17-Авг-2014 21:53

[Профиль]  [ЛС] 

sher_rap

Стаж: 5 лет 6 месяцев

Сообщений: 14

добавь 6 серию

Создавать темы 23-Авг-2014 22:13

[Профиль]  [ЛС] 

emilsky ®

Стаж: 7 лет 1 месяц

Сообщений: 2237

Симпатии: 610

6 серия!

Создавать темы 31-Авг-2014 08:04

[Профиль]  [ЛС] 

emilsky ®

Стаж: 7 лет 1 месяц

Сообщений: 2237

Симпатии: 610

7 и 8 серии!

Создавать темы 06-Сен-2014 10:25

[Профиль]  [ЛС] 

Aziz9892

Стаж: 4 года

Сообщений: 43

Симпатии: 3

класс tf

Создавать темы 06-Сен-2014 12:51

[Профиль]  [ЛС] 
Показать сообщения:    
Ответить на тему

Текущее время: 22-Авг 16:12

Часовой пояс: UTC + 5



Вы не можете начинать темы
Вы не можете отвечать на сообщения
Вы не можете редактировать свои сообщения
Вы не можете удалять свои сообщения
Вы не можете голосовать в опросах
Вы не можете прикреплять файлы к сообщениям
Вы не можете скачивать файлы