Воздушный маршал / Non-Stop (Хауме Кольет-Серра / Jaume Collet-Serra) [2014, США, Франция, Боевик, триллер, детектив BDRip 1080p] Dub [Лицензия] + Original Eng + Sub rus, eng

Ответить на тему
 

Bossit ®

Стаж: 4 года 11 месяцев

Сообщений: 3

Симпатии: 1

Воздушный маршал-/ Non-Stop«Захват самолёта - это только начало» --Год выпуска: 2014
Страна: США, Франция
Жанр: Боевик, триллер, детектив
Продолжительность: 01:46:37
Перевод: Профессиональный (дублированный) [Лицензия]
Оригинальная аудиодорожка: Английская
Cубтитры: русские (форсированные), английские
Режиссер: Хауме Кольет-Серра / Jaume Collet-Serra--В ролях: Лиам Нисон, Джулианна Мур, Скут МакНэйри, Мишель Докери, Нэйт Паркер, Кори Столл, Лупита Нионго, Омар Метуолли, Джейсон Батлер Харнер, Лайнас Роуч--Описание:
Межконтинентальный авиарейс. Билл Маркс, воздушный маршал, который обеспечивает безопасность пассажиров, получает сообщения с угрозами от маньяка-террориста. Преступник просчитал все ходы и подставил под обвинение самого спецагента. Теперь Маркс — цель спецслужб США. Ему остается одно: вычислить и обезвредить преступника, спасти пассажиров и свою любовь, которую он обретает на краю гибели. До взрыва остаются считанные минуты…

-- --Качество: BDRip 1080p
Контейнер: MKV--Видео: MPEG-4 AVC / High Profile 4.1 / 1920x800 / 23.976 fps / 10500 kbps
Аудио 1: Русский / AC3 6ch / 48 KHz / 448 kbps |Дубляж|
Аудио 2: Английский / AC3 6ch / 48 KHz / 448 kbps |Original|

MediaInfo

Формат : Matroska
Версия формата : Version 4 / Version 2
Размер файла : 8,48 Гбайт
Продолжительность : 1 ч. 46 м.
Общий поток : 11,4 Мбит/сек
Название фильма : Non-Stop.2014.BDRip.1080p.by.Yusuf
Дата кодирования : UTC 2014-06-20 07:10:31
Программа кодирования : mkvmerge v6.0.0 ('Coming Up For Air') built on Jan 20 2013 09:52:00
Библиотека кодирования : libebml v1.3.0 + libmatroska v1.4.0
Attachment : Yes
Видео
Идентификатор : 1
Формат : AVC
Формат/Информация : Advanced Video Codec
Профиль формата : [email protected]
Параметр CABAC формата : Да
Параметр ReFrames формата : 4 кадра
Идентификатор кодека : V_MPEG4/ISO/AVC
Продолжительность : 1 ч. 46 м.
Битрейт : 10,5 Мбит/сек
Ширина : 1920 пикселей
Высота : 800 пикселей
Соотношение сторон : 2,40:1
Режим частоты кадров : Постоянный
Частота кадров : 23,976 кадра/сек
Цветовое пространство : YUV
Субдискретизация насыщенности : 4:2:0
Битовая глубина : 8 бит
Тип развёртки : Прогрессивная
Бит/(Пиксели*Кадры) : 0.285
Размер потока : 7,65 Гбайт (90%)
Библиотека кодирования : x264 core 138 r2358 9e941d1
Настройки программы : cabac=1 / ref=4 / deblock=1:-3:-3 / analyse=0x3:0x113 / me=umh / subme=10 / psy=1 / psy_rd=1.00:0.00 / mixed_ref=1 / me_range=32 / chroma_me=1 / trellis=2 / 8x8dct=1 / cqm=0 / deadzone=21,11 / fast_pskip=1 / chroma_qp_offset=-2 / threads=12 / lookahead_threads=1 / sliced_threads=0 / nr=0 / decimate=1 / interlaced=0 / bluray_compat=0 / constrained_intra=0 / bframes=12 / b_pyramid=2 / b_adapt=1 / b_bias=0 / direct=1 / weightb=1 / open_gop=0 / weightp=2 / keyint=240 / keyint_min=23 / scenecut=40 / intra_refresh=0 / rc_lookahead=40 / rc=2pass / mbtree=1 / bitrate=10500 / ratetol=1.0 / qcomp=0.60 / qpmin=0 / qpmax=69 / qpstep=4 / cplxblur=20.0 / qblur=0.5 / vbv_maxrate=50000 / vbv_bufsize=62500 / nal_hrd=none / ip_ratio=1.40 / aq=1:1.00
Язык : English
Default : Да
Forced : Нет
Аудио #1
Идентификатор : 2
Формат : AC-3
Формат/Информация : Audio Coding 3
Расширение режима : CM (complete main)
Параметр Endianness формата : Big
Идентификатор кодека : A_AC3
Продолжительность : 1 ч. 46 м.
Вид битрейта : Постоянный
Битрейт : 448 Кбит/сек
Каналы : 6 каналов
Расположение каналов : Front: L C R, Side: L R, LFE
Частота : 48,0 КГц
Битовая глубина : 16 бит
Метод сжатия : С потерями
Размер потока : 342 Мбайт (4%)
Язык : Russian
Default : Да
Forced : Нет
Аудио #2
Идентификатор : 3
Формат : AC-3
Формат/Информация : Audio Coding 3
Расширение режима : CM (complete main)
Параметр Endianness формата : Big
Идентификатор кодека : A_AC3
Продолжительность : 1 ч. 46 м.
Вид битрейта : Постоянный
Битрейт : 448 Кбит/сек
Каналы : 6 каналов
Расположение каналов : Front: L C R, Side: L R, LFE
Частота : 48,0 КГц
Битовая глубина : 16 бит
Метод сжатия : С потерями
Размер потока : 342 Мбайт (4%)
Язык : English
Default : Нет
Forced : Нет
Текст #1
Идентификатор : 4
Формат : UTF-8
Идентификатор кодека : S_TEXT/UTF8
Идентификатор кодека/Информация : UTF-8 Plain Text
Заголовок : Forced
Язык : Russian
Default : Да
Forced : Нет
Текст #2
Идентификатор : 5
Формат : UTF-8
Идентификатор кодека : S_TEXT/UTF8
Идентификатор кодека/Информация : UTF-8 Plain Text
Заголовок : Full
Язык : English
Default : Нет
Forced : Нет
Текст #3
Идентификатор : 6
Формат : UTF-8
Идентификатор кодека : S_TEXT/UTF8
Идентификатор кодека/Информация : UTF-8 Plain Text
Заголовок : SDH
Язык : English
Default : Нет
Forced : Нет
Меню
00:00:00.000 : en:HYPERHD 01
00:04:24.639 : en:HYPERHD 02
00:10:29.045 : en:HYPERHD 03
00:14:47.053 : en:HYPERHD 04
00:18:51.839 : en:HYPERHD 05
00:24:22.127 : en:HYPERHD 06
00:29:44.574 : en:HYPERHD 07
00:35:48.605 : en:HYPERHD 08
00:39:28.491 : en:HYPERHD 09
00:45:41.572 : en:HYPERHD 10
00:49:03.941 : en:HYPERHD 11
00:55:17.731 : en:HYPERHD 12
01:01:59.257 : en:HYPERHD 13
01:08:42.327 : en:HYPERHD 14
01:12:16.999 : en:HYPERHD 15
01:18:14.982 : en:HYPERHD 16
01:26:02.032 : en:HYPERHD 17
01:30:46.191 : en:HYPERHD 18
01:36:14.727 : en:HYPERHD 19
01:40:13.799 : en:HYPERHD 20

Скриншоты


Создавать темы 17-Июл-2014 02:12

[Профиль]  [ЛС] 

Топик был перенесен из форума HD-AVC в форум Зарубежное кино
Mixer City

Создавать темы 17-Июл-2014 02:27

 

Michel

Стаж: 6 лет 9 месяцев

Сообщений: 78

Симпатии: 5

Размер: 24.44 GB
Воздушный маршал.mkv 451.55 MB (473485262)
Размер файла : 8,48 Гбайт
Стата на тазике явно гонит!!!

Создавать темы 17-Июл-2014 02:32

[Профиль]  [ЛС] 

Michel

Стаж: 6 лет 9 месяцев

Сообщений: 78

Симпатии: 5

855052Michel, смотрел этот кино очень хорош
Да фильм хорош идостоин просмотра, но только на один раз!

Создавать темы 18-Июл-2014 16:39

[Профиль]  [ЛС] 
Показать сообщения:    
Ответить на тему

Текущее время: 20-Сен 08:56

Часовой пояс: UTC + 5



Вы не можете начинать темы
Вы не можете отвечать на сообщения
Вы не можете редактировать свои сообщения
Вы не можете удалять свои сообщения
Вы не можете голосовать в опросах
Вы не можете прикреплять файлы к сообщениям
Вы не можете скачивать файлы