Штамм / The Strain / Сезон 1 / Серии: 1-13 из 13 (Гильермо дель Торо, Дэвид Семел) [2014, ужасы, фантастика, драма, WEB-DLRip] MVO (LostFilm)

Страницы :  1, 2  След.

Ответить на тему
 

Mpak ®

Стаж: 5 лет 1 месяц

Сообщений: 663

Симпатии: 340

Штамм / The Strain
Год выпуска: 2014
Страна: США, Mirada
Жанр: Ужасы, фантастика, драма, вампиры
Продолжительность: 01:11:00
Перевод: Профессиональный (многоголосый закадровый) LostFilm
Русские субтитры: нет
Режиссёр: Гильермо дель Торо, Дэвид Семел, Кит Гордон
В ролях: Дэвид Брэдли, Энн Бетанкорт, Николай Вич, Педро Мигель Арсе, Дрю Нельсон, Джо Веркилло, Джим Уотсон, Алекс Пэкстон, Джонатан Поттс, Рихард Заммель
Описание: Штамм — выделенная культура определенного вируса. Как правило, известные науке штаммы вирусов губительно влияют на своего носителя, некоторые из них могут быть смертельными для человека. Однако ни один известный штамм в мире не изменяет генетический код самого носителя. Во всяком случае, так было до сих пор. Всё начинается с того момента, как в Нью-Йорк прибывает самолет с кучей трупов на борту. Впрочем, уже скоро эти трупы, зараженные неизвестным штаммом, оживают, превращаясь в ужасных монстров — кровососущих тварей.
Качество: WEB-DLRip
Формат: AVI
Видео кодек: XviD
Аудио кодек: MP3
Видео: XviD, 720x400, 23.976 fps, ~1 915 Kbps, 0.277 bit/pixel
Аудио Rus: MP3, 48000 Hz, Stereo, 192 Kbps
MediaInfo
Format : AVI
Format/Info : Audio Video Interleave
File size : 1.06 GiB
Duration : 1h 11mn
Overall bit rate mode : Variable
Overall bit rate : 2 116 Kbps
Writing application : Nandub v1.0rc2
Writing library : Nandub build 1853/release
Video
ID : 0
Format : MPEG-4 Visual
Format profile : Advanced [email protected]
Format settings, BVOP : No
Format settings, QPel : No
Format settings, GMC : No warppoints
Format settings, Matrix : Default (H.263)
Codec ID : XVID
Codec ID/Hint : XviD
Duration : 1h 11mn
Bit rate : 1 915 Kbps
Width : 720 pixels
Height : 400 pixels
Display aspect ratio : 16:9
Frame rate : 23.976 fps
Color space : YUV
Chroma subsampling : 4:2:0
Bit depth : 8 bits
Scan type : Progressive
Compression mode : Lossy
Bits/(Pixel*Frame) : 0.277
Stream size : 983 MiB (90%)
Writing library : XviD 1.2.1 (UTC 2008-12-04)
Audio
ID : 1
Format : MPEG Audio
Format version : Version 1
Format profile : Layer 3
Mode : Joint stereo
Mode extension : MS Stereo
Codec ID : 55
Codec ID/Hint : MP3
Duration : 1h 11mn
Bit rate mode : Variable
Bit rate : 192 Kbps
Channel(s) : 2 channels
Sampling rate : 48.0 KHz
Compression mode : Lossy
Stream size : 96.8 MiB (9%)
Alignment : Aligned on interleaves
Interleave, duration : 24 ms (0.58 video frame)
Interleave, preload duration : 488 ms
Writing library : LAME3.97b
Encoding settings : -m j -V 4 -q 3 -lowpass 18.6 --abr 192

График показа серий в штатах

На торренте выкладываю в среду вечером или в четверг с утра ( зависит от выставления серии на Lostfilm)
12.10.2014 13 The Master
05.10.2014 12 Last Rites
28.09.2014 11 TBA - Контактный рельс
21.09.2014 10 TBA
14.09.2014 09 The Disappeared - Исчезнувшие
07.09.2014 08 Creatures of the Night - создания ночи
24.08.2014 07 For Services Rendered - За оказанные услуги
17.08.2014 06 Occultation - Затмение
10.08.2014 05 Runaways
03.08.2014 04 It's Not for Everyone
27.07.2014 03 Gone Smooth
20.07.2014 02 The Box
13.07.2014 01 Night Zero
Скриншоты


Последний раз редактировалось: Mpak (2014-10-07 23:58), всего редактировалось 15 раз(а)

Создавать темы 17-Июл-2014 10:03

[Профиль]  [ЛС] 

Mpak ®

Стаж: 5 лет 1 месяц

Сообщений: 663

Симпатии: 340

Пренеприятнейший постер у этого сериала... брррр :)

Создавать темы 17-Июл-2014 10:05

[Профиль]  [ЛС] 

Butty

Стаж: 4 года 11 месяцев

Сообщений: 96

Симпатии: 6

Охренеть скриншоты , забираю !!

Создавать темы 17-Июл-2014 16:21

[Профиль]  [ЛС] 

McFLY

Стаж: 5 лет 5 месяцев

Сообщений: 658

Симпатии: 22

Ещё постеры! pc

Создавать темы 17-Июл-2014 17:07

[Профиль]  [ЛС] 

Mpak ®

Стаж: 5 лет 1 месяц

Сообщений: 663

Симпатии: 340

Добавлена вторая серия.
Вопрос к знающим людям, как сделать так, что бы:
1) При хешировании, файлы отображались правильно, а не выдавало ошибки на отсутствие одной или нескольких серий.
2) Раздача после проверки не становилась красной.

Создавать темы 24-Июл-2014 10:56

[Профиль]  [ЛС] 

emilsky

Стаж: 7 лет 1 месяц

Сообщений: 2237

Симпатии: 610

857846Добавлена вторая серия.
Вопрос к знающим людям, как сделать так, что бы:
1) При хешировании, файлы отображались правильно, а не выдавало ошибки на отсутствие одной или нескольких серий.
2) Раздача после проверки не становилась красной.
1 - если путь к папке указан верно, то ошибки быть не может
2 - это из-за анонсера (после полного цикла - зеленеет)

Создавать темы 24-Июл-2014 11:50

[Профиль]  [ЛС] 

Mpak ®

Стаж: 5 лет 1 месяц

Сообщений: 663

Симпатии: 340

Путь указан верно :( Одна серия стабильно не хешируется. Приходится заново проверять по первоначальному источнику, потом скачивать торрент тут заново со второй третьей попытки хеш проходит.
по второму пункту ничего страшного?

Комментарий от emilsky


ничего страшного

Создавать темы 24-Июл-2014 14:04

[Профиль]  [ЛС] 

Butty

Стаж: 4 года 11 месяцев

Сообщений: 96

Симпатии: 6

Сногшибательный сериальчик . девочка в ванной вообще улет ))

Создавать темы 26-Июл-2014 20:59

[Профиль]  [ЛС] 

Mpak ®

Стаж: 5 лет 1 месяц

Сообщений: 663

Симпатии: 340

Добавлена 3 серия

Создавать темы 29-Июл-2014 21:25

[Профиль]  [ЛС] 

L0sT

Стаж: 3 года 7 месяцев

Сообщений: 11

4 когда ?

Создавать темы 04-Авг-2014 15:39

[Профиль]  [ЛС] 

Mpak ®

Стаж: 5 лет 1 месяц

Сообщений: 663

Симпатии: 340

Когда переведут

Создавать темы 05-Авг-2014 10:20

[Профиль]  [ЛС] 

Mpak ®

Стаж: 5 лет 1 месяц

Сообщений: 663

Симпатии: 340

Добавлена 4-ая серия

Создавать темы 06-Авг-2014 23:23

[Профиль]  [ЛС] 

Mpak ®

Стаж: 5 лет 1 месяц

Сообщений: 663

Симпатии: 340

Добавлена 5-ая серия

Создавать темы 14-Авг-2014 09:59

[Профиль]  [ЛС] 

Mpak ®

Стаж: 5 лет 1 месяц

Сообщений: 663

Симпатии: 340

Добавлена 6-ая серия

Создавать темы 20-Авг-2014 23:37

[Профиль]  [ЛС] 

Mpak ®

Стаж: 5 лет 1 месяц

Сообщений: 663

Симпатии: 340

добавлена 7-ая серия

Создавать темы 28-Авг-2014 00:10

[Профиль]  [ЛС] 
Показать сообщения:    
Ответить на тему

Текущее время: 17-Авг 16:26

Часовой пояс: UTC + 5



Вы не можете начинать темы
Вы не можете отвечать на сообщения
Вы не можете редактировать свои сообщения
Вы не можете удалять свои сообщения
Вы не можете голосовать в опросах
Вы не можете прикреплять файлы к сообщениям
Вы не можете скачивать файлы