Друзья на неделю/Isshuukan Friends (Ивасаки Таро) [TV] [1-12 из 12] [RUS] [FruKt, Reina] [2014 г., романтика, школа, HDTVRip] [720p]

Ответить на тему
 

SNIL ®

Стаж: 5 лет 9 месяцев

Сообщений: 2624

Симпатии: 341

Друзья на неделю
Isshuukan Friends
-
Год выпуска: 2014
Страна: Япония
Жанр: романтика, школа
Продолжительность: 12 эп. по 25 мин.-Озвучка:
  • FruKt, Reina
-Режиссёр: Ивасаки Таро
Автор оригинала: Хадзуки Маття
Студия: Brains-Описание:
Парень по имени Хасэ Юки сидит в школе позади нелюдимой ученицы Фудзимии Каори. Однажды, столкнувшись с ней в коридоре, он предлагает девушке подружиться, на что получает ответ: «Я очень рада, но не могу.» В чем же причина отказа? Причина заключается в том, что все счастливые воспоминания Каори исчезают каждый понедельник, в том числе и время проведенное с друзьями. Решив все же подружиться с девочкой, Юки каждую неделю старается изо всех сил стать к ней ближе, чтобы в один прекрасный день она назвала его «другом».-Качество: HDTVRip
Формат видео: mp4
Видео: x264 (8 bits), 1280х720, ~1 943 kbps, 25.000 fps
Аудио Russian: ААС, 44.0 kHz, 128 Kbps, 2ch -

Подробные тех. данные

E:\Аниме\Isshuukan Friends\Isshuukan Friends [1] [FruKt, Reina].mp4
   General
      Complete name : E:\Аниме\Isshuukan Friends\Isshuukan Friends [1] [FruKt, Reina].mp4
      Format : MPEG-4
      Format profile : Base Media
      Codec ID : isom
      File size : 334 MiB
      Duration : 24mn 0s
      Overall bit rate : 1 943 Kbps
      Writing application : Lavf54.59.106
   Video #1
      ID : 1
      Format : AVC
      Format/Info : Advanced Video Codec
      Format profile : [email protected]
      Format settings, CABAC : Yes
      Format settings, ReFrames : 4 frames
      Format settings, GOP : M=2, N=14
      Codec ID : avc1
      Codec ID/Info : Advanced Video Coding
      Duration : 24mn 0s
      Duration_LastFrame : -1ms
      Bit rate mode : Variable
      Bit rate : 1 800 Kbps
      Width : 1 280 pixels
      Height : 720 pixels
      Display aspect ratio : 16:9
      Frame rate mode : Constant
      Frame rate : 25.000 fps
      Color space : YUV
      Chroma subsampling : 4:2:0
      Bit depth : 8 bits
      Scan type : Progressive
      Bits/(Pixel*Frame) : 0.078
      Stream size : 310 MiB (93%)
      Writing library : x264 core 129
      Encoding settings : cabac=1 / ref=3 / deblock=1:0:0 / analyse=0x3:0x113 / me=hex / subme=7 / psy=1 / psy_rd=1.00:0.00 / mixed_ref=1 / me_range=16 / chroma_me=1 / trellis=1 / 8x8dct=1 / cqm=0 / deadzone=21,11 / fast_pskip=1 / chroma_qp_offset=-2 / threads=24 / lookahead_threads=4 / sliced_threads=0 / nr=0 / decimate=1 / interlaced=0 / bluray_compat=0 / constrained_intra=0 / bframes=3 / b_pyramid=2 / b_adapt=1 / b_bias=0 / direct=1 / weightb=1 / open_gop=0 / weightp=2 / keyint=250 / keyint_min=25 / scenecut=40 / intra_refresh=0 / rc_lookahead=40 / rc=abr / mbtree=1 / bitrate=1800 / ratetol=1.0 / qcomp=0.60 / qpmin=0 / qpmax=69 / qpstep=4 / ip_ratio=1.40 / aq=1:1.00
      Language : English
   Audio #2
      ID : 2
      Format : AAC
      Format/Info : Advanced Audio Codec
      Format version : Version 4
      Format profile : LC
      Format settings, SBR : No
      Codec ID : 40
      Duration : 23mn 59s
      Bit rate mode : Constant
      Bit rate : 128 Kbps
      Channel(s) : 2 channels
      Channel positions : Front: L R
      Sampling rate : 44.1 KHz
      Stream size : 22.0 MiB (7%)
      Language : Russian

Скриншоты

Отличия от Друзья на неделю, в озвучке АниДаб

Создавать темы 17-Июл-2014 11:14

[Профиль]  [ЛС] 

SNIL ®

Стаж: 5 лет 9 месяцев

Сообщений: 2624

Симпатии: 341

Пока скорости не будет (весь канал идёт на 2а онгоинга)!

Создавать темы 17-Июл-2014 20:40

[Профиль]  [ЛС] 

dizzy

Стаж: 5 лет 9 месяцев

Сообщений: 94

Симпатии: 1

SNIL, Прошу сидер раздать до конца плз

Создавать темы 17-Июл-2015 01:33

[Профиль]  [ЛС] 

SNIL ®

Стаж: 5 лет 9 месяцев

Сообщений: 2624

Симпатии: 341

dizzy, к сожалению тайтла у меня уже нет!

Создавать темы 17-Июл-2015 06:44

[Профиль]  [ЛС] 
Показать сообщения:    
Ответить на тему

Текущее время: 23-Окт 12:53

Часовой пояс: UTC + 5



Вы не можете начинать темы
Вы не можете отвечать на сообщения
Вы не можете редактировать свои сообщения
Вы не можете удалять свои сообщения
Вы не можете голосовать в опросах
Вы не можете прикреплять файлы к сообщениям
Вы не можете скачивать файлы