Охотники на ведьм / Hansel & Gretel: Witch Hunters [2013 г., ужасы, фэнтези, боевик, HDRip (рип с BDRip 1080p)]

Ответить на тему
 

SMaIL ®

Стаж: 3 года 8 месяцев

Сообщений: 740

Симпатии: 233

Охотники на ведьм / Hansel & Gretel: Witch Hunters
Год выпуска: 2013
Страна: США, Германия
Жанр: ужасы, фэнтези, боевик
Продолжительность: 1:27:57
Перевод: Профессиональный (полное дублирование) [Лицензия]
Режиссер: Томми Виркола
В ролях: Джереми Реннер
Джемма Артертон
Фамке Янссен
Пихла Виитала
Дерек Мирс
Робин Аткин Даунс
Ингрид Болсай Бердал
Джоэнна Кулиг
Томас Манн
Петер Стормаре
Описание: Едва не погибнув в лапах ужасной ведьмы, Гензель и Гретель стали только сильнее. Одержимые местью, они ведут отчаянную борьбу со злом, даже не подозревая, что их поджидает нечто куда более опасное… собственное прошлое…
Качество: HDRip (рип с BDRip 1080p)
Формат: mp4
Видео кодек:H.264
Аудио кодек:AAC
Видео: MPEG4 Video (H264) 640x360 24fps 503 Kbps
Аудио: AAC 48000Hz stereo 125kbps 2 channels

Mediainfo

Format                         : MPEG-4
Format profile                 : Base Media / Version 2
Codec ID                       : mp42
File size                      : 398 MiB
Duration                       : 1h 27mn
Overall bit rate mode          : Variable
Overall bit rate               : 632 Kbps
Encoded date                   : UTC 2013-05-08 20:05:15
Tagged date                    : UTC 2013-05-08 20:06:29
©TIM                           : 00:00:00:00
©TSC                           : 24
©TSZ                           : 1
Video
ID                             : 1
Format                         : AVC
Format/Info                    : Advanced Video Codec
Format profile                 : [email protected]
Format settings, CABAC         : Yes
Format settings, ReFrames      : 3 frames
Codec ID                       : avc1
Codec ID/Info                  : Advanced Video Coding
Duration                       : 1h 27mn
Source duration                : 1h 27mn
Bit rate                       : 503 Kbps
Width                          : 640 pixels
Height                         : 360 pixels
Display aspect ratio           : 16:9
Frame rate mode                : Variable
Frame rate                     : 24.000 fps
Minimum frame rate             : 24.000 fps
Maximum frame rate             : 24.024 fps
Standard                       : NTSC
Color space                    : YUV
Chroma subsampling             : 4:2:0
Bit depth                      : 8 bits
Scan type                      : Progressive
Bits/(Pixel*Frame)             : 0.091
Stream size                    : 316 MiB (80%)
Source stream size             : 316 MiB (80%)
Language                       : English
Encoded date                   : UTC 2013-05-08 20:05:15
Tagged date                    : UTC 2013-05-08 20:05:15
mdhd_Duration                  : 5277375
Color primaries                : BT.601-6 525, BT.1358 525, BT.1700 NTSC, SMPTE 170M
Transfer characteristics       : BT.601-6 525, BT.601-6 625, BT.1358 525, BT.1358 625, BT.1700 NTSC, SMPTE 170M
Matrix coefficients            : BT.601-6 525, BT.1358 525, BT.1700 NTSC, SMPTE 170M
Audio
ID                             : 2
Format                         : AAC
Format/Info                    : Advanced Audio Codec
Format profile                 : LC
Codec ID                       : 40
Duration                       : 1h 27mn
Source duration                : 1h 27mn
Bit rate mode                  : Variable
Bit rate                       : 125 Kbps
Maximum bit rate               : 197 Kbps
Channel(s)                     : 2 channels
Channel positions              : Front: L R
Sampling rate                  : 48.0 KHz
Compression mode               : Lossy
Stream size                    : 78.9 MiB (20%)
Source stream size             : 78.9 MiB (20%)
Language                       : English
Encoded date                   : UTC 2013-05-08 20:05:15
Tagged date                    : UTC 2013-05-08 20:05:15
mdhd_Duration                  : 5277419

Скриншоты

Создавать темы 17-Июл-2014 11:26

[Профиль]  [ЛС] 
Показать сообщения:    
Ответить на тему

Текущее время: 18-Окт 14:31

Часовой пояс: UTC + 5



Вы не можете начинать темы
Вы не можете отвечать на сообщения
Вы не можете редактировать свои сообщения
Вы не можете удалять свои сообщения
Вы не можете голосовать в опросах
Вы не можете прикреплять файлы к сообщениям
Вы не можете скачивать файлы