Need for Speed: Жажда скорости / Need for Speed (Скотт Во / Scott Waugh) [2014, США, Боевик, триллер, драма, криминал, BDRip] [Лицензия]

Страницы :  1, 2  След.

Ответить на тему
 

Suxrob89 ®

Стаж: 7 лет 4 месяца

Сообщений: 933

Симпатии: 564

Need for Speed: Жажда скорости / Need for Speed-«Тормоза придумал трус»- Год выпуска: 2014
Страна: США, Филиппины, Ирландия, Великобритания
Жанр: боевик, триллер, драма, криминал
Продолжительность: 02:10:42
Перевод: Профессиональный (полное дублирование) [Лицензия]
Cубтитры: нет-Режиссер: Скотт Во / Scott Waugh-В ролях: Аарон Пол (Tobey Marshall), Доминик Купер (Dino Brewster), Имоджен Путс (Julia Maddon), Дакота Джонсон (Anita), Майкл Китон (Monarch), Рамон Родригес (Joe Peck), Ник Чинланд (Officer Lejeune), Кид Кади (Benny), Рэми Малек (Finn), Харрисон Джилбертсон (Little Pete)-Описание: История Тоби Маршалла, гениального автомеханика, чьей единственной отдушиной является участие в подпольных гонках. Чтобы сохранить семейную мастерскую, Тоби вынужден взять в партнеры богатого и заносчивого бывшего гонщика NASCAR Дино Брюстера. Когда дела Тоби наконец-то начинают идти в гору, Дино подставляет партнера, и Тоби обвиняют в преступлении, которого он не совершал. Спустя два года Тоби выходит из тюрьмы с мыслью о мести. Чтобы достичь своей цели, ему придется совершить невозможное и доказать, что даже в мире броских суперкаров самый невзрачный гонщик может финишировать первым.- -Качество: BDRip [BDRemux | 1080p]
Формат: AVI
Видео: 720x304 (2.37:1), 23.976 fps, XviD build 73 ~1208 kbps avg, 0.23 bit/pixel
Аудио: 48 kHz, AC3 Dolby Digital, 3/2 (L,C,R,l,r) + LFE ch, ~384.00 kbps avg-

Скриншоты

MediaInfo

General
Complete name                            : D:\Need_for_Speed_2014_BDRip_by_Dalemake.avi
Format                                   : AVI
Format/Info                              : Audio Video Interleave
File size                                : 1.46 GiB
Duration                                 : 2h 10mn
Overall bit rate                         : 1 602 Kbps
Writing application                      : VirtualDubMod 1.5.10.3 | www.virtualdub-fr.org || (build 2550/release)
Writing library                          : VirtualDubMod build 2550/release
Video
ID                                       : 0
Format                                   : MPEG-4 Visual
Format profile                           : Advanced [email protected]
Format settings, BVOP                    : 1
Format settings, QPel                    : No
Format settings, GMC                     : No warppoints
Format settings, Matrix                  : Custom
Codec ID                                 : XVID
Codec ID/Hint                            : XviD
Duration                                 : 2h 10mn
Bit rate                                 : 1 209 Kbps
Width                                    : 720 pixels
Height                                   : 304 pixels
Display aspect ratio                     : 2.35:1
Frame rate                               : 23.976 fps
Color space                              : YUV
Chroma subsampling                       : 4:2:0
Bit depth                                : 8 bits
Scan type                                : Progressive
Compression mode                         : Lossy
Bits/(Pixel*Frame)                       : 0.230
Stream size                              : 1.10 GiB (75%)
Writing library                          : XviD 73
Audio
ID                                       : 1
Format                                   : AC-3
Format/Info                              : Audio Coding 3
Mode extension                           : CM (complete main)
Format settings, Endianness              : Big
Codec ID                                 : 2000
Duration                                 : 2h 10mn
Bit rate mode                            : Constant
Bit rate                                 : 384 Kbps
Channel(s)                               : 6 channels
Channel positions                        : Front: L C R, Side: L R, LFE
Sampling rate                            : 48.0 KHz
Bit depth                                : 16 bits
Compression mode                         : Lossy
Stream size                              : 359 MiB (24%)
Alignment                                : Split accross interleaves
Interleave, duration                     : 42 ms (1.00 video frame)
Interleave, preload duration             : 500 ms

Комментарий от Suxrob89


хороший фильм

Создавать темы 18-Июл-2014 01:53

[Профиль]  [ЛС] 

Taa6969

Стаж: 6 лет 4 месяца

Сообщений: 123

Симпатии: 2

классный фильм

Создавать темы 18-Июл-2014 16:55

[Профиль]  [ЛС] 

sinsanek

Стаж: 4 года 9 месяцев

Сообщений: 10

а чувачок то играл наркошу в сериальчиге "во все тяжкие"

Создавать темы 19-Июл-2014 01:32

[Профиль]  [ЛС] 

Kakcam

Стаж: 7 лет

Сообщений: 137

Симпатии: 7

понравилась концовка фильма где говорит стоило ли выйти чтоб доказать свою правоту и сесть обратно!

Создавать темы 20-Июл-2014 19:47

[Профиль]  [ЛС] 

beka755

Стаж: 3 года 11 месяцев

Сообщений: 229

Симпатии: 15

Чё-то у меня звука нету?Народ помогите!!

Создавать темы 22-Июл-2014 09:13

[Профиль]  [ЛС] 

Evropa

Стаж: 6 лет 11 месяцев

Сообщений: 174

Симпатии: 30

В фильме было снято семь супер каров: Koenigsegg Agera R, Lamborghini Sesto Elemento, GTA Spano, Saleen S7, Bugatti Veyron, McLaren P1 и Mercedes-Benz SLR McLaren Edition.

Кроме этого, в фильме появятся: Ford F-450 "Зверюга" (или "Чудовище" в русском варианте озвучки фильма) Ford Mustang 6-го поколения Ford Gran Torino 1969 года,
Chevrolet Camaro 1968 года, Pontiac GTO 1966 года, BMW M3 E30, Dodge Charger SRT
Автомобили Аарона Пола и Доминика Купера на самом деле управлялись известными гонщиками Таннером Фаустом и Ризом Милленом. Соответственно, за рулём других суперкаров во время финальной гонки сидели другие профессиональные гонщики, в их числе — Рич Разерфорд, Тони Бракохиапа (Tony Brakohiapa), Брент Флетчер (Brent Fletcher) и Пол Далленбах.

Создавать темы 23-Июл-2014 20:07

[Профиль]  [ЛС] 

chill

Стаж: 7 лет

Сообщений: 55

Симпатии: 4

bs Всем спасибо. За раздачу! bs

Создавать темы 01-Авг-2014 12:01

[Профиль]  [ЛС] 

gleis

Стаж: 5 лет 10 месяцев

Сообщений: 28

фильм хорош, но могли бы актеров по-дороже нанять((
спасибо за раздачу!

Создавать темы 04-Авг-2014 23:39

[Профиль]  [ЛС] 

Farrux2012

Стаж: 6 лет

Сообщений: 28

Симпатии: 2

Фильм супер (скорость раздачи то же супер спасибо) так держать mb

Создавать темы 05-Авг-2014 00:17

[Профиль]  [ЛС] 

utemurat

Стаж: 5 лет 2 месяца

Сообщений: 35

Симпатии: 1

золотая раздача когда будет?

Создавать темы 16-Авг-2014 20:22

[Профиль]  [ЛС] 

X3JumperRaZ0R

Стаж: 5 лет 5 месяцев

Сообщений: 177

Симпатии: 151

Фильм норм но с ФОРСАЖЕМ не сравнитс9

Создавать темы 17-Авг-2014 17:44

[Профиль]  [ЛС] 

Infernal

Стаж: 7 лет 9 месяцев

Сообщений: 34

а что за песня играет примерно в середине фильма?

Создавать темы 09-Сен-2014 17:31

[Профиль]  [ЛС] 

Infernal

Стаж: 7 лет 9 месяцев

Сообщений: 34

873129а что за песня играет примерно в середине фильма?
вот время на которой она играет "1:10:18"

Создавать темы 09-Сен-2014 17:56

[Профиль]  [ЛС] 

baltasar

Стаж: 3 года 11 месяцев

Сообщений: 13

Симпатии: 2

862111фильм хорош, но могли бы актеров по-дороже нанять((
спасибо за раздачу!
мне кажется весь бюджет ушел на тачки. )))

Создавать темы 22-Сен-2014 23:07

[Профиль]  [ЛС] 

FoxSage

Стаж: 4 года 5 месяцев

Сообщений: 197

Симпатии: 19

Будьте так любезны скорости побольше дайте)

Создавать темы 04-Ноя-2014 15:24

[Профиль]  [ЛС] 
Показать сообщения:    
Ответить на тему

Текущее время: 14-Дек 07:33

Часовой пояс: UTC + 5



Вы не можете начинать темы
Вы не можете отвечать на сообщения
Вы не можете редактировать свои сообщения
Вы не можете удалять свои сообщения
Вы не можете голосовать в опросах
Вы не можете прикреплять файлы к сообщениям
Вы не можете скачивать файлы