Элвин и бурундуки: Трилогия / Alvin and the Chipmunks: Trilogy [2007,2009, 2011 г. мультфильм, фэнтези, комедия, семейный, музыка, BDRip-AVC]

Ответить на тему
 

Akmal89 ®

Стаж: 5 лет 8 месяцев

Сообщений: 237

Симпатии: 99

-

Элвин и бурундуки / Alvin and the Chipmunks

-- Информация о фильме:
Год выпуска:2007
Страна: США
Жанр: мультфильм, фэнтези, комедия, семейный, музыка
Продолжительность: 01:31:13
Перевод: Профессиональный (дублированный)
Режиссер: Тим Хилл--В ролях: Джейсон Ли, Дэвид Кросс, Кэмерон Ричардсон, Джейн Линч, Оливер Мьюрхед, Вероника Алисино--Описание: Жизнь композитора была одной черной полосой до тех пор, пока он не встретил трех живых поющих бурундуков: лидера Элвина, гения Саймона и феерического Теодора. Поначалу они плохо уживаются вместе, но в конце концов Дэйв принимает бурундуков и даже становится менеджером их рок-группы, которая собирает стадионы поклонников.--бюджет: $60 000 000
сборы в США: $217 326 974
сборы в мире: + $144 009 659 = $361 336 633
сборы в России: $2 686 000
DVD в США: $137 719 469--Рейтинг:- --Файл:
Качество: BDRip-AVC
Формат: MKV
Видео кодек: MPEG 4
Аудио кодек: AC3
Видео: 1280 x 688, 23.976 fps, 2 724 Kbps
Аудио#1: Russian AC3, 6ch, 384Kbps, 48.0 kHz
Аудио#2: English AC3, 6ch, 384Kbps, 48.0 kHz
--

Media Info

N:\Filmi\Элвин и бурундуки Трилогия\Элвин и бурундуки.mkv
General
Unique ID : 244217577333898134447249031053860922299 (0xB7BA983206264422A18C622D28C7E3BB)
Complete name : N:\Filmi\Элвин и бурундуки Трилогия\Элвин и бурундуки.mkv
Format : Matroska
Format version : Version 2
File size : 2.27 GiB
Duration : 1h 31mn
Overall bit rate : 3 563 Kbps
Encoded date : UTC 2012-04-07 04:15:26
Writing application : mkvmerge v4.0.0 ('The Stars were mine') сборка от Jun 6 2010 16:18:42
Writing library : libebml v1.0.0 + libmatroska v1.0.0
Video #1
ID : 1
Format : AVC
Format/Info : Advanced Video Codec
Format profile : [email protected]
Format settings, CABAC : Yes
Format settings, ReFrames : 3 frames
Codec ID : V_MPEG4/ISO/AVC
Duration : 1h 31mn
Bit rate : 2 724 Kbps
Nominal bit rate : 3 000 Kbps
Width : 1 280 pixels
Height : 688 pixels
Display aspect ratio : 1.85:1
Frame rate mode : Constant
Frame rate : 23.976 fps
Color space : YUV
Chroma subsampling : 4:2:0
Bit depth : 8 bits
Scan type : Progressive
Bits/(Pixel*Frame) : 0.129
Stream size : 1.74 GiB (76%)
Writing library : x264 core 116 r2019M 9cc407d
Encoding settings : cabac=1 / ref=3 / deblock=1:0:0 / analyse=0x3:0x133 / me=dia / subme=5 / psy=1 / psy_rd=1.00:0.20 / mixed_ref=1 / me_range=16 / chroma_me=1 / trellis=0 / 8x8dct=1 / cqm=0 / deadzone=21,11 / fast_pskip=1 / chroma_qp_offset=0 / threads=9 / sliced_threads=0 / nr=0 / decimate=1 / interlaced=0 / bluray_compat=0 / constrained_intra=0 / bframes=3 / b_pyramid=1 / b_adapt=0 / b_bias=0 / direct=3 / weightb=1 / open_gop=0 / weightp=0 / keyint=230 / keyint_min=23 / scenecut=40 / intra_refresh=0 / rc_lookahead=40 / rc=cbr / mbtree=1 / bitrate=3000 / ratetol=1.0 / qcomp=0.60 / qpmin=10 / qpmax=51 / qpstep=4 / vbv_maxrate=3000 / vbv_bufsize=3000 / nal_hrd=none / ip_ratio=1.40 / aq=1:1.00
Language : English
Default : Yes
Forced : No
Audio #2
ID : 2
Format : AC-3
Format/Info : Audio Coding 3
Mode extension : CM (complete main)
Format settings, Endianness : Big
Codec ID : A_AC3
Duration : 1h 31mn
Bit rate mode : Constant
Bit rate : 384 Kbps
Channel(s) : 6 channels
Channel positions : Front: L C R, Side: L R, LFE
Sampling rate : 48.0 KHz
Bit depth : 16 bits
Compression mode : Lossy
Stream size : 251 MiB (11%)
Title : Дублированный
Language : Russian
Default : Yes
Forced : No
Audio #3
ID : 3
Format : AC-3
Format/Info : Audio Coding 3
Mode extension : CM (complete main)
Format settings, Endianness : Big
Codec ID : A_AC3
Duration : 1h 31mn
Bit rate mode : Constant
Bit rate : 384 Kbps
Channel(s) : 6 channels
Channel positions : Front: L C R, Side: L R, LFE
Sampling rate : 48.0 KHz
Bit depth : 16 bits
Compression mode : Lossy
Stream size : 251 MiB (11%)
Title : Оригинал
Language : English
Default : No
Forced : No

Скриншоты


Элвин и бурундуки 2 / Alvin and the Chipmunks 2

-- Информация о фильме:
Год выпуска:2009
Страна: США
Жанр: мультфильм, фэнтези, комедия, семейный, музыка
Продолжительность: 01:28:34
Перевод: Профессиональный (дублированный)
Режиссер: Бетти Томас--В ролях: Джейсон Ли, Захари Леви, Дэвид Кросс, Джастин Лонг, Кристина Эпплгейт, Анна Фарис--Описание: Три веселых бурундука Элвин, Саймон и Теодор поступают в школу, где их ждут новые приключения. Им придется столкнуться с множеством преград со стороны одноклассников. Но самое главное — их ожидает соперничество с новой музыкальной командой, состоящей из девочек-бурундуков, которое впоследствии перерастет в большую дружбу.--бюджет: $75 000 000
сборы в США: $219 614 612
сборы в мире: + $223 525 241 = $443 139 853
сборы в России: $5 073 245--Рейтинг:- --Файл:
Качество: BDRip-AVC
Формат: MKV
Видео кодек: MPEG 4
Аудио кодек: AC3
Видео: 1280 x 690, 23.976 fps, 3 000 Kbps
Аудио#1: Russian AC3, 6ch, 384Kbps, 48.0 kHz
Аудио#2: English AC3, 6ch, 384Kbps, 48.0 kHz
--

Media Info

N:\Filmi\Элвин и бурундуки Трилогия\Элвин и бурундуки 2.mkv
General
Unique ID : 19897114919129849984865560634933960205 (0xEF80B8161DBD0A50A7B037FF2CCDE0D)
Complete name : N:\Filmi\Элвин и бурундуки Трилогия\Элвин и бурундуки 2.mkv
Format : Matroska
Format version : Version 2
File size : 2.22 GiB
Duration : 1h 28mn
Overall bit rate : 3 583 Kbps
Writing application : XviD4PSP 6.0 / 53.6.0
Writing library : XviD4PSP 6.0 / 53.6.0
Video #1
ID : 1
Format : AVC
Format/Info : Advanced Video Codec
Format profile : [email protected]
Format settings, CABAC : Yes
Format settings, ReFrames : 3 frames
Codec ID : V_MPEG4/ISO/AVC
Duration : 1h 28mn
Bit rate : 2 743 Kbps
Nominal bit rate : 3 000 Kbps
Width : 1 280 pixels
Height : 690 pixels
Display aspect ratio : 1.85:1
Frame rate mode : Constant
Frame rate : 23.976 fps
Color space : YUV
Chroma subsampling : 4:2:0
Bit depth : 8 bits
Scan type : Progressive
Bits/(Pixel*Frame) : 0.130
Stream size : 1.70 GiB (77%)
Writing library : x264 core 116 r2019M 9cc407d
Encoding settings : cabac=1 / ref=3 / deblock=1:0:0 / analyse=0x3:0x133 / me=dia / subme=5 / psy=1 / psy_rd=1.00:0.20 / mixed_ref=1 / me_range=16 / chroma_me=1 / trellis=0 / 8x8dct=1 / cqm=0 / deadzone=21,11 / fast_pskip=1 / chroma_qp_offset=0 / threads=9 / sliced_threads=0 / nr=0 / decimate=1 / interlaced=0 / bluray_compat=0 / constrained_intra=0 / bframes=3 / b_pyramid=1 / b_adapt=0 / b_bias=0 / direct=3 / weightb=1 / open_gop=0 / weightp=0 / keyint=230 / keyint_min=23 / scenecut=40 / intra_refresh=0 / rc_lookahead=40 / rc=cbr / mbtree=1 / bitrate=3000 / ratetol=1.0 / qcomp=0.60 / qpmin=10 / qpmax=51 / qpstep=4 / vbv_maxrate=3000 / vbv_bufsize=3000 / nal_hrd=none / ip_ratio=1.40 / aq=1:1.00
Language : English
Default : Yes
Forced : No
Audio #2
ID : 2
Format : AC-3
Format/Info : Audio Coding 3
Mode extension : CM (complete main)
Format settings, Endianness : Big
Codec ID : A_AC3
Duration : 1h 28mn
Bit rate mode : Constant
Bit rate : 384 Kbps
Channel(s) : 6 channels
Channel positions : Front: L C R, Side: L R, LFE
Sampling rate : 48.0 KHz
Bit depth : 16 bits
Compression mode : Lossy
Stream size : 243 MiB (11%)
Title : DUB, AC3 5.1, 384 kbps
Language : Russian
Default : Yes
Forced : No
Audio #3
ID : 3
Format : AC-3
Format/Info : Audio Coding 3
Mode extension : CM (complete main)
Format settings, Endianness : Big
Codec ID : A_AC3
Duration : 1h 28mn
Bit rate mode : Constant
Bit rate : 384 Kbps
Channel(s) : 6 channels
Channel positions : Front: L C R, Side: L R, LFE
Sampling rate : 48.0 KHz
Bit depth : 16 bits
Compression mode : Lossy
Stream size : 243 MiB (11%)
Title : DTS 5.1, 1510 kbps
Language : English
Default : Yes
Forced : No

Скриншоты


Элвин и бурундуки 3 / Alvin and the Chipmunks: Chipwrecked

-- Информация о фильме:
Год выпуска:2011
Страна: США
Жанр: мультфильм, фэнтези, комедия, семейный, музыка
Продолжительность: 01:27:11
Перевод: Профессиональный (дублированный)
Режиссер: Майк Митчелл--В ролях: Джейсон Ли, Дэвид Кросс, Дженни Слейт, Джастин Лонг, Мэттью Грей Гублер, Джесси МакКартни, Эми Полер, Анна Фэрис, Кристина Эпплгейт, Алан Тьюдик--Описание: Приключения троицы непоседливых братьев-бурундуков продолжаются! Элвин, Саймон и Теодор, а также их подруги бурундушки, просто не могут оставаться в стороне от различного рода неприятностей, сулящих им новые увлекательные приключения. Что на этот раз уготовила судьба нашим героям, и как они выпутаются из очередной передряги — вот в чём вопрос.--бюджет: $75 000 000
сборы в США: $133 110 742
сборы в мире: + $209 584 693 = $342 695 435
сборы в России: $6 901 871--Рейтинг:- --Файл:
Качество: BDRip-AVC
Формат: MKV
Видео кодек: MPEG 4
Аудио кодек: AC3
Видео: 1280 x 688, 23.976 fps, 3 209 Kbps
Аудио#1: Russian AC3, 6ch, 384Kbps, 48.0 kHz
--

Media Info

N:\Filmi\Элвин и бурундуки Трилогия\Элвин и бурундуки 3.mkv
General
Unique ID : 245829479256821795818873313279942594069 (0xB8F1091895B1A9DFA278B75162040E15)
Complete name : N:\Filmi\Элвин и бурундуки Трилогия\Элвин и бурундуки 3.mkv
Format : Matroska
Format version : Version 2
File size : 2.18 GiB
Duration : 1h 27mn
Overall bit rate : 3 587 Kbps
Encoded date : UTC 2012-03-14 19:41:14
Writing application : mkvmerge v3.2.0 ('Beginnings') built on Feb 12 2010 16:46:17
Writing library : libebml v0.7.9 + libmatroska v0.8.1
Video #1
ID : 1
Format : AVC
Format/Info : Advanced Video Codec
Format profile : [email protected]
Format settings, CABAC : Yes
Format settings, ReFrames : 4 frames
Codec ID : V_MPEG4/ISO/AVC
Duration : 1h 27mn
Bit rate : 3 209 Kbps
Width : 1 280 pixels
Height : 688 pixels
Display aspect ratio : 1.85:1
Frame rate mode : Constant
Frame rate : 23.976 fps
Color space : YUV
Chroma subsampling : 4:2:0
Bit depth : 8 bits
Scan type : Progressive
Bits/(Pixel*Frame) : 0.152
Stream size : 1.91 GiB (87%)
Title : Элвин и бурундуки 3
Writing library : x264 core 120 r2164 da19765
Encoding settings : cabac=1 / ref=4 / deblock=1:0:0 / analyse=0x3:0x133 / me=hex / subme=7 / psy=1 / psy_rd=1.00:0.00 / mixed_ref=1 / me_range=16 / chroma_me=1 / trellis=1 / 8x8dct=1 / cqm=0 / deadzone=21,11 / fast_pskip=1 / chroma_qp_offset=-2 / threads=6 / sliced_threads=0 / nr=0 / decimate=1 / interlaced=0 / bluray_compat=0 / constrained_intra=0 / bframes=3 / b_pyramid=2 / b_adapt=2 / b_bias=0 / direct=1 / weightb=1 / open_gop=0 / weightp=2 / keyint=240 / keyint_min=23 / scenecut=40 / intra_refresh=0 / rc_lookahead=40 / rc=2pass / mbtree=1 / bitrate=3209 / ratetol=2.0 / qcomp=0.60 / qpmin=0 / qpmax=69 / qpstep=4 / cplxblur=20.0 / qblur=0.5 / ip_ratio=1.40 / aq=1:1.00
Language : English
Default : Yes
Forced : No
Audio #2
ID : 2
Format : AC-3
Format/Info : Audio Coding 3
Mode extension : CM (complete main)
Format settings, Endianness : Big
Codec ID : A_AC3
Duration : 1h 27mn
Bit rate mode : Constant
Bit rate : 384 Kbps
Channel(s) : 6 channels
Channel positions : Front: L C R, Side: L R, LFE
Sampling rate : 48.0 KHz
Bit depth : 16 bits
Compression mode : Lossy
Stream size : 239 MiB (11%)
Title : Дублированное [лицензия]
Language : Russian
Default : Yes
Forced : No

Скриншоты


Создавать темы 18-Июл-2014 21:06

[Профиль]  [ЛС] 

weballigator

Стаж: 5 лет 11 месяцев

Сообщений: 3

Симпатии: 1

a tretogo chasta angliyskogo dorojka netu, jal a tak klassnniy zbornik! mb

Создавать темы 26-Июл-2014 17:33

[Профиль]  [ЛС] 

HDM_Prepress

Стаж: 6 лет 7 месяцев

Сообщений: 14

Симпатии: 2

Уважаемые скачавшие!
Поддайте газку плз!

Создавать темы 06-Ноя-2014 22:24

[Профиль]  [ЛС] 
Показать сообщения:    
Ответить на тему

Текущее время: 24-Ноя 05:31

Часовой пояс: UTC + 5



Вы не можете начинать темы
Вы не можете отвечать на сообщения
Вы не можете редактировать свои сообщения
Вы не можете удалять свои сообщения
Вы не можете голосовать в опросах
Вы не можете прикреплять файлы к сообщениям
Вы не можете скачивать файлы