Звери и хозяин заставы / Animals with the Tollkeeper (Майкл Ди Джакомо) [1998 г., фэнтези, мелодрама, ..., DVDRip]

Ответить на тему
 

igor1968 ®

Стаж: 5 лет 9 месяцев

Сообщений: 366

Симпатии: 197

Звери и хозяин заставы / Animals with the Tollkeeper
Год выпуска: 1998
Страна:
Жанр: фэнтези, мелодрама, ...
Продолжительность: 01:43:27.541
Перевод: Профессиональный (одноголосый)
Режиссер: Майкл Ди Джакомо

В ролях: Тим Рот
Мили Авитал
Род Стайгер
Микки Руни
Джон Туртурро
Жак Эрлен
Лотер Блюто
Кристофер Феннел
Барбара Бэйн
Френсис Бук
...
- Трем эксцентричным пассажирам удается втянуть отчаявшегося водителя такси в сумасшедшую авантюру — отправиться на поиски приключений в загадочное путешествие. И вот в совершенно необычном месте они находят свое счастье, встречают нежданную любовь, и, казалось бы, уже потерянная жизнь вновь приобретает смысл и окрашивается в яркие краски.- -Качество: DVDRip
Формат: AVI
Видео кодек: XviD
Аудио кодек: AC3
Видео: 704x384 (1.83:1), 23.976 fps, XviD build 65 ~1631 kbps avg, 0.25 bit/pixel
Audio #1: 48 kHz, AC3 Dolby Digital, 2/0 (L,R) ch, ~192.00 kbps avg (rus)
Audio #2: 48 kHz, AC3 Dolby Digital, 2/0 (L,R) ch, ~192.00 kbps avg (eng)-

MediaInfo

General
Complete name : Звери и хозяин заставы\[1998] Animals with the Tollkeeper.avi
Format : AVI
Format/Info : Audio Video Interleave
File size : 1.47 GiB
Duration : 1h 43mn
Overall bit rate : 2 030 Kbps
Writing application : VirtualDubMod 1.5.10.2 (build 2540/release)
Writing library : VirtualDubMod build 2540/release
Copyright : fozzy412
Video
ID : 0
Format : MPEG-4 Visual
Format profile : Advanced [email protected]
Format settings, BVOP : 1
Format settings, QPel : No
Format settings, GMC : No warppoints
Format settings, Matrix : Default (MPEG)
Codec ID : DX50
Codec ID/Hint : DivX 5
Duration : 1h 43mn
Bit rate : 1 632 Kbps
Width : 704 pixels
Height : 384 pixels
Display aspect ratio : 16:9
Frame rate : 23.976 fps
Color space : YUV
Chroma subsampling : 4:2:0
Bit depth : 8 bits
Scan type : Progressive
Compression mode : Lossy
Bits/(Pixel*Frame) : 0.252
Stream size : 1.18 GiB (80%)
Writing library : XviD 65
Audio #1
ID : 1
Format : AC-3
Format/Info : Audio Coding 3
Mode extension : CM (complete main)
Codec ID : 2000
Duration : 1h 43mn
Bit rate mode : Constant
Bit rate : 192 Kbps
Channel(s) : 2 channels
Channel positions : Front: L R
Sampling rate : 48.0 KHz
Bit depth : 16 bits
Compression mode : Lossy
Stream size : 142 MiB (9%)
Alignment : Split accross interleaves
Interleave, duration : 42 ms (1.00 video frame)
Interleave, preload duration : 500 ms
Title : AVO
Audio #2
ID : 2
Format : AC-3
Format/Info : Audio Coding 3
Mode extension : CM (complete main)
Codec ID : 2000
Duration : 1h 43mn
Bit rate mode : Constant
Bit rate : 192 Kbps
Channel(s) : 2 channels
Channel positions : Front: L R
Sampling rate : 48.0 KHz
Bit depth : 16 bits
Compression mode : Lossy
Stream size : 142 MiB (9%)
Alignment : Split accross interleaves
Interleave, duration : 42 ms (1.00 video frame)
Interleave, preload duration : 500 ms
Title : ENG
- - -

Создавать темы 20-Июл-2014 14:09

[Профиль]  [ЛС] 
Показать сообщения:    
Ответить на тему

Текущее время: 13-Дек 12:17

Часовой пояс: UTC + 5



Вы не можете начинать темы
Вы не можете отвечать на сообщения
Вы не можете редактировать свои сообщения
Вы не можете удалять свои сообщения
Вы не можете голосовать в опросах
Вы не можете прикреплять файлы к сообщениям
Вы не можете скачивать файлы