Ватель / Vatel (Роланд Жоффе) [2000 г., драма, мелодрама, биография, ..., DVDRip]

Ответить на тему
 

igor1968 ®

Стаж: 5 лет 8 месяцев

Сообщений: 366

Симпатии: 197

Ватель / Vatel«Some men are too noble to live among aristocracy» Год выпуска: 2000
Страна:
Жанр: драма, мелодрама, биография, ...
Продолжительность: 01:52:27.959
Перевод: Профессиональный (полное дублирование)
Режиссер: Роланд Жоффе
-В ролях: Жерар Депардье
Ума Турман
Тим Рот
Тимоти Сполл
Джулиан Гловер
Джулиан Сэндс
Мюррэй Лачлан Янг
Хайвел Беннетт
Ричард Гриффитс
Ариель Домбаль
...
-Роли дублировали:
Петр Семак
Александр Баргман
Вадим Гущин
Николай Буров
Евгений Дятлов
...
- Франция. 1671 год. Его Величество «король Солнце» Луи XIV в сопровождении королевы и многочисленной свиты изъявляет желание навестить замок принца Де Кондэ и провести там три дня. Небывалая честь одновременно и радует и пугает принца, ведь обедневшее поместье вряд ли сможет оказать достойный первой особы прием.
Единственная надежда хозяина — его верный дворецкий — устроитель праздников и выдумщик Франсуа Ватель. Возглавив армию слуг, он готовит феерическое действо, приправленное изысканным меню и небывалыми увеселениями.
Роскошный прием удался на славу, восторгу знатных гостей нет предела, а первая особа в государстве снова благоволит опальному принцу.
Но на фоне большого праздника не утихают политические, дворцовые и любовные интриги, в паутину которых оказывается втянутым и Ватель.- -Качество: DVDRip
Формат: AVI
Видео кодек: DivX
Аудио кодек: MPEG Audio
Видео: 512x250 (2.05:1), 25 fps, DivX ;-) MPEG-4 Low-Motion ~767 kbps avg, 0.24 bit/pixel
Аудио: 22.050 kHz, MPEG Layer 3, 2 ch, ~64.00 kbps avg-

MediaInfo

General
Complete name : \Vatel.avi
Format : AVI
Format/Info : Audio Video Interleave
File size : 676 MiB
Duration : 1h 52mn
Overall bit rate : 841 Kbps
Writing library : VirtualDub build 12903/release
Video
ID : 0
Format : MPEG-4 Visual
Codec ID : DIV3
Codec ID/Hint : DivX 3 Low
Duration : 1h 52mn
Bit rate : 767 Kbps
Width : 512 pixels
Height : 250 pixels
Display aspect ratio : 2.048
Frame rate : 25.000 fps
Color space : YUV
Chroma subsampling : 4:2:0
Bit depth : 8 bits
Compression mode : Lossy
Bits/(Pixel*Frame) : 0.240
Stream size : 617 MiB (91%)
Audio
ID : 1
Format : MPEG Audio
Format version : Version 2
Format profile : Layer 3
Mode : Joint stereo
Mode extension : Intensity Stereo + MS Stereo
Codec ID : 55
Codec ID/Hint : MP3
Duration : 1h 52mn
Bit rate mode : Constant
Bit rate : 64.0 Kbps
Channel(s) : 2 channels
Sampling rate : 22.05 KHz
Compression mode : Lossy
Stream size : 51.5 MiB (8%)
Alignment : Split accross interleaves
Interleave, duration : 40 ms (1.00 video frame)
Interleave, preload duration : 500 ms
- - -

Создавать темы 21-Июл-2014 00:24

[Профиль]  [ЛС] 
Показать сообщения:    
Ответить на тему

Текущее время: 24-Ноя 16:12

Часовой пояс: UTC + 5



Вы не можете начинать темы
Вы не можете отвечать на сообщения
Вы не можете редактировать свои сообщения
Вы не можете удалять свои сообщения
Вы не можете голосовать в опросах
Вы не можете прикреплять файлы к сообщениям
Вы не можете скачивать файлы