Темная вода / Dark Water (Уолтер Саллес) [2005 г., ужасы, триллер, драма, HDRip]

Ответить на тему
 

igor1968 ®

Стаж: 5 лет 6 месяцев

Сообщений: 366

Симпатии: 197

Темная вода / Dark Water«Dark water conceals darker secrets»-- Год выпуска: 2005
Страна: США
Жанр: ужасы, триллер, драма
Продолжительность: 01:44:22
Перевод: Профессиональный (полное дублирование)--Режиссер: Уолтер Саллес--В ролях: Дженнифер Коннелли, Джон С. Рейлли, Тим Рот, Дугрэй Скотт, Пит Постлетуэйт, Кэмрин Мэнхайм, Эриел Гэйд, Перла Хани-Жардин, Дебра Монк, Линда Имонд-- : Далиа Уильямс начинает новую жизнь. У нее новая квартира, новая работа, и она решает забыть про мужа, с которым не сложилось, и посвятить себя всю воспитанию дочери, Сеси. Но когда разлука превращается в битву за опекунство над дочкой, ситуация для Далии меняется к худшему. К тому же ее некрасивая, тесная и обветшалая квартира, похоже, живет своей жизнью. Загадочные звуки, постоянные подтеки темной воды и разные загадочные происшествия сводят ее с ума. Далиа решает узнать, кто стоит за всеми этими играми с сознанием. В то время, как она отчаянно ищет какую бы то ни было связь между загадками, темная вода потихоньку смыкается вокруг нее. Но Далии все равно, она не остановится ни перед чем, пока не узнает в чем дело…--Рейтинг:
 --Качество: HDRip [рип с BDRip 720p]
Формат: AVI
Видео: 672x288 (2.33:1), 23.976 fps, XviD build 47 ~858 kbps avg, 0.19 bit/pixel
Аудио: 48 kHz, MPEG Layer 3, 2 ch, ~128.00 kbps avg-----

MediaInfo

General
Complete name : D:\Dark.Water.2005.hdrip_[745]_[teko].avi
Format : AVI
Format/Info : Audio Video Interleave
File size : 744 MiB
Duration : 1h 44mn
Overall bit rate : 996 Kbps
Writing application : VirtualDubMod 1.5.10.2 (build 2540/release)
Writing library : VirtualDubMod build 2540/release
Video
ID : 0
Format : MPEG-4 Visual
Format profile : Advanced [email protected]
Format settings, BVOP : 1
Format settings, QPel : No
Format settings, GMC : No warppoints
Format settings, Matrix : Default (MPEG)
Codec ID : XVID
Codec ID/Hint : XviD
Duration : 1h 44mn
Bit rate : 859 Kbps
Width : 672 pixels
Height : 288 pixels
Display aspect ratio : 2.35:1
Frame rate : 23.976 fps
Color space : YUV
Chroma subsampling : 4:2:0
Bit depth : 8 bits
Scan type : Progressive
Compression mode : Lossy
Bits/(Pixel*Frame) : 0.185
Stream size : 641 MiB (86%)
Writing library : XviD 1.2.0.dev47 (UTC 2006-11-01)
Audio
ID : 1
Format : MPEG Audio
Format version : Version 1
Format profile : Layer 3
Codec ID : 55
Codec ID/Hint : MP3
Duration : 1h 44mn
Bit rate mode : Constant
Bit rate : 128 Kbps
Channel(s) : 2 channels
Sampling rate : 48.0 KHz
Compression mode : Lossy
Stream size : 95.6 MiB (13%)
Alignment : Aligned on interleaves
Interleave, duration : 42 ms (1.00 video frame)
Interleave, preload duration : 504 ms
Writing library : LAME3.97
Encoding settings : -m s -V 4 -q 2 -lowpass 17 -b 128

Скриншоты



-

Создавать темы 21-Июл-2014 11:10

[Профиль]  [ЛС] 

Иви

Стаж: 5 лет 8 месяцев

Сообщений: 688

Симпатии: 65

шапку подправил

Создавать темы 24-Июл-2014 14:17

[Профиль]  [ЛС] 
Показать сообщения:    
Ответить на тему

Текущее время: 20-Сен 19:56

Часовой пояс: UTC + 5



Вы не можете начинать темы
Вы не можете отвечать на сообщения
Вы не можете редактировать свои сообщения
Вы не можете удалять свои сообщения
Вы не можете голосовать в опросах
Вы не можете прикреплять файлы к сообщениям
Вы не можете скачивать файлы