Род человеческий / Extant / Сезон: 1 полный / Серии: 1-13 из 13 (Пэрис Барклай, Мэтт Эрл Бисли, Аллен Коултер) [2014, Научная фантастика, Триллер, Драма, WEB-DLRip] MVO (LostFilm)

Страницы :  1, 2  След.

Ответить на тему
 

Mpak ®

Стаж: 5 лет 2 месяца

Сообщений: 663

Симпатии: 340

Род человеческий / Extant
Год выпуска: 2014
Страна: США, Amblin Television, CBS Television Studios
Жанр: Научная фантастика, Триллер, Драма
Продолжительность: 00:41:00
Перевод: Профессиональный (многоголосый закадровый) LostFilm
Режиссёры: Дэниэл Эттиэс, Пэрис Барклэй, Мэтт Эрл Бисли, Аллен Култер, Холли Дэйл, Кевин Даулинг
В ролях: Холи Берри (Молли Вудс), Горан Вишнич (Джон Вудс), Пирс Гэнон (Итан Вудс), Брэд Бейер (Хармон Крюгер), Кэмрин Мэйнхайм (Сэм Бартон), Грэйс Гаммер (Джули Желино), Хироюки Санада (Хидэки Ясумото)
Описание: Астронавт Молли Вудс (Холли Берри) возвращается на Землю после 13-месячной одиночной космической экспедиции и обнаруживает, что беременна, и зачатие произошло на орбитальной станции. Женщина не помнит, как это произошло, а потому предпринимает отчаянные попытки скрыть случившееся от своего мужа Джона (Горан Вишнич) и усыновленного андроида Итана (Пирс Гэнон), с которыми по прибытии у нее складываются напряженные отношения. Помимо семейных проблем, Молли также ждут неприятности с руководством Центра управления полетами. Ее начальство отказывается верить в то, что Вудс случайно удалила несколько часов видео с внутренних камер наблюдения. Они ведут свое расследование и проявляют подозрительный интерес к возможному внеземному контакту. Молли придется приложить все усилия, чтобы спасти себя и семью от неминуемой опасности.
Качество: WEB-DLRip
Формат: AVI
Видео кодек: XviD
Аудио кодек: MP3
Видео: 720x400, 23.976 fps, XviD ~1 202 Kbps avg, 0.174 bit/pixel
Аудио: MP3, 2 ch, 192 Kbps

MediaInfo

Format : AVI
Format/Info : Audio Video Interleave
File size : 414 MiB
Duration : 41mn 16s
Overall bit rate mode : Variable
Overall bit rate : 1 402 Kbps
Writing application : Nandub v1.0rc2
Writing library : Nandub build 1853/release
Video
ID : 0
Format : MPEG-4 Visual
Format profile : Advanced [email protected]
Format settings, BVOP : No
Format settings, QPel : No
Format settings, GMC : No warppoints
Format settings, Matrix : Default (H.263)
Codec ID : XVID
Codec ID/Hint : XviD
Duration : 41mn 16s
Bit rate : 1 202 Kbps
Width : 720 pixels
Height : 400 pixels
Display aspect ratio : 16:9
Frame rate : 23.976 fps
Color space : YUV
Chroma subsampling : 4:2:0
Bit depth : 8 bits
Scan type : Progressive
Compression mode : Lossy
Bits/(Pixel*Frame) : 0.174
Stream size : 355 MiB (86%)
Writing library : XviD 1.2.1 (UTC 2008-12-04)
Audio
ID : 1
Format : MPEG Audio
Format version : Version 1
Format profile : Layer 3
Mode : Joint stereo
Mode extension : MS Stereo
Codec ID : 55
Codec ID/Hint : MP3
Duration : 41mn 16s
Bit rate mode : Variable
Bit rate : 192 Kbps
Channel(s) : 2 channels
Sampling rate : 48.0 KHz
Compression mode : Lossy
Stream size : 55.2 MiB (13%)
Alignment : Aligned on interleaves
Interleave, duration : 24 ms (0.58 video frame)
Interleave, preload duration : 508 ms
Writing library : LAME3.97b
Encoding settings : -m j -V 4 -q 3 -lowpass 18.6 --abr 192

Скриншоты



Последний раз редактировалось: Mpak (2014-09-19 19:50), всего редактировалось 11 раз(а)

Создавать темы 21-Июл-2014 14:23

[Профиль]  [ЛС] 

Doniyor

Стаж: 4 года 6 месяцев

Сообщений: 28

Симпатии: 3

[spoiler="Скриншоты"] [/spoiler]

Создавать темы 21-Июл-2014 14:53

[Профиль]  [ЛС] 

McFLY

Стаж: 5 лет 6 месяцев

Сообщений: 658

Симпатии: 22

"Род человеческий" - эт что-то новенькое :)

Создавать темы 21-Июл-2014 20:10

[Профиль]  [ЛС] 

Mpak ®

Стаж: 5 лет 2 месяца

Сообщений: 663

Симпатии: 340

856894"Род человеческий" - эт что-то новенькое :)
Не я перевод делал )) Я просто разместил объяву :)

Создавать темы 22-Июл-2014 15:20

[Профиль]  [ЛС] 

Anvar29

Стаж: 7 лет 1 месяц

Сообщений: 94

Симпатии: 5

Mpak,
Чтот вообще не качает.....

Создавать темы 25-Июл-2014 19:59

[Профиль]  [ЛС] 

Mpak ®

Стаж: 5 лет 2 месяца

Сообщений: 663

Симпатии: 340

Добавлена третья серия
858410Mpak,
Чтот вообще не качает.....
Раздача с компа идет на скорости до 8 мегабит. Включено только три раздачи, выключены даже внешние. Проблем с моей стороны не должно возникать

Создавать темы 25-Июл-2014 23:07

[Профиль]  [ЛС] 

Mpak ®

Стаж: 5 лет 2 месяца

Сообщений: 663

Симпатии: 340

Добавлена 4-ая серия

Создавать темы 02-Авг-2014 09:36

[Профиль]  [ЛС] 

4niko

Стаж: 6 лет 10 месяцев

Сообщений: 78

Симпатии: 11

Есть информации о кол-сезонов ?

Создавать темы 03-Авг-2014 10:38

[Профиль]  [ЛС] 

Mpak ®

Стаж: 5 лет 2 месяца

Сообщений: 663

Симпатии: 340

Добавлена 5 серия
Извиняюсь за задержку, комп удаленно не пускал )
861473Есть информации о кол-сезонов ?
Пока такой информации нет. Если будет - отпишу

Создавать темы 09-Авг-2014 13:03

[Профиль]  [ЛС] 

Mpak ®

Стаж: 5 лет 2 месяца

Сообщений: 663

Симпатии: 340

Добавлена 6 серия

Создавать темы 15-Авг-2014 22:45

[Профиль]  [ЛС] 

Mpak ®

Стаж: 5 лет 2 месяца

Сообщений: 663

Симпатии: 340

Таки добавлена 7-ая серия

Создавать темы 22-Авг-2014 22:43

[Профиль]  [ЛС] 

Mpak ®

Стаж: 5 лет 2 месяца

Сообщений: 663

Симпатии: 340

Добавлена 8-ая серия

Создавать темы 26-Авг-2014 10:31

[Профиль]  [ЛС] 

sharrav

Стаж: 3 года 7 месяцев

Сообщений: 42

Симпатии: 1

Как сериал? Стоит качать аль нет, отпишитесь, пожалуйста, кто скачал.

Создавать темы 26-Авг-2014 19:22

[Профиль]  [ЛС] 

4niko

Стаж: 6 лет 10 месяцев

Сообщений: 78

Симпатии: 11

Пока смотрим. 4 серия скучная но пока интересно.

Создавать темы 27-Авг-2014 17:18

[Профиль]  [ЛС] 

Mpak ®

Стаж: 5 лет 2 месяца

Сообщений: 663

Симпатии: 340

Добавлена 9-ая серия

Создавать темы 30-Авг-2014 19:55

[Профиль]  [ЛС] 
Показать сообщения:    
Ответить на тему

Текущее время: 20-Сен 23:07

Часовой пояс: UTC + 5



Вы не можете начинать темы
Вы не можете отвечать на сообщения
Вы не можете редактировать свои сообщения
Вы не можете удалять свои сообщения
Вы не можете голосовать в опросах
Вы не можете прикреплять файлы к сообщениям
Вы не можете скачивать файлы